https://www.dropbox.com/s/wtzzxa1n9c1dr … 29.7z?dl=0
Matches: http://redump.org/disc/23382/

Common Disc Info:
    Title: Dance Dance Revolution 2nd Remix: Append Club Version Vol. 1
    Foreign Title (Non-latin): ダンスダンスレボリューションセカンドリミックスアペンドクラブバージョンvol.1
    System: Sony PlayStation
    Media Type: CD-ROM
    Category: Games
    Region: Asia
    Languages: Japanese
    Disc Serial: SCPS 45456

    Ringcode Information:
        Mastering Code (laser branded/etched): SLPM-86370    1
        Mastering SID Code: IFPI L275
        Data-Side Mould SID Code: IFPI 4570
    EXE/Build Date: 1999-09-20
    Error Count: 1
    Comments: Internal Serial: SLPM-86370

Version and Editions:
    Edition/Release: Original

EDC:
    EDC: No

Extras:
    Primary Volume Descriptor (PVD):

0320 : 20 20 20 20 20 20 20 20  20 20 20 20 20 31 39 39                199
0330 : 39 31 30 30 38 31 32 30  30 30 30 30 30 24 30 30   9100812000000$00
0340 : 30 30 30 30 30 30 30 30  30 30 30 30 30 30 00 30   00000000000000.0
0350 : 30 30 30 30 30 30 30 30  30 30 30 30 30 30 30 00   000000000000000.
0360 : 30 30 30 30 30 30 30 30  30 30 30 30 30 30 30 30   0000000000000000
0370 : 00 01 00 00 00 00 00 00  00 00 00 00 00 00 00 00   ................

Copy Protection:
    Anti-modchip: Yes
READ_DT.BIN @ 0x2c0924: EN
READ_DT.BIN @ 0x2c0884: JP

    LibCrypt: No

Tracks and Write Offsets:
    DAT:

<rom name="Dance Dance Revolution 2nd Remix - Append Club Version Vol. 1 (Japan, Asia) (Track 01).bin" size="117955152" crc="7ca170b8" md5="d769ff81fc16e8a58c361e72d253764a" sha1="95c320035b1a46015d7decb632d1d8b3d0fe7d6a" />
<rom name="Dance Dance Revolution 2nd Remix - Append Club Version Vol. 1 (Japan, Asia) (Track 02).bin" size="14333088" crc="c08cf212" md5="ec00e204d3ff141fe36d5657c4b27fe0" sha1="3500068e5976416884530f064e79798ae0272828" />
<rom name="Dance Dance Revolution 2nd Remix - Append Club Version Vol. 1 (Japan, Asia) (Track 03).bin" size="19723872" crc="33c8887e" md5="f0b01c3fec68f949c02c8876fbfd8ad6" sha1="f1c04aac904c90522ad88515e1ec3b01effea7de" />
<rom name="Dance Dance Revolution 2nd Remix - Append Club Version Vol. 1 (Japan, Asia) (Track 04).bin" size="13690992" crc="2f329c00" md5="e3af03e55d1c1e1455c8a56925c132c9" sha1="681a1ef8ac9a9feaa9061bdafd257088b240af6d" />
<rom name="Dance Dance Revolution 2nd Remix - Append Club Version Vol. 1 (Japan, Asia) (Track 05).bin" size="17799936" crc="f90b3746" md5="8c31551436c4b6cb39f1136c4a91a4fe" sha1="e1e7ff359d019f83920756742c5297f76b3e58eb" />
<rom name="Dance Dance Revolution 2nd Remix - Append Club Version Vol. 1 (Japan, Asia) (Track 06).bin" size="13970880" crc="5488c59d" md5="79d5771f4c5577c58899f132a42e3253" sha1="5539b692240b1dd70b0914de4f1c70ce88919b73" />
<rom name="Dance Dance Revolution 2nd Remix - Append Club Version Vol. 1 (Japan, Asia) (Track 07).bin" size="13265280" crc="12bcd0bd" md5="cbda9950b3613d218f86a5d62fa0f159" sha1="357025b9b21cf9ff809c4fe67cbccdb3b4900ec1" />
<rom name="Dance Dance Revolution 2nd Remix - Append Club Version Vol. 1 (Japan, Asia) (Track 08).bin" size="14469504" crc="5163a3fb" md5="cd3d66134d981b5e080869b6968ceebc" sha1="ef224818acbbb8603b35fb375143991cf883ea52" />
<rom name="Dance Dance Revolution 2nd Remix - Append Club Version Vol. 1 (Japan, Asia) (Track 09).bin" size="13867392" crc="f1c67913" md5="c6a8779c0a90120f37fbf85b1bf91047" sha1="b91cd70abfa29839fc01ce7bf4191241d7ea7763" />
<rom name="Dance Dance Revolution 2nd Remix - Append Club Version Vol. 1 (Japan, Asia) (Track 10).bin" size="13589856" crc="e5b05869" md5="ecdc9c8a8d3b991070931c7cfe7233da" sha1="1a78807872f94eaa6c7a9a220484ec10fa52b66e" />
<rom name="Dance Dance Revolution 2nd Remix - Append Club Version Vol. 1 (Japan, Asia) (Track 11).bin" size="14497728" crc="8c474062" md5="50070b8406bf3e06da3b913a3bc5f76b" sha1="4db049a3266b3ffa105f089f10afe9d5617e1449" />
<rom name="Dance Dance Revolution 2nd Remix - Append Club Version Vol. 1 (Japan, Asia) (Track 12).bin" size="13947360" crc="d4a2360c" md5="4cfe33df08190d4396dd5681acdb8100" sha1="572c348825cb647ee09c49f80e99643f1075f83d" />
<rom name="Dance Dance Revolution 2nd Remix - Append Club Version Vol. 1 (Japan, Asia) (Track 13).bin" size="14321328" crc="8e429ca9" md5="98c9d30e56c2436e0d14e47f6d4f4aec" sha1="ffc87d479d728395b9379876cbbf2156feba1f6e" />
<rom name="Dance Dance Revolution 2nd Remix - Append Club Version Vol. 1 (Japan, Asia) (Track 14).bin" size="16344048" crc="4072dcdd" md5="4c448faf7b59a435e3947605aaaa8f8c" sha1="e6d19e99b5734a2093a09129b79f39f2664c9ab9" />
<rom name="Dance Dance Revolution 2nd Remix - Append Club Version Vol. 1 (Japan, Asia) (Track 15).bin" size="16885008" crc="e45af97a" md5="d60844b059d535c7acf6712423890d17" sha1="ea7dcbc1aef3710dfe8677f04016778cb6f7368b" />
<rom name="Dance Dance Revolution 2nd Remix - Append Club Version Vol. 1 (Japan, Asia) (Track 16).bin" size="13799184" crc="e836b5ab" md5="1bd130e2ed8702f707c6cb09f1374710" sha1="eefe1ad201469af47dba5e7bdbe837b2ca366dfd" />
<rom name="Dance Dance Revolution 2nd Remix - Append Club Version Vol. 1 (Japan, Asia) (Track 17).bin" size="12806640" crc="24213b62" md5="a6cb487d71fc0f4737e4dd10bc8c0117" sha1="7cfc260e657170c388273d1ed933b190984a194c" />
<rom name="Dance Dance Revolution 2nd Remix - Append Club Version Vol. 1 (Japan, Asia) (Track 18).bin" size="13780368" crc="14561a09" md5="96f809dc0388ae0befa41266c65140ce" sha1="41f1d2b4f2ded69728a778d9edde97b528a3ffbf" />
<rom name="Dance Dance Revolution 2nd Remix - Append Club Version Vol. 1 (Japan, Asia) (Track 19).bin" size="14264880" crc="becba09c" md5="3acecae52e446c1edbb8d783e21c2abf" sha1="112863c54a1b17ee745567a6814509ab6107aab5" />
<rom name="Dance Dance Revolution 2nd Remix - Append Club Version Vol. 1 (Japan, Asia) (Track 20).bin" size="13975584" crc="73dc2613" md5="3017edbd32646664ef6eee8cc97e3ee0" sha1="3a36cc851e5b5407a2dc11deb1e753d1d0264dca" />
<rom name="Dance Dance Revolution 2nd Remix - Append Club Version Vol. 1 (Japan, Asia) (Track 21).bin" size="17334240" crc="07064cc7" md5="9874eeb66520d38011f990e7c0b8027a" sha1="755f38f15f2e5740f06f292b7d9ab75d2619564d" />
<rom name="Dance Dance Revolution 2nd Remix - Append Club Version Vol. 1 (Japan, Asia) (Track 22).bin" size="18637248" crc="e29db12a" md5="22420d9cd7093772949ca5190ed3b8b6" sha1="b8540a0545e427fd5794f22bda05808234709f02" />
<rom name="Dance Dance Revolution 2nd Remix - Append Club Version Vol. 1 (Japan, Asia) (Track 23).bin" size="16120608" crc="fea8012b" md5="f11af4bb2f5205d8be87d992e5a322fa" sha1="0be755623168ad1e9b7a82b783d26080d7ac7f5f" />
<rom name="Dance Dance Revolution 2nd Remix - Append Club Version Vol. 1 (Japan, Asia) (Track 24).bin" size="15986544" crc="bfce0d76" md5="f529f8cb345740b41c8ae20011ad8005" sha1="628373926dfc6ea015eff8c3746d6a35536f9906" />
<rom name="Dance Dance Revolution 2nd Remix - Append Club Version Vol. 1 (Japan, Asia) (Track 25).bin" size="13255872" crc="8347f14e" md5="0ab860ae598b2d783a0b2fd465cf7839" sha1="fdf15a88cac743669b21ccf525142bfb943d9dff" />
<rom name="Dance Dance Revolution 2nd Remix - Append Club Version Vol. 1 (Japan, Asia) (Track 26).bin" size="14024976" crc="bc13182e" md5="e921b09f3c5078655794f046963e2f9b" sha1="4c50066cd755419d5d5b1f2e89a10dcd7b9a2c09" />
<rom name="Dance Dance Revolution 2nd Remix - Append Club Version Vol. 1 (Japan, Asia) (Track 27).bin" size="13994400" crc="dfb2fc1c" md5="6759aa6926ab4c73ef6a79a378bee0cf" sha1="85b44d7281c77046c5effb3c6df553ec87509867" />
<rom name="Dance Dance Revolution 2nd Remix - Append Club Version Vol. 1 (Japan, Asia) (Track 28).bin" size="32205936" crc="400a8e93" md5="4be9a75d41c323569ec328d33e467cc9" sha1="a8796fe5aea7b7381872f7baa66fcde4e89ac8a6" />

    Cuesheet:

FILE "Dance Dance Revolution 2nd Remix - Append Club Version Vol. 1 (Japan, Asia) (Track 01).bin" BINARY
  TRACK 01 MODE2/2352
    FLAGS DCP
    INDEX 01 00:00:00
FILE "Dance Dance Revolution 2nd Remix - Append Club Version Vol. 1 (Japan, Asia) (Track 02).bin" BINARY
  TRACK 02 AUDIO
    FLAGS DCP
    INDEX 00 00:00:00
    INDEX 01 00:02:00
FILE "Dance Dance Revolution 2nd Remix - Append Club Version Vol. 1 (Japan, Asia) (Track 03).bin" BINARY
  TRACK 03 AUDIO
    FLAGS DCP
    INDEX 00 00:00:00
    INDEX 01 00:02:00
FILE "Dance Dance Revolution 2nd Remix - Append Club Version Vol. 1 (Japan, Asia) (Track 04).bin" BINARY
  TRACK 04 AUDIO
    FLAGS DCP
    INDEX 00 00:00:00
    INDEX 01 00:02:00
FILE "Dance Dance Revolution 2nd Remix - Append Club Version Vol. 1 (Japan, Asia) (Track 05).bin" BINARY
  TRACK 05 AUDIO
    FLAGS DCP
    INDEX 00 00:00:00
    INDEX 01 00:02:00
FILE "Dance Dance Revolution 2nd Remix - Append Club Version Vol. 1 (Japan, Asia) (Track 06).bin" BINARY
  TRACK 06 AUDIO
    FLAGS DCP
    INDEX 00 00:00:00
    INDEX 01 00:02:00
FILE "Dance Dance Revolution 2nd Remix - Append Club Version Vol. 1 (Japan, Asia) (Track 07).bin" BINARY
  TRACK 07 AUDIO
    FLAGS DCP
    INDEX 00 00:00:00
    INDEX 01 00:02:00
FILE "Dance Dance Revolution 2nd Remix - Append Club Version Vol. 1 (Japan, Asia) (Track 08).bin" BINARY
  TRACK 08 AUDIO
    FLAGS DCP
    INDEX 00 00:00:00
    INDEX 01 00:02:00
FILE "Dance Dance Revolution 2nd Remix - Append Club Version Vol. 1 (Japan, Asia) (Track 09).bin" BINARY
  TRACK 09 AUDIO
    FLAGS DCP
    INDEX 00 00:00:00
    INDEX 01 00:02:00
FILE "Dance Dance Revolution 2nd Remix - Append Club Version Vol. 1 (Japan, Asia) (Track 10).bin" BINARY
  TRACK 10 AUDIO
    FLAGS DCP
    INDEX 00 00:00:00
    INDEX 01 00:02:00
FILE "Dance Dance Revolution 2nd Remix - Append Club Version Vol. 1 (Japan, Asia) (Track 11).bin" BINARY
  TRACK 11 AUDIO
    FLAGS DCP
    INDEX 00 00:00:00
    INDEX 01 00:02:00
FILE "Dance Dance Revolution 2nd Remix - Append Club Version Vol. 1 (Japan, Asia) (Track 12).bin" BINARY
  TRACK 12 AUDIO
    FLAGS DCP
    INDEX 00 00:00:00
    INDEX 01 00:02:00
FILE "Dance Dance Revolution 2nd Remix - Append Club Version Vol. 1 (Japan, Asia) (Track 13).bin" BINARY
  TRACK 13 AUDIO
    FLAGS DCP
    INDEX 00 00:00:00
    INDEX 01 00:02:00
FILE "Dance Dance Revolution 2nd Remix - Append Club Version Vol. 1 (Japan, Asia) (Track 14).bin" BINARY
  TRACK 14 AUDIO
    FLAGS DCP
    INDEX 00 00:00:00
    INDEX 01 00:02:00
FILE "Dance Dance Revolution 2nd Remix - Append Club Version Vol. 1 (Japan, Asia) (Track 15).bin" BINARY
  TRACK 15 AUDIO
    FLAGS DCP
    INDEX 00 00:00:00
    INDEX 01 00:02:00
FILE "Dance Dance Revolution 2nd Remix - Append Club Version Vol. 1 (Japan, Asia) (Track 16).bin" BINARY
  TRACK 16 AUDIO
    FLAGS DCP
    INDEX 00 00:00:00
    INDEX 01 00:02:00
FILE "Dance Dance Revolution 2nd Remix - Append Club Version Vol. 1 (Japan, Asia) (Track 17).bin" BINARY
  TRACK 17 AUDIO
    FLAGS DCP
    INDEX 00 00:00:00
    INDEX 01 00:02:00
FILE "Dance Dance Revolution 2nd Remix - Append Club Version Vol. 1 (Japan, Asia) (Track 18).bin" BINARY
  TRACK 18 AUDIO
    FLAGS DCP
    INDEX 00 00:00:00
    INDEX 01 00:02:00
FILE "Dance Dance Revolution 2nd Remix - Append Club Version Vol. 1 (Japan, Asia) (Track 19).bin" BINARY
  TRACK 19 AUDIO
    FLAGS DCP
    INDEX 00 00:00:00
    INDEX 01 00:02:00
FILE "Dance Dance Revolution 2nd Remix - Append Club Version Vol. 1 (Japan, Asia) (Track 20).bin" BINARY
  TRACK 20 AUDIO
    FLAGS DCP
    INDEX 00 00:00:00
    INDEX 01 00:02:00
FILE "Dance Dance Revolution 2nd Remix - Append Club Version Vol. 1 (Japan, Asia) (Track 21).bin" BINARY
  TRACK 21 AUDIO
    FLAGS DCP
    INDEX 00 00:00:00
    INDEX 01 00:02:00
FILE "Dance Dance Revolution 2nd Remix - Append Club Version Vol. 1 (Japan, Asia) (Track 22).bin" BINARY
  TRACK 22 AUDIO
    FLAGS DCP
    INDEX 00 00:00:00
    INDEX 01 00:02:00
FILE "Dance Dance Revolution 2nd Remix - Append Club Version Vol. 1 (Japan, Asia) (Track 23).bin" BINARY
  TRACK 23 AUDIO
    FLAGS DCP
    INDEX 00 00:00:00
    INDEX 01 00:02:00
FILE "Dance Dance Revolution 2nd Remix - Append Club Version Vol. 1 (Japan, Asia) (Track 24).bin" BINARY
  TRACK 24 AUDIO
    FLAGS DCP
    INDEX 00 00:00:00
    INDEX 01 00:02:00
FILE "Dance Dance Revolution 2nd Remix - Append Club Version Vol. 1 (Japan, Asia) (Track 25).bin" BINARY
  TRACK 25 AUDIO
    FLAGS DCP
    INDEX 00 00:00:00
    INDEX 01 00:02:00
FILE "Dance Dance Revolution 2nd Remix - Append Club Version Vol. 1 (Japan, Asia) (Track 26).bin" BINARY
  TRACK 26 AUDIO
    FLAGS DCP
    INDEX 00 00:00:00
    INDEX 01 00:02:00
FILE "Dance Dance Revolution 2nd Remix - Append Club Version Vol. 1 (Japan, Asia) (Track 27).bin" BINARY
  TRACK 27 AUDIO
    FLAGS DCP
    INDEX 00 00:00:00
    INDEX 01 00:02:00
FILE "Dance Dance Revolution 2nd Remix - Append Club Version Vol. 1 (Japan, Asia) (Track 28).bin" BINARY
  TRACK 28 AUDIO
    FLAGS DCP
    INDEX 00 00:00:00
    INDEX 01 00:02:00

    Write Offset: 2