1 (edited by diego-rbb-93 2020-03-17 09:38:24)

Dumped by Denymetanol. Report if more Ring Code information is needed.


Common Disc Info:
    Title: Panic Bomber - Bomberman
    Foreign Title (Non-latin): ボンバーマン ぱにっくボンバー
    Disc Number / Letter: NO INFO ON DISK
    Disc Title: (OPTIONAL)
    System: Fujitsu FM Towns Marty
    Media Type: CD-ROM
    Category: Games
    Region: Japan
    Languages: English, Japanese
    Disc Serial: (REQUIRED, IF EXISTS)

    Ringcode Information:
        Mastering Code (laser branded/etched): PANIBON-01
        Mastering SID Code: (REQUIRED, IF EXISTS)
        Data-Side Mould SID Code: (REQUIRED, IF EXISTS)
        Label-Side Mould SID Code: (REQUIRED, IF EXISTS)
        Additional Mould: (REQUIRED, IF EXISTS)
        Toolstamp or Mastering Code (engraved/stamped): (REQUIRED, IF EXISTS)
    Barcode: NOT AVAILABLE
    Error Count: 0
    Comments: (OPTIONAL)
    Contents: (OPTIONAL)

Version and Editions:
    Version: (REQUIRED, IF EXISTS)
    Edition/Release: Original (VERIFY THIS)

Extras:
    Primary Volume Descriptor (PVD):

0320 : 20 20 20 20 20 20 20 20  20 20 20 20 20 31 39 39                199
0330 : 35 30 32 32 34 31 35 30  30 30 30 30 30 00 31 39   5022415000000.19
0340 : 39 35 30 32 32 34 31 35  30 30 30 30 30 30 00 30   95022415000000.0
0350 : 30 30 30 30 30 30 30 30  30 30 30 30 30 30 30 00   000000000000000.
0360 : 30 30 30 30 30 30 30 30  30 30 30 30 30 30 30 30   0000000000000000
0370 : 00 01 00 00 00 00 00 00  00 00 00 00 00 00 00 00   ................

Tracks and Write Offsets:
    DAT:

<rom name="PANIBON (Track 01).bin" size="10233552" crc="248b3802" md5="bc3ea8a583d196f5f3936d6853f26038" sha1="0bf6ffbc0a6a104f02f25c093f22b57c6fe21781" />
<rom name="PANIBON (Track 02).bin" size="4584048" crc="f07c5f5b" md5="35b3fa4f8ae2a69dfcbf270917fa5a18" sha1="dbf6d36b460aaf338e8584f2e9a559acbc677433" />
<rom name="PANIBON (Track 03).bin" size="32634000" crc="25629ed9" md5="8ec88dc9e94154f56e4295c9324ee853" sha1="1f62caf64a978bdfa64ee1f40c6562d25fa05513" />
<rom name="PANIBON (Track 04).bin" size="31399200" crc="14b48920" md5="2822b0366ef941e78872cbbd31be9916" sha1="3e84b9b39103a8e1e2652c224e1dd4cd7f01ff12" />
<rom name="PANIBON (Track 05).bin" size="28224000" crc="557ae772" md5="421fecf294fe90ee586dda40ae662861" sha1="6b888da0c5b677994aa28a247c842ed29ca24dff" />
<rom name="PANIBON (Track 06).bin" size="1058400" crc="5aaaa593" md5="139542c1bc4f0b4795de124723144888" sha1="1d51838636ad65ab6cec6fc2782b787735bb06db" />
<rom name="PANIBON (Track 07).bin" size="1234800" crc="efe6e9a5" md5="8c895665184e0b75257947e437847124" sha1="7296630251572cf732be49234990edd4ffb5fc72" />
<rom name="PANIBON (Track 08).bin" size="1234800" crc="7bf36972" md5="c65087e1801efc40bdb0c955b17e6ba1" sha1="24efaa7e0433e357d778d0d26885b6598fc46915" />
<rom name="PANIBON (Track 09).bin" size="1058400" crc="d8efcc3b" md5="9ed478453cf33c1f711edbc8ca3b2bf0" sha1="867e42a7eed1ed8cb36a9b6df6f20987aa16819b" />
<rom name="PANIBON (Track 10).bin" size="1940400" crc="74817d55" md5="ccc379c47411dbee7e1381d21e1f51a3" sha1="5450e22251c8dac2f53a4fb49b3f1db25f0218fe" />
<rom name="PANIBON (Track 11).bin" size="25754400" crc="3c90aaa9" md5="d6d6f009c6e0c26197246ddd63e948d6" sha1="d84c9533aa3a3f8153781955aad6dc7e08551621" />
<rom name="PANIBON (Track 12).bin" size="28047600" crc="5eff6ffb" md5="785467d657583be53b0a675224b87093" sha1="a69f16e76d261bce4085f11d877c7fd4655c7abb" />
<rom name="PANIBON (Track 13).bin" size="21697200" crc="7115797b" md5="85e54ef071e654f38aeaae38e2378faa" sha1="2b4e80b2e551f0956a37672c8ec0365c289254ab" />
<rom name="PANIBON (Track 14).bin" size="1058400" crc="648c227c" md5="dc35d6b52ac7add94a6d52f480bf89d4" sha1="729c8d0d2eb161d068c48a84826268f9ec790222" />

    Cuesheet:

CATALOG 0000000000000
FILE "PANIBON (Track 01).bin" BINARY
  TRACK 01 MODE1/2352
    INDEX 01 00:00:00
FILE "PANIBON (Track 02).bin" BINARY
  TRACK 02 AUDIO
    INDEX 00 00:00:00
    INDEX 01 00:01:74
FILE "PANIBON (Track 03).bin" BINARY
  TRACK 03 AUDIO
    INDEX 00 00:00:00
    INDEX 01 00:02:00
FILE "PANIBON (Track 04).bin" BINARY
  TRACK 04 AUDIO
    INDEX 00 00:00:00
    INDEX 01 00:02:00
FILE "PANIBON (Track 05).bin" BINARY
  TRACK 05 AUDIO
    INDEX 00 00:00:00
    INDEX 01 00:02:00
FILE "PANIBON (Track 06).bin" BINARY
  TRACK 06 AUDIO
    INDEX 00 00:00:00
    INDEX 01 00:02:00
FILE "PANIBON (Track 07).bin" BINARY
  TRACK 07 AUDIO
    INDEX 00 00:00:00
    INDEX 01 00:02:00
FILE "PANIBON (Track 08).bin" BINARY
  TRACK 08 AUDIO
    INDEX 00 00:00:00
    INDEX 01 00:02:00
FILE "PANIBON (Track 09).bin" BINARY
  TRACK 09 AUDIO
    INDEX 00 00:00:00
    INDEX 01 00:02:00
FILE "PANIBON (Track 10).bin" BINARY
  TRACK 10 AUDIO
    INDEX 00 00:00:00
    INDEX 01 00:02:00
FILE "PANIBON (Track 11).bin" BINARY
  TRACK 11 AUDIO
    INDEX 00 00:00:00
    INDEX 01 00:02:00
FILE "PANIBON (Track 12).bin" BINARY
  TRACK 12 AUDIO
    INDEX 00 00:00:00
    INDEX 01 00:02:00
FILE "PANIBON (Track 13).bin" BINARY
  TRACK 13 AUDIO
    INDEX 00 00:00:00
    INDEX 01 00:02:00
FILE "PANIBON (Track 14).bin" BINARY
  TRACK 14 AUDIO
    INDEX 00 00:00:00
    INDEX 01 00:02:00

    Write Offset: 222

No logs?

https://mega.nz/#F!zKJkyYIQ!yq4WphnTM6IYo2J2pSwYLQ

diego-rbb-93 wrote:

Report if more Ring Code information is needed.

Again, would be nice to (no idea if the current ring is complete).