1 (edited by gingerbeardman 2020-01-14 19:33:59)

LOGS: http://www.mediafire.com/file/gwfmk7kzb … gs.7z/file

Common Disc Info:
    Title: BT Mahjong for PalmOS
    Foreign Title (Non-latin): BT 麻雀 for PalmOS
    Disc Number / Letter: (OPTIONAL)
    Disc Title: BT_MAJANG
    System: IBM PC Compatible
    Media Type: CD-ROM
    Category: Games
    Region: Japan
    Languages: Japanese
    Disc Serial: (REQUIRED, IF EXISTS)

    Ringcode Information:
        Mastering Code (laser branded/etched): (REQUIRED, IF EXISTS)
        Mastering SID Code: (REQUIRED, IF EXISTS)
        Data-Side Mould SID Code: IFPI 9A07
        Label-Side Mould SID Code: (REQUIRED, IF EXISTS)
        Additional Mould: (REQUIRED, IF EXISTS)
        Toolstamp or Mastering Code (engraved/stamped): (REQUIRED, IF EXISTS)
    Barcode: 4 562132 180013
    Error Count: 0
    Comments: REGISTRATION CODE: 5C4P3-I4950-3M0J4-K544A
    Contents: (OPTIONAL)

Version and Editions:
    Version: 1.2
    Edition/Release: Original

Extras:
    Primary Volume Descriptor (PVD):

0320 : 20 20 20 20 20 20 20 20  20 20 20 20 20 32 30 30                200
0330 : 32 30 38 32 38 31 37 30  31 31 35 30 30 DC 32 30   2082817011500.20
0340 : 30 32 30 38 32 38 31 37  30 31 31 35 30 30 DC 30   02082817011500.0
0350 : 30 30 30 30 30 30 30 30  30 30 30 30 30 30 30 00   000000000000000.
0360 : 30 30 30 30 30 30 30 30  30 30 30 30 30 30 30 30   0000000000000000
0370 : 00 01 00 00 00 00 00 00  00 00 00 00 00 00 00 00   ................

Copy Protection:
    Copy Protection: None found

Tracks and Write Offsets:
    DAT:

<rom name="BT_MAJANG.bin" size="1413552" crc="d4c5b878" md5="4045f0abb95f9ee5877d8f0103e88df6" sha1="231c10a43c36872088b942d4cfe7521cefe5fb3c" />

    Cuesheet:

FILE "BT_MAJANG.bin" BINARY
  TRACK 01 MODE1/2352
    INDEX 01 00:00:00

    Write Offset: -12
Common Disc Info:
    Title: GOLF
    Foreign Title (Non-latin): ゴルフ
    Disc Number / Letter: (OPTIONAL)
    Disc Title: DADA_GOLF
    System: IBM PC Compatible
    Media Type: CD-ROM
    Category: Games
    Region: Japan
    Languages: Japanese
    Disc Serial: DDP-1006

    Ringcode Information:
        Mastering Code (laser branded/etched): (REQUIRED, IF EXISTS)
        Mastering SID Code: (REQUIRED, IF EXISTS)
        Data-Side Mould SID Code: IFPI 45GD
        Label-Side Mould SID Code: (REQUIRED, IF EXISTS)
        Additional Mould: (REQUIRED, IF EXISTS)
        Toolstamp or Mastering Code (engraved/stamped): (REQUIRED, IF EXISTS)
    Barcode: 4 517015 800076
    Error Count: 0
    Comments: (C)2002 DaZZ Co, Ltd.
    Contents: (OPTIONAL)

Version and Editions:
    Version: 1
    Edition/Release: Original (DaDa palm game series)

Extras:
    Primary Volume Descriptor (PVD):

0320 : 20 20 20 20 20 20 20 20  20 20 20 20 20 32 30 30                200
0330 : 32 30 31 32 32 31 33 35  31 34 34 39 39 24 32 30   2012213514499$20
0340 : 30 32 30 31 32 32 31 33  35 31 34 34 39 39 24 32   02012213514499$2
0350 : 31 30 32 30 31 32 32 31  33 35 31 34 34 39 39 24   102012213514499$
0360 : 32 30 30 32 30 31 32 32  31 33 35 31 34 34 39 39   2002012213514499
0370 : 24 01 00 00 00 00 00 00  00 00 00 00 00 00 00 00   $...............

Copy Protection:
    Copy Protection: None found

Tracks and Write Offsets:
    DAT:

<rom name="DADA_GOLF.bin" size="5273184" crc="5c3f4ef7" md5="5fc2ef732f82dbb747ffaf42853c0ee1" sha1="b827a2d710c839cb8e977058b643462fb4db6c02" />

    Cuesheet:

FILE "DADA_GOLF.bin" BINARY
  TRACK 01 MODE1/2352
    INDEX 01 00:00:00

    Write Offset: 2
Common Disc Info:
    Title: palm Hanafuda
    Foreign Title (Non-latin): パーム 花札
    Disc Number / Letter: (OPTIONAL)
    Disc Title: palm花札
    System: IBM PC Compatible
    Media Type: CD-ROM
    Category: Games
    Region: Japan
    Languages: Japanese
    Disc Serial: (REQUIRED, IF EXISTS)

    Ringcode Information:
        Mastering Code (laser branded/etched): EF-PALMHF<TAB>MT<TAB>C03
        Mastering SID Code: IFPI L263
        Data-Side Mould SID Code: IFPI 4426
        Label-Side Mould SID Code: (REQUIRED, IF EXISTS)
        Additional Mould: (REQUIRED, IF EXISTS)
        Toolstamp or Mastering Code (engraved/stamped): (REQUIRED, IF EXISTS)
    Barcode: 4 528992 000281
    Error Count: 1
    Comments: パパッとパームシリーズ No.02, Papa and Palm Series No.02
    Contents: REGISTRATION CODE: 3O5P4-32W41-540U4-W3B5M

Version and Editions:
    Version: (REQUIRED, IF EXISTS)
    Edition/Release: Original

Extras:
    Primary Volume Descriptor (PVD):

0320 : 20 20 20 20 20 20 20 20  20 20 20 20 20 32 30 30                200
0330 : 31 31 30 31 38 31 38 34  34 32 38 30 30 00 32 30   1101818442800.20
0340 : 30 31 31 30 31 38 31 38  34 35 30 32 30 30 00 00   01101818450200..
0350 : 00 00 00 00 00 00 00 00  00 00 00 00 00 00 00 00   ................
0360 : 00 00 00 00 00 00 00 00  00 00 00 00 00 00 00 00   ................
0370 : 00 01 00 00 00 00 00 00  00 00 00 00 00 00 00 00   ................

Copy Protection:
    Copy Protection: None found

Tracks and Write Offsets:
    DAT:

<rom name="palm花札.bin" size="3974880" crc="2c88a23d" md5="2b6ca0da5f37054d9afa31d08473d1aa" sha1="c36917e9c55db8cc81fab68fbb29f9765554a575" />

    Cuesheet:

FILE "palm�ԎD.bin" BINARY
  TRACK 01 MODE1/2352
    INDEX 01 00:00:00

    Write Offset: 13
Common Disc Info:
    Title: palm Mahjong
    Foreign Title (Non-latin): パーム 麻雀
    Disc Number / Letter: (OPTIONAL)
    Disc Title: Palm麻雀
    System: IBM PC Compatible
    Media Type: CD-ROM
    Category: Games
    Region: Japan
    Languages: Japanese
    Disc Serial: (REQUIRED, IF EXISTS)

    Ringcode Information:
        Mastering Code (laser branded/etched): EF-PALMMJ MT<TAB>E01
        Mastering SID Code: IFPI L264
        Data-Side Mould SID Code: IFPI 4429
        Label-Side Mould SID Code: (REQUIRED, IF EXISTS)
        Additional Mould: (REQUIRED, IF EXISTS)
        Toolstamp or Mastering Code (engraved/stamped): (REQUIRED, IF EXISTS)
    Barcode: 4 528992 000267
    Error Count: 1
    Comments: パパッとパームシリーズ No.01, Papa and Palm Series No.01
    Contents: REGISTRATION CODE: 4H673-Z5Q5C-4Y4T4-Q5F5B

Version and Editions:
    Version: (REQUIRED, IF EXISTS)
    Edition/Release: Original

Extras:
    Primary Volume Descriptor (PVD):

0320 : 20 20 20 20 20 20 20 20  20 20 20 20 20 32 30 30                200
0330 : 31 30 39 31 37 31 38 31  34 33 38 30 30 00 32 30   1091718143800.20
0340 : 30 31 30 39 31 37 31 38  31 35 33 30 30 30 00 00   01091718153000..
0350 : 00 00 00 00 00 00 00 00  00 00 00 00 00 00 00 00   ................
0360 : 00 00 00 00 00 00 00 00  00 00 00 00 00 00 00 00   ................
0370 : 00 01 00 00 00 00 00 00  00 00 00 00 00 00 00 00   ................

Copy Protection:
    Copy Protection: None found

Tracks and Write Offsets:
    DAT:

<rom name="Palm麻雀.bin" size="7058352" crc="1fbc20e8" md5="cceec3fc39fd48990a9141e67c6f5125" sha1="7abbe43ad9291f092571c3a283a9d6016ac5c0f6" />

    Cuesheet:

FILE "Palm����.bin" BINARY
  TRACK 01 MODE1/2352
    INDEX 01 00:00:00

    Write Offset: 13
Common Disc Info:
    Title: Afuroinu gurafiti ~tenohira saizu ni mo naru~
    Foreign Title (Non-latin): アフロ犬グラフィティ~手のひらサイズにもなる~ 
    Disc Number / Letter: (OPTIONAL)
    Disc Title: アフロ犬グラフィティ
    System: IBM PC Compatible
    Media Type: CD-ROM
    Category: Games
    Region: Japan
    Languages: Japanese
    Disc Serial: (REQUIRED, IF EXISTS)

    Ringcode Information:
        Mastering Code (laser branded/etched): HLN-128<TAB>1MS1<TAB>C<TAB>19
        Mastering SID Code: IFPI L223
        Data-Side Mould SID Code: IFPI 3906
        Label-Side Mould SID Code: (REQUIRED, IF EXISTS)
        Additional Mould: (REQUIRED, IF EXISTS)
        Toolstamp or Mastering Code (engraved/stamped): (REQUIRED, IF EXISTS)
    Barcode: 4 530903 001317
    Error Count: 0
    Comments: [T:ISBN] (OPTIONAL)
    Contents: REGISTRATION CODE: 13221312801135856

Version and Editions:
    Version: (REQUIRED, IF EXISTS)
    Edition/Release: Original

Extras:
    Primary Volume Descriptor (PVD):

0320 : 20 20 20 20 20 20 20 20  20 20 20 20 20 32 30 30                200
0330 : 31 30 39 30 35 31 38 32  33 32 35 30 30 00 32 30   1090518232500.20
0340 : 30 31 30 39 30 35 31 38  32 35 33 35 30 30 00 00   01090518253500..
0350 : 00 00 00 00 00 00 00 00  00 00 00 00 00 00 00 00   ................
0360 : 00 00 00 00 00 00 00 00  00 00 00 00 00 00 00 00   ................
0370 : 00 01 00 00 00 00 00 00  00 00 00 00 00 00 00 00   ................

Copy Protection:
    Copy Protection: None found

Tracks and Write Offsets:
    DAT:

<rom name="アフロ犬グラフィティ.bin" size="5555424" crc="1aaa3aaa" md5="b6ba0986105ff4b3804637b521fb631d" sha1="cf1fcac4d57527521c7a2134a1922c8b6c0b4588" />

    Cuesheet:

FILE "�A�t�����O���t�B�e�B.bin" BINARY
  TRACK 01 MODE1/2352
    INDEX 01 00:00:00

    Write Offset: -12
Common Disc Info:
    Title: Puzzle Bobble for Palm
    Foreign Title (Non-latin): パズルボブル for palm
    Disc Number / Letter: (OPTIONAL)
    Disc Title: (OPTIONAL)
    System: IBM PC Compatible
    Media Type: CD-ROM
    Category: Games
    Region: Japan
    Languages: Japanese
    Disc Serial: (REQUIRED, IF EXISTS)

    Ringcode Information:
        Mastering Code (laser branded/etched): EF-PALMPB<SPACE>MT<TAB>B01
        Mastering SID Code: IFPI L262
        Data-Side Mould SID Code: IFPI 4430
        Label-Side Mould SID Code: (REQUIRED, IF EXISTS)
        Additional Mould: (REQUIRED, IF EXISTS)
        Toolstamp or Mastering Code (engraved/stamped): (REQUIRED, IF EXISTS)
    Barcode: 4 528992 000786
    Error Count: 1
    Comments: [T:ISBN] (OPTIONAL)
    Contents: REGISTRATION CODE: HWRXLEQBAGYI

Version and Editions:
    Version: (REQUIRED, IF EXISTS)
    Edition/Release: Original

Extras:
    Primary Volume Descriptor (PVD):

0320 : 20 20 20 20 20 20 20 20  20 20 20 20 20 32 30 30                200
0330 : 32 30 36 32 36 31 32 30  34 30 37 30 30 00 32 30   2062612040700.20
0340 : 30 32 30 36 32 36 31 32  30 34 32 36 30 30 00 00   02062612042600..
0350 : 00 00 00 00 00 00 00 00  00 00 00 00 00 00 00 00   ................
0360 : 00 00 00 00 00 00 00 00  00 00 00 00 00 00 00 00   ................
0370 : 00 01 00 00 00 00 00 00  00 00 00 00 00 00 00 00   ................

Copy Protection:
    Copy Protection: None found

Tracks and Write Offsets:
    DAT:

<rom name="パズルボブル for palm.bin" size="88658640" crc="9790cfb6" md5="22e77863337aef15d1809142bd51cfe8" sha1="058ba3113c27db0274dd12c32a709c8e43896cd6" />

    Cuesheet:

FILE "�p�Y���{�u�� for palm.bin" BINARY
  TRACK 01 MODE1/2352
    INDEX 01 00:00:00

    Write Offset: 13