1 (edited by wiggy2k 2019-12-22 23:07:01)

Common Disc Info:
    Title: Guilty Gear X
    Foreign Title (Non-latin): ギルティギアゼクス
    System: Sega Dreamcast
    Media Type: GD-ROM
    Category: Demos
    Region: Japan
    Languages: not checked
    Disc Serial: 610-7937

    Ringcode Information:
        Mastering Code (laser branded/etched): 610-7937-0509 2
        Mastering SID Code: IFPI L166
        Data-Side Mould SID Code: badly stamped... unreadable
        Toolstamp or Mastering Code (engraved/stamped): A1
    EXE/Build Date: 2000-08-21
    Error Count: 0
    Comments: Alternative Title: Guilty Gear X: By Your Side "G.Gear"
    Contents:

Version and Editions:
    Version: 1.001
    Edition/Release: Original

Extras:
    Primary Volume Descriptor (PVD):

0320 : 20 20 20 20 20 20 20 20  20 20 20 20 20 32 30 30                200
0330 : 30 30 35 30 33 31 36 33  34 30 30 30 30 24 32 30   0050316340000$20
0340 : 30 30 30 35 30 33 31 36  33 34 30 30 30 30 24 30   00050316340000$0
0350 : 30 30 30 30 30 30 30 30  30 30 30 30 30 30 30 00   000000000000000.
0360 : 30 30 30 30 30 30 30 30  30 30 30 30 30 30 30 30   0000000000000000
0370 : 00 01 00 00 00 00 00 00  00 00 00 00 00 00 00 00   ................

Tracks and Write Offsets:
    DAT:

        <rom name="Track 01.bin" size="1613472" crc="be12da4f" md5="7e7ee3ac264dae1f159acb5b01413025" sha1="3f6c4bb627a1422b680fc4e42df8d931bcdfdae8"/>
        <rom name="Track 02.bin" size="2088576" crc="1859ea65" md5="652a31166a58b8f933e8a924e7c88780" sha1="0ecd537e42946f3e74c80c9fcb8d0bccccfc96f1"/>
        <rom name="Track 03.bin" size="980139552" crc="b63b160d" md5="e1d9629117c194434fac7edbd67c94cf" sha1="a2726fc328766c90d949d3232ac67adba5151fe7"/>
        <rom name="Track 04.bin" size="30030336" crc="25b35ded" md5="3d8f93945ba93f755135a9dd3f6c52fa" sha1="1c03158b98e61e5067db1319f9e93b0f7fe14b50"/>
        <rom name="Track 05.bin" size="29781024" crc="b34d50b7" md5="606e43bdf9b43601ec0e7ef999f502b6" sha1="61c0f62a1b74776b7bc8a2389e9061f17a338ddf"/>
        <rom name="Track 06.bin" size="1735776" crc="5794831d" md5="0e5ffc3bb7e5718fd8c6461cda47c4c8" sha1="7655dc694846b27043e13ccb1044ac9e79f00669"/>
        <rom name="Track 07.bin" size="1735776" crc="5794831d" md5="0e5ffc3bb7e5718fd8c6461cda47c4c8" sha1="7655dc694846b27043e13ccb1044ac9e79f00669"/>
        <rom name="Track 08.bin" size="1735776" crc="5794831d" md5="0e5ffc3bb7e5718fd8c6461cda47c4c8" sha1="7655dc694846b27043e13ccb1044ac9e79f00669"/>
        <rom name="Track 09.bin" size="1735776" crc="5794831d" md5="0e5ffc3bb7e5718fd8c6461cda47c4c8" sha1="7655dc694846b27043e13ccb1044ac9e79f00669"/>
        <rom name="Track 10.bin" size="1735776" crc="5794831d" md5="0e5ffc3bb7e5718fd8c6461cda47c4c8" sha1="7655dc694846b27043e13ccb1044ac9e79f00669"/>
        <rom name="Track 11.bin" size="1735776" crc="5794831d" md5="0e5ffc3bb7e5718fd8c6461cda47c4c8" sha1="7655dc694846b27043e13ccb1044ac9e79f00669"/>
        <rom name="Track 12.bin" size="1735776" crc="5794831d" md5="0e5ffc3bb7e5718fd8c6461cda47c4c8" sha1="7655dc694846b27043e13ccb1044ac9e79f00669"/>
        <rom name="Track 13.bin" size="1735776" crc="5794831d" md5="0e5ffc3bb7e5718fd8c6461cda47c4c8" sha1="7655dc694846b27043e13ccb1044ac9e79f00669"/>
        <rom name="Track 14.bin" size="1735776" crc="5794831d" md5="0e5ffc3bb7e5718fd8c6461cda47c4c8" sha1="7655dc694846b27043e13ccb1044ac9e79f00669"/>
        <rom name="Track 15.bin" size="1735776" crc="5794831d" md5="0e5ffc3bb7e5718fd8c6461cda47c4c8" sha1="7655dc694846b27043e13ccb1044ac9e79f00669"/>
        <rom name="Track 16.bin" size="36366624" crc="320617c2" md5="69a45b7f0468b8f656427d43a87645c6" sha1="58e15da40bd6775f9af183bec3150bda1ecb3ac5"/>
        <rom name="Track 17.bin" size="16231152" crc="e8181b45" md5="91a7f4398ee32d597b75309395f78d6f" sha1="6be882987d064f33b53475c354bfcb775bac0acf"/>
        <rom name="Track 18.bin" size="1735776" crc="5794831d" md5="0e5ffc3bb7e5718fd8c6461cda47c4c8" sha1="7655dc694846b27043e13ccb1044ac9e79f00669"/>
        <rom name="Track 19.bin" size="32732784" crc="2364aaca" md5="3ccd14a76746a9091d44e0e8e4da17e1" sha1="d5579eed6d6a19d33f42cf5d0095fd97b9255523"/>
        <rom name="Track 20.bin" size="1735776" crc="5794831d" md5="0e5ffc3bb7e5718fd8c6461cda47c4c8" sha1="7655dc694846b27043e13ccb1044ac9e79f00669"/>
        <rom name="Track 21.bin" size="1735776" crc="5794831d" md5="0e5ffc3bb7e5718fd8c6461cda47c4c8" sha1="7655dc694846b27043e13ccb1044ac9e79f00669"/>
        <rom name="Track 22.bin" size="1735776" crc="5794831d" md5="0e5ffc3bb7e5718fd8c6461cda47c4c8" sha1="7655dc694846b27043e13ccb1044ac9e79f00669"/>
        <rom name="Track 23.bin" size="6874896" crc="7ce8ecf7" md5="ae4548cf4d8ac1c366a8524298ec2993" sha1="797ae20a41d26fe6fb6841c0c3611e2818c53796"/>
        <rom name="Track 24.bin" size="1735776" crc="5794831d" md5="0e5ffc3bb7e5718fd8c6461cda47c4c8" sha1="7655dc694846b27043e13ccb1044ac9e79f00669"/>
        <rom name="Track 25.bin" size="1735776" crc="5794831d" md5="0e5ffc3bb7e5718fd8c6461cda47c4c8" sha1="7655dc694846b27043e13ccb1044ac9e79f00669"/>
        <rom name="Track 26.bin" size="1735776" crc="5794831d" md5="0e5ffc3bb7e5718fd8c6461cda47c4c8" sha1="7655dc694846b27043e13ccb1044ac9e79f00669"/>
        <rom name="Track 27.bin" size="1735776" crc="5794831d" md5="0e5ffc3bb7e5718fd8c6461cda47c4c8" sha1="7655dc694846b27043e13ccb1044ac9e79f00669"/>
        <rom name="Track 28.bin" size="4471152" crc="5b4620a4" md5="71f52201e2c8db727b3c25f4948f44d4" sha1="409e233e83a11e6025b8752a7c03571865d982f3"/>
        <rom name="Track 29.bin" size="1566432" crc="eda77a7e" md5="2fc7843f36724922bd0583f592a77b73" sha1="7ded8c9e72dd44e266321c9e2b44c1b526623310"/>
        <rom name="Track 30.bin" size="1735776" crc="5794831d" md5="0e5ffc3bb7e5718fd8c6461cda47c4c8" sha1="7655dc694846b27043e13ccb1044ac9e79f00669"/>
        <rom name="Track 31.bin" size="1658160" crc="72aa8829" md5="867e277b1f438a275cce8d2fce027288" sha1="1a8523d7db69722c043627c527105f45b076a6e5"/>
        <rom name="Track 32.bin" size="1735776" crc="5794831d" md5="0e5ffc3bb7e5718fd8c6461cda47c4c8" sha1="7655dc694846b27043e13ccb1044ac9e79f00669"/>
        <rom name="Track 33.bin" size="1735776" crc="5794831d" md5="0e5ffc3bb7e5718fd8c6461cda47c4c8" sha1="7655dc694846b27043e13ccb1044ac9e79f00669"/>
        <rom name="Track 34.bin" size="1735776" crc="5794831d" md5="0e5ffc3bb7e5718fd8c6461cda47c4c8" sha1="7655dc694846b27043e13ccb1044ac9e79f00669"/>
        <rom name="Track 35.bin" size="1735776" crc="5794831d" md5="0e5ffc3bb7e5718fd8c6461cda47c4c8" sha1="7655dc694846b27043e13ccb1044ac9e79f00669"/>
        <rom name="Track 36.bin" size="1735776" crc="5794831d" md5="0e5ffc3bb7e5718fd8c6461cda47c4c8" sha1="7655dc694846b27043e13ccb1044ac9e79f00669"/>
        <rom name="Track 37.bin" size="1735776" crc="5794831d" md5="0e5ffc3bb7e5718fd8c6461cda47c4c8" sha1="7655dc694846b27043e13ccb1044ac9e79f00669"/>
        <rom name="Track 38.bin" size="2514288" crc="45db3e44" md5="75120e0cf61af146021a435baeb823c7" sha1="1f5f8f67a1c99684d2a1fb8cfa5ef4a2480d5af9"/>

    Cuesheet:

FILE "Track 01.bin" BINARY
  TRACK 01 MODE1/2352
    INDEX 01 00:00:00
FILE "Track 02.bin" BINARY
  TRACK 02 AUDIO
    INDEX 00 00:00:00
    INDEX 01 00:02:00
FILE "Track 03.bin" BINARY
  TRACK 03 MODE1/2352
    INDEX 01 00:00:00
FILE "Track 04.bin" BINARY
  TRACK 04 AUDIO
    INDEX 00 00:00:00
    INDEX 01 00:02:00
FILE "Track 05.bin" BINARY
  TRACK 05 AUDIO
    INDEX 00 00:00:00
    INDEX 01 00:02:00
FILE "Track 06.bin" BINARY
  TRACK 06 AUDIO
    INDEX 00 00:00:00
    INDEX 01 00:02:00
FILE "Track 07.bin" BINARY
  TRACK 07 AUDIO
    INDEX 00 00:00:00
    INDEX 01 00:02:00
FILE "Track 08.bin" BINARY
  TRACK 08 AUDIO
    INDEX 00 00:00:00
    INDEX 01 00:02:00
FILE "Track 09.bin" BINARY
  TRACK 09 AUDIO
    INDEX 00 00:00:00
    INDEX 01 00:02:00
FILE "Track 10.bin" BINARY
  TRACK 10 AUDIO
    INDEX 00 00:00:00
    INDEX 01 00:02:00
FILE "Track 11.bin" BINARY
  TRACK 11 AUDIO
    INDEX 00 00:00:00
    INDEX 01 00:02:00
FILE "Track 12.bin" BINARY
  TRACK 12 AUDIO
    INDEX 00 00:00:00
    INDEX 01 00:02:00
FILE "Track 13.bin" BINARY
  TRACK 13 AUDIO
    INDEX 00 00:00:00
    INDEX 01 00:02:00
FILE "Track 14.bin" BINARY
  TRACK 14 AUDIO
    INDEX 00 00:00:00
    INDEX 01 00:02:00
FILE "Track 15.bin" BINARY
  TRACK 15 AUDIO
    INDEX 00 00:00:00
    INDEX 01 00:02:00
FILE "Track 16.bin" BINARY
  TRACK 16 AUDIO
    INDEX 00 00:00:00
    INDEX 01 00:02:00
FILE "Track 17.bin" BINARY
  TRACK 17 AUDIO
    INDEX 00 00:00:00
    INDEX 01 00:02:00
FILE "Track 18.bin" BINARY
  TRACK 18 AUDIO
    INDEX 00 00:00:00
    INDEX 01 00:02:00
FILE "Track 19.bin" BINARY
  TRACK 19 AUDIO
    INDEX 00 00:00:00
    INDEX 01 00:02:00
FILE "Track 20.bin" BINARY
  TRACK 20 AUDIO
    INDEX 00 00:00:00
    INDEX 01 00:02:00
FILE "Track 21.bin" BINARY
  TRACK 21 AUDIO
    INDEX 00 00:00:00
    INDEX 01 00:02:00
FILE "Track 22.bin" BINARY
  TRACK 22 AUDIO
    INDEX 00 00:00:00
    INDEX 01 00:02:00
FILE "Track 23.bin" BINARY
  TRACK 23 AUDIO
    INDEX 00 00:00:00
    INDEX 01 00:02:00
FILE "Track 24.bin" BINARY
  TRACK 24 AUDIO
    INDEX 00 00:00:00
    INDEX 01 00:02:00
FILE "Track 25.bin" BINARY
  TRACK 25 AUDIO
    INDEX 00 00:00:00
    INDEX 01 00:02:00
FILE "Track 26.bin" BINARY
  TRACK 26 AUDIO
    INDEX 00 00:00:00
    INDEX 01 00:02:00
FILE "Track 27.bin" BINARY
  TRACK 27 AUDIO
    INDEX 00 00:00:00
    INDEX 01 00:02:00
FILE "Track 28.bin" BINARY
  TRACK 28 AUDIO
    INDEX 00 00:00:00
    INDEX 01 00:02:00
FILE "Track 29.bin" BINARY
  TRACK 29 AUDIO
    INDEX 00 00:00:00
    INDEX 01 00:02:00
FILE "Track 30.bin" BINARY
  TRACK 30 AUDIO
    INDEX 00 00:00:00
    INDEX 01 00:02:00
FILE "Track 31.bin" BINARY
  TRACK 31 AUDIO
    INDEX 00 00:00:00
    INDEX 01 00:02:00
FILE "Track 32.bin" BINARY
  TRACK 32 AUDIO
    INDEX 00 00:00:00
    INDEX 01 00:02:00
FILE "Track 33.bin" BINARY
  TRACK 33 AUDIO
    INDEX 00 00:00:00
    INDEX 01 00:02:00
FILE "Track 34.bin" BINARY
  TRACK 34 AUDIO
    INDEX 00 00:00:00
    INDEX 01 00:02:00
FILE "Track 35.bin" BINARY
  TRACK 35 AUDIO
    INDEX 00 00:00:00
    INDEX 01 00:02:00
FILE "Track 36.bin" BINARY
  TRACK 36 AUDIO
    INDEX 00 00:00:00
    INDEX 01 00:02:00
FILE "Track 37.bin" BINARY
  TRACK 37 AUDIO
    INDEX 00 00:00:00
    INDEX 01 00:02:00
FILE "Track 38.bin" BINARY
  TRACK 38 MODE1/2352
    INDEX 00 00:00:00
    INDEX 01 00:03:00


    Write Offset: 13

logs and HD are to come.

2 (edited by wiggy2k 2019-12-22 23:06:10)

HD area:

ICE output:

ice @20090609 / themabus@inbox.lv
---------------------------------
dense.bin
---------------------------------
Accessing                       : ok
Seeking 1st valid Mode1 sector  : ok
 LBA found                      : 44990
 @file offset                   : $0000004C
 Scrambled                      : TRUE
Seeking LBA 45000               : ok
 Combined offset (samples)      : 19
Parsing IP.BIN                  : ok
 Writting 'ip.txt'              : ok
Parsing TOC                     : ok
 TOC entries                    : 39
 Writting 'redump.cue'          : ok
---------------------------------
03  Mode1   45000  461725  416726 ok
04  Audio  461726  474493   12768 ok
05  Audio  474494  487155   12662 ok
06  Audio  487156  487893     738 ok
07  Audio  487894  488631     738 ok
08  Audio  488632  489369     738 ok
09  Audio  489370  490107     738 ok
10  Audio  490108  490845     738 ok
11  Audio  490846  491583     738 ok
12  Audio  491584  492321     738 ok
13  Audio  492322  493059     738 ok
14  Audio  493060  493797     738 ok
15  Audio  493798  494535     738 ok
16  Audio  494536  509997   15462 ok
17  Audio  509998  516898    6901 ok
18  Audio  516899  517636     738 ok
19  Audio  517637  531553   13917 ok
20  Audio  531554  532291     738 ok
21  Audio  532292  533029     738 ok
22  Audio  533030  533767     738 ok
23  Audio  533768  536690    2923 ok
24  Audio  536691  537428     738 ok
25  Audio  537429  538166     738 ok
26  Audio  538167  538904     738 ok
27  Audio  538905  539642     738 ok
28  Audio  539643  541543    1901 ok
29  Audio  541544  542209     666 ok
30  Audio  542210  542947     738 ok
31  Audio  542948  543652     705 ok
32  Audio  543653  544390     738 ok
33  Audio  544391  545128     738 ok
34  Audio  545129  545866     738 ok
35  Audio  545867  546604     738 ok
36  Audio  546605  547342     738 ok
37  Audio  547343  548080     738 ok
38  Mode1  548081  549149    1069 ok (75)
---------------------------------
done

IP.txt

Application title:
GUILTY GEAR X SAMPLE

Developer:
T-24

Publisher:
SEGA ENTERPRISES

Disc number:
GD-ROM1/1

Supported regions:
J

Internal serial:
6107937

Version number:
V1.001

Release date (YYYY-MM-DD):
2000-08-21

CRC16: TRUE
F52E

Disc identifier: TRUE
SEGA SEGAKATANA

First read file name:
1ST_READ.BIN

UNKNOWN (reserved?):


Additional flags: 07BB310
-------------------------
Minimal set of buttons required by application:
 Start, A, B, Direction buttons: TRUE
 C button: TRUE
 D button: FALSE
 X button: TRUE
 Y button: TRUE
 Z button: TRUE
 Expanded direction buttons: FALSE
 Analog R Trigger: TRUE
 Analog L Trigger: TRUE
 Standard analog X: TRUE
 Standard analog Y: TRUE
 Expanded analog X: FALSE
 Expanded analog Y: FALSE

Supported peripherals:
 Mouse: FALSE
 Gun controller: FALSE
 Keyboard: FALSE

Supported expanded peripherals:
 Memory card: FALSE
 Sound input peripheral (SIP): FALSE
 Vibrator: TRUE
 Other devices: TRUE

VGA Box supported: TRUE
Use WindowsCE: FALSE

CUE:

FILE "Track 01.bin" BINARY
  TRACK 01 MODE1/2352
    INDEX 01 00:00:00
FILE "Track 02.bin" BINARY
  TRACK 02 AUDIO
    INDEX 00 00:00:00
    INDEX 01 00:02:00
FILE "Track 03.bin" BINARY
  TRACK 03 MODE1/2352
    INDEX 01 00:00:00
FILE "Track 04.bin" BINARY
  TRACK 04 AUDIO
    INDEX 00 00:00:00
    INDEX 01 00:02:00
FILE "Track 05.bin" BINARY
  TRACK 05 AUDIO
    INDEX 00 00:00:00
    INDEX 01 00:02:00
FILE "Track 06.bin" BINARY
  TRACK 06 AUDIO
    INDEX 00 00:00:00
    INDEX 01 00:02:00
FILE "Track 07.bin" BINARY
  TRACK 07 AUDIO
    INDEX 00 00:00:00
    INDEX 01 00:02:00
FILE "Track 08.bin" BINARY
  TRACK 08 AUDIO
    INDEX 00 00:00:00
    INDEX 01 00:02:00
FILE "Track 09.bin" BINARY
  TRACK 09 AUDIO
    INDEX 00 00:00:00
    INDEX 01 00:02:00
FILE "Track 10.bin" BINARY
  TRACK 10 AUDIO
    INDEX 00 00:00:00
    INDEX 01 00:02:00
FILE "Track 11.bin" BINARY
  TRACK 11 AUDIO
    INDEX 00 00:00:00
    INDEX 01 00:02:00
FILE "Track 12.bin" BINARY
  TRACK 12 AUDIO
    INDEX 00 00:00:00
    INDEX 01 00:02:00
FILE "Track 13.bin" BINARY
  TRACK 13 AUDIO
    INDEX 00 00:00:00
    INDEX 01 00:02:00
FILE "Track 14.bin" BINARY
  TRACK 14 AUDIO
    INDEX 00 00:00:00
    INDEX 01 00:02:00
FILE "Track 15.bin" BINARY
  TRACK 15 AUDIO
    INDEX 00 00:00:00
    INDEX 01 00:02:00
FILE "Track 16.bin" BINARY
  TRACK 16 AUDIO
    INDEX 00 00:00:00
    INDEX 01 00:02:00
FILE "Track 17.bin" BINARY
  TRACK 17 AUDIO
    INDEX 00 00:00:00
    INDEX 01 00:02:00
FILE "Track 18.bin" BINARY
  TRACK 18 AUDIO
    INDEX 00 00:00:00
    INDEX 01 00:02:00
FILE "Track 19.bin" BINARY
  TRACK 19 AUDIO
    INDEX 00 00:00:00
    INDEX 01 00:02:00
FILE "Track 20.bin" BINARY
  TRACK 20 AUDIO
    INDEX 00 00:00:00
    INDEX 01 00:02:00
FILE "Track 21.bin" BINARY
  TRACK 21 AUDIO
    INDEX 00 00:00:00
    INDEX 01 00:02:00
FILE "Track 22.bin" BINARY
  TRACK 22 AUDIO
    INDEX 00 00:00:00
    INDEX 01 00:02:00
FILE "Track 23.bin" BINARY
  TRACK 23 AUDIO
    INDEX 00 00:00:00
    INDEX 01 00:02:00
FILE "Track 24.bin" BINARY
  TRACK 24 AUDIO
    INDEX 00 00:00:00
    INDEX 01 00:02:00
FILE "Track 25.bin" BINARY
  TRACK 25 AUDIO
    INDEX 00 00:00:00
    INDEX 01 00:02:00
FILE "Track 26.bin" BINARY
  TRACK 26 AUDIO
    INDEX 00 00:00:00
    INDEX 01 00:02:00
FILE "Track 27.bin" BINARY
  TRACK 27 AUDIO
    INDEX 00 00:00:00
    INDEX 01 00:02:00
FILE "Track 28.bin" BINARY
  TRACK 28 AUDIO
    INDEX 00 00:00:00
    INDEX 01 00:02:00
FILE "Track 29.bin" BINARY
  TRACK 29 AUDIO
    INDEX 00 00:00:00
    INDEX 01 00:02:00
FILE "Track 30.bin" BINARY
  TRACK 30 AUDIO
    INDEX 00 00:00:00
    INDEX 01 00:02:00
FILE "Track 31.bin" BINARY
  TRACK 31 AUDIO
    INDEX 00 00:00:00
    INDEX 01 00:02:00
FILE "Track 32.bin" BINARY
  TRACK 32 AUDIO
    INDEX 00 00:00:00
    INDEX 01 00:02:00
FILE "Track 33.bin" BINARY
  TRACK 33 AUDIO
    INDEX 00 00:00:00
    INDEX 01 00:02:00
FILE "Track 34.bin" BINARY
  TRACK 34 AUDIO
    INDEX 00 00:00:00
    INDEX 01 00:02:00
FILE "Track 35.bin" BINARY
  TRACK 35 AUDIO
    INDEX 00 00:00:00
    INDEX 01 00:02:00
FILE "Track 36.bin" BINARY
  TRACK 36 AUDIO
    INDEX 00 00:00:00
    INDEX 01 00:02:00
FILE "Track 37.bin" BINARY
  TRACK 37 AUDIO
    INDEX 00 00:00:00
    INDEX 01 00:02:00
FILE "Track 38.bin" BINARY
  TRACK 38 MODE1/2352
    INDEX 00 00:00:00
    INDEX 01 00:03:00

Header:

0000 : 53 45 47 41 20 53 45 47  41 4B 41 54 41 4E 41 20   SEGA SEGAKATANA 
0010 : 53 45 47 41 20 45 4E 54  45 52 50 52 49 53 45 53   SEGA ENTERPRISES
0020 : 46 35 32 45 20 47 44 2D  52 4F 4D 31 2F 31 20 20   F52E GD-ROM1/1  
0030 : 4A 20 20 20 20 20 20 20  30 37 42 42 33 31 30 20   J       07BB310 
0040 : 36 31 30 37 39 33 37 20  20 20 56 31 2E 30 30 31   6107937   V1.001
0050 : 32 30 30 30 30 38 32 31  20 20 20 20 20 20 20 20   20000821        
0060 : 31 53 54 5F 52 45 41 44  2E 42 49 4E 20 20 20 20   1ST_READ.BIN    
0070 : 54 2D 32 34 20 20 20 20  20 20 20 20 20 20 20 20   T-24            
0080 : 47 55 49 4C 54 59 20 47  45 41 52 20 58 20 53 41   GUILTY GEAR X SA
0090 : 4D 50 4C 45 20 20 20 20  20 20 20 20 20 20 20 20   MPLE            
00A0 : 20 20 20 20 20 20 20 20  20 20 20 20 20 20 20 20                   
00B0 : 20 20 20 20 20 20 20 20  20 20 20 20 20 20 20 20                   
00C0 : 20 20 20 20 20 20 20 20  20 20 20 20 20 20 20 20                   
00D0 : 20 20 20 20 20 20 20 20  20 20 20 20 20 20 20 20                   
00E0 : 20 20 20 20 20 20 20 20  20 20 20 20 20 20 20 20                   
00F0 : 20 20 20 20 20 20 20 20  20 20 20 20 20 20 20 20                   

Logs: attached

Post's attachments

DC-GUILTYGEARX.rar 53.94 kb, 2 downloads since 2019-12-22 

You don't have the permssions to download the attachments of this post.

When added, please add it as verified. Checksums match my dump.

Some comments in addition to what wiggy has posted above:

There's no actual Japanese title on cover and disc, the name is displayed only in English.
The only words displayed in Japanese on cover/disc are Taikenban (trial version) and Hikanhin (not for sale). Please refer to photos.

Language has been tested. Game plays fully in English and has English menu but winning quote after the fight is displayed in Japanese. So you could say it's 95% English.

My IFPI is L155, vs Wiggy's L166. Might be two different versions or a mis-read (this looks more likely to me), but I did my best to read it properly under good light.

Photos can be found here: https://mega.nz/#!DspkgCyB!SP0VAL145IXX … 4wh21kDwIQ
Logs can be found here: https://mega.nz/#!z04GiaSa!BOmik_lT_tJn … Q-l2mTru0A

“My IFPI is L155, vs Wiggy's L166. “

That will be an affirmative, 155 it is.

Maddog wrote:

My IFPI is L155, vs Wiggy's L166. Might be two different versions or a mis-read (this looks more likely to me), but I did my best to read it properly under good light.

No word about the mould IFPI? Any pic of that 'badly stamping', maybe?

F1ReB4LL wrote:
Maddog wrote:

My IFPI is L155, vs Wiggy's L166. Might be two different versions or a mis-read (this looks more likely to me), but I did my best to read it properly under good light.

No word about the mould IFPI? Any pic of that 'badly stamping', maybe?

I didn't see any additional IFPI, only Wiggy mentions that. Since he got 155 wrong, he may have been seeing scratches in the plastic for all I know. wink

Wiggy, ping smile

oh i missed this.
lemme find the disc out

https://cdn.discordapp.com/attachments/678358535242776604/726860640706232400/Screenshot_20200628_190417_com.android.gallery3d.jpg

i swear this is meant to be a laser etched Mold SID.

There's too many sticky threads.... Delete this one