Original Dumper: Macross

I still need to make read properly the ring codes. As always, casual dumpers get mad when checking these the way it must be read.

Common Disc Info:

    System: NEC PC-FX / PC-FXGA
    Media Type: CD-ROM
    Category: Games
    Region: World
    Languages: Japanese only?

    Ringcode Information:
        Mastering Code (laser branded/etched): NHE0L10161
        Mastering SID Code: (REQUIRED, IF EXISTS)
        Data-Side Mould SID Code: (REQUIRED, IF EXISTS)
        Label-Side Mould SID Code: (REQUIRED, IF EXISTS)
        Additional Mould: (REQUIRED, IF EXISTS)
        Toolstamp or Mastering Code (engraved/stamped): (REQUIRED, IF EXISTS)
   
        Barcode: 4 904323270095 
    Error Count: 0
        Comments: Logs in here: https://mega.nz/#F!CDJGDawZ!hfm-HCzByysn6exn9EJ1xA


Version and Editions:
    Edition/Release: Original

Extras:
    Primary Volume Descriptor (PVD): Disc has no PVD

Tracks and Write Offsets:
    DAT:

<rom name="FXNHE507 (Track 01).bin" size="9807840" crc="fe689557" md5="f3c602776cef3435cae753c9006b8507" sha1="f65d769a8f0ba60a5003aa985da6adc7c3c73eeb" />
<rom name="FXNHE507 (Track 02).bin" size="12444432" crc="0712eea8" md5="79846f10a3973045d31170def976b83a" sha1="febf8bd75a4bcb6d1d45debe8a7d51a67ad9d3b0" />
<rom name="FXNHE507 (Track 03).bin" size="15078672" crc="1d9174cd" md5="df042c803b1186d8dbab909875202c02" sha1="ee292eb630ee40705430cd3b9904bf02ef8044f6" />
<rom name="FXNHE507 (Track 04).bin" size="13401696" crc="e313f221" md5="d96988f6132b3bf2cfef6f685fd3c697" sha1="452270212244d0945429679fc0218386483c77d9" />
<rom name="FXNHE507 (Track 05).bin" size="12773712" crc="a44f9132" md5="8568209d3e25fa1c341843700dfde75e" sha1="9822457fe84e3135a4d2f2c0bee0c1c8e7e69803" />
<rom name="FXNHE507 (Track 06).bin" size="12947760" crc="a2d305ea" md5="48e2f00b132aed8ce956cc3e26e74d99" sha1="f6b11e1a792286e0764ffe541ba5477ada58c8d6" />
<rom name="FXNHE507 (Track 07).bin" size="14509488" crc="95eda4eb" md5="1e1e58817872df88eabd82cc4e88b528" sha1="f24922da725fd294eaed1407a5972ffc17914650" />
<rom name="FXNHE507 (Track 08).bin" size="13707456" crc="972920dc" md5="f8f98ae4de600bd0f10f71d1c2266d00" sha1="7b5c30eebf81225655af9f240a1dadd1464dff47" />
<rom name="FXNHE507 (Track 09).bin" size="12616128" crc="4233a9a3" md5="87e064e4053cc041c551d899f81a35f1" sha1="571b367ebabaff9b739f4ca3aa8fc1182f6baef9" />
<rom name="FXNHE507 (Track 10).bin" size="12844272" crc="b97cc206" md5="c4db7dd59d5eccd5b2be8a3c5732f78f" sha1="d3ad609732552b6b94ab2ab250954e094a9f6537" />
<rom name="FXNHE507 (Track 11).bin" size="13780368" crc="fd1b8c78" md5="cb3311fa26e272b05cb013c9d4b70602" sha1="c2261c403f6c69d62fec054a0367645dd24b0cd8" />
<rom name="FXNHE507 (Track 12).bin" size="12893664" crc="74be2bd4" md5="507dc36a3364adf63101ba565eafb572" sha1="b143dc9e463c8469ac53366b9b86f4014fc4276d" />
<rom name="FXNHE507 (Track 13).bin" size="12884256" crc="83adee05" md5="4ae926789a1e1b011281432602f90c47" sha1="e0e2915ce92074b3fcb2bed9e845e508ebcdf69d" />
<rom name="FXNHE507 (Track 14).bin" size="12952464" crc="2d3867d0" md5="4d8294d1a609a46223469d8cadc8b0f3" sha1="9da603248a5586f2250d1e1803a5d57359d74f1d" />
<rom name="FXNHE507 (Track 15).bin" size="13338192" crc="13d59cfe" md5="5413cf03f91e572b1521e34d8f9ebab4" sha1="6e5cf5140f39ba65943cd1a358b0db4d182a50da" />
<rom name="FXNHE507 (Track 16).bin" size="13347600" crc="fdfa1297" md5="0af90e2d736e001c75dabc175451c222" sha1="2a8de10b98abd32dda4591402af7bdc8392c4558" />
<rom name="FXNHE507 (Track 17).bin" size="12477360" crc="39444f02" md5="39f520cbfe3ac01978fdbd80452df1ac" sha1="45f73346a70a330c2de6ccaaa6dd1e8dcd1e0986" />
<rom name="FXNHE507 (Track 18).bin" size="8406048" crc="7727195e" md5="9d26ad117fbc4b2e3bafee1a60b773d3" sha1="43e8749c46390abe411d5c3aa8cf72af8ea4ee14" />
<rom name="FXNHE507 (Track 19).bin" size="13077120" crc="79a18e38" md5="1d2ffe142b94e452c4bccece6ca091f6" sha1="3c10b7607e6963f7669007f2391909aa8cc1fb42" />
<rom name="FXNHE507 (Track 20).bin" size="12912480" crc="500eb49c" md5="65fec04f64296b329eee8cb0e92021b2" sha1="8fbf532339e326661056f368bfa98e1d9b48a42a" />
<rom name="FXNHE507 (Track 21).bin" size="13547520" crc="8dde28cc" md5="eda9ed6a97115744e2b26933ddf3120b" sha1="1069a8b948dba1992902404834669e0c9752168d" />
<rom name="FXNHE507 (Track 22).bin" size="987840" crc="840c551a" md5="9842239fdae5ec18fc81fc18f58f1ee9" sha1="b00c96c2c390333e2bfe41f447cde8d3b32023db" />
<rom name="FXNHE507 (Track 23).bin" size="1044288" crc="bca0b94d" md5="b3f5ed9015a6b99af8a1526a24c31ab5" sha1="9e03f7ce29ec83168830397f96db732ecb526ff4" />
<rom name="FXNHE507 (Track 24).bin" size="3925488" crc="22c94d73" md5="87706e15d2626aee0149e88d4a43affe" sha1="2dda4b31345c0ea1220c033393032c9ab6c81d7e" />
<rom name="FXNHE507 (Track 25).bin" size="1058400" crc="280e2fd0" md5="19c5126dd73df71babb16025d4221cf2" sha1="9e9daa153f66d71d2a551c50a96cd583c4df29c7" />
<rom name="FXNHE507 (Track 26).bin" size="12089280" crc="0bd2065b" md5="1a2ddc86f71eafaca2c064e6656b4d68" sha1="5957bbcfca2eb9e52712072387220613d8d3706e" />
<rom name="FXNHE507 (Track 27).bin" size="2671872" crc="03af2698" md5="4797c3ef172ffa7f23a6c154cc00310c" sha1="086c40e72c274f3af3fed8eceb5931f5044c190d" />
<rom name="FXNHE507 (Track 28).bin" size="1606416" crc="c97db800" md5="c9f0da1480d1786b6d6df43508fb3963" sha1="e424b54eaf424c0c9cca7b0215b09fef7f30b56f" />
<rom name="FXNHE507 (Track 29).bin" size="13008912" crc="f144a5a8" md5="d571148e4091d2fbb740f4dd0827dc00" sha1="7468010402cb2d7a158665aced3c61cafa06a21e" />

    Cuesheet:

CATALOG 0000000000000
FILE "FXNHE507 (Track 01).bin" BINARY
  TRACK 01 AUDIO
    INDEX 01 00:00:00
FILE "FXNHE507 (Track 02).bin" BINARY
  TRACK 02 MODE1/2352
    INDEX 00 00:00:00
    INDEX 01 00:03:00
FILE "FXNHE507 (Track 03).bin" BINARY
  TRACK 03 AUDIO
    INDEX 00 00:00:00
    INDEX 01 00:02:00
FILE "FXNHE507 (Track 04).bin" BINARY
  TRACK 04 AUDIO
    INDEX 01 00:00:00
FILE "FXNHE507 (Track 05).bin" BINARY
  TRACK 05 AUDIO
    INDEX 01 00:00:00
FILE "FXNHE507 (Track 06).bin" BINARY
  TRACK 06 AUDIO
    INDEX 01 00:00:00
FILE "FXNHE507 (Track 07).bin" BINARY
  TRACK 07 AUDIO
    INDEX 01 00:00:00
FILE "FXNHE507 (Track 08).bin" BINARY
  TRACK 08 AUDIO
    INDEX 01 00:00:00
FILE "FXNHE507 (Track 09).bin" BINARY
  TRACK 09 AUDIO
    INDEX 01 00:00:00
FILE "FXNHE507 (Track 10).bin" BINARY
  TRACK 10 AUDIO
    INDEX 01 00:00:00
FILE "FXNHE507 (Track 11).bin" BINARY
  TRACK 11 AUDIO
    INDEX 01 00:00:00
FILE "FXNHE507 (Track 12).bin" BINARY
  TRACK 12 AUDIO
    INDEX 01 00:00:00
FILE "FXNHE507 (Track 13).bin" BINARY
  TRACK 13 AUDIO
    INDEX 01 00:00:00
FILE "FXNHE507 (Track 14).bin" BINARY
  TRACK 14 AUDIO
    INDEX 01 00:00:00
FILE "FXNHE507 (Track 15).bin" BINARY
  TRACK 15 AUDIO
    INDEX 01 00:00:00
FILE "FXNHE507 (Track 16).bin" BINARY
  TRACK 16 AUDIO
    INDEX 01 00:00:00
FILE "FXNHE507 (Track 17).bin" BINARY
  TRACK 17 AUDIO
    INDEX 01 00:00:00
FILE "FXNHE507 (Track 18).bin" BINARY
  TRACK 18 AUDIO
    INDEX 01 00:00:00
FILE "FXNHE507 (Track 19).bin" BINARY
  TRACK 19 AUDIO
    INDEX 01 00:00:00
FILE "FXNHE507 (Track 20).bin" BINARY
  TRACK 20 AUDIO
    INDEX 01 00:00:00
FILE "FXNHE507 (Track 21).bin" BINARY
  TRACK 21 AUDIO
    INDEX 01 00:00:00
FILE "FXNHE507 (Track 22).bin" BINARY
  TRACK 22 AUDIO
    INDEX 01 00:00:00
FILE "FXNHE507 (Track 23).bin" BINARY
  TRACK 23 AUDIO
    INDEX 01 00:00:00
FILE "FXNHE507 (Track 24).bin" BINARY
  TRACK 24 AUDIO
    INDEX 01 00:00:00
FILE "FXNHE507 (Track 25).bin" BINARY
  TRACK 25 AUDIO
    INDEX 01 00:00:00
FILE "FXNHE507 (Track 26).bin" BINARY
  TRACK 26 AUDIO
    INDEX 01 00:00:00
FILE "FXNHE507 (Track 27).bin" BINARY
  TRACK 27 AUDIO
    INDEX 01 00:00:00
FILE "FXNHE507 (Track 28).bin" BINARY
  TRACK 28 AUDIO
    INDEX 01 00:00:00
FILE "FXNHE507 (Track 29).bin" BINARY
  TRACK 29 AUDIO
    INDEX 01 00:00:00

    Write Offset: -827

diego-rbb-93 wrote:

Mastering Code (laser branded/etched): NHE0L10161

Sorry, it can't be the ringcode. Even if to assume the "L" part is the misread "7", there still should be at least 5 letters before and at least 4 letters after this part, also mastering and mould ifpis (which are almost guaranteed for PCFX discs with this ringcode type).