Common Disc Info:
    Title: Half-Life: Opposing Force
    Foreign Title (Non-latin): (OPTIONAL)
    Disc Number / Letter: (OPTIONAL)
    Disc Title: (OPTIONAL)
    System: IBM PC Compatible
    Media Type: CD-ROM
    Category: Games
    Region: Europe
    Languages: English
    Disc Serial: S0021212

    Ringcode Information:
        Mastering Code (laser branded/etched): MPO<TAB>S0021212 20 NOV 00 @@<TAB>P01<TAB>20001120 1044 @@ 4
        Mastering SID Code: IFPI L032
        Data-Side Mould SID Code: IFPI 1236
        Label-Side Mould SID Code: (REQUIRED, IF EXISTS)
        Additional Mould: (REQUIRED, IF EXISTS)
        Toolstamp or Mastering Code (engraved/stamped): 06
    Barcode: 3 348542 120334
    Error Count: 577
    Comments: [T:ISBN] (OPTIONAL)
    Contents: (OPTIONAL)

Version and Editions:
    Version: (REQUIRED, IF EXISTS)
    Edition/Release: Generation

Extras:
    Primary Volume Descriptor (PVD):

0320 : 20 20 20 20 20 20 20 20  20 20 20 20 20 32 30 30                200
0330 : 30 31 30 30 39 31 36 31  30 30 32 30 30 00 32 30   0100916100200.20
0340 : 30 30 31 30 30 39 31 36  31 30 30 32 30 30 00 30   00100916100200.0
0350 : 30 30 30 30 30 30 30 30  30 30 30 30 30 30 30 00   000000000000000.
0360 : 30 30 30 30 30 30 30 30  30 30 30 30 30 30 30 30   0000000000000000
0370 : 00 01 00 00 00 00 00 00  00 00 00 00 00 00 00 00   ................

Copy Protection:
    Copy Protection: Path could not be scanned!

Tracks and Write Offsets:
    DAT:

<rom name="OPFOR_UK (Track 01).bin" size="371832384" crc="4b4dea86" md5="3bb732e9a0f13ceab7168c19b4ecdc5a" sha1="aa22b7b97731635ef99e3ca316fd0c96cd96608e" />
<rom name="OPFOR_UK (Track 02).bin" size="3031728" crc="eb0088f6" md5="405713b97e9f536c902d141379f9f634" sha1="8e9686736cd5d50de3fae9caf8502f4818640c33" />
<rom name="OPFOR_UK (Track 03).bin" size="12557328" crc="e39675ef" md5="99dd224ddd128f2a9a17573b42e111e1" sha1="96d62af0259a51bb15edb31d07eae17bd5481445" />
<rom name="OPFOR_UK (Track 04).bin" size="20069616" crc="19e14142" md5="d1a6794fdd7e57fb984beae11548efcd" sha1="9b79358d6c0d44e93d1424c0eaf0ebb408ad3b79" />
<rom name="OPFOR_UK (Track 05).bin" size="3062304" crc="39122382" md5="b95543bbdd1cca6cbba296118866ad54" sha1="b80cf36fd77775d9cdc966a1e17c436ce259294d" />
<rom name="OPFOR_UK (Track 06).bin" size="11030880" crc="ca6adeeb" md5="b3581dbad9de47e1c994ca8e00ea90c7" sha1="ec5d9adbe4593a3053b714efbba1a6afb3b76501" />
<rom name="OPFOR_UK (Track 07).bin" size="17324832" crc="88a9a2a9" md5="bb7245fafe90fb50d8c9cca805e6c299" sha1="60e896c379dd4f23aa268164888c5c37518a8721" />
<rom name="OPFOR_UK (Track 08).bin" size="14043792" crc="439d0fb3" md5="22d2279a2c6553b1cbd1ac35aaaf32d9" sha1="0d6961ca6cb23036ec54c01d6ee5d363fbd3ef77" />
<rom name="OPFOR_UK (Track 09).bin" size="19208784" crc="e3082f48" md5="3ae26a403d55f8cad4d30f8283e75f9f" sha1="66d67adaf2bde35caa5bd0b99d27fb2b34edc704" />
<rom name="OPFOR_UK (Track 10).bin" size="22405152" crc="3b305fcd" md5="f5478034085b8b6a5428bc63e58c851e" sha1="85c348bc294fb003c6799f7223b94e0e9a2f9feb" />
<rom name="OPFOR_UK (Track 11).bin" size="14434224" crc="7e9a2951" md5="e29cd85c8604eae5dd85407e22ca1c9b" sha1="9ba4356380aaf8ff3f058db257e66d9b947fb5bb" />
<rom name="OPFOR_UK (Track 12).bin" size="13524000" crc="19030157" md5="0544af20054a6e003522542b152bbed5" sha1="8b45fdd7f6b1d73821d1fba817e66a1aa1bcae29" />
<rom name="OPFOR_UK (Track 13).bin" size="15384432" crc="a926beac" md5="41cf8267172a3b32ff06fc626a286e4d" sha1="940f9ca6ca22f96c8357004c4e97b273a69c5624" />
<rom name="OPFOR_UK (Track 14).bin" size="9447984" crc="eedfcd5a" md5="e9a147a5a5014344ae4369d142e841c8" sha1="354e2b2415c69e34eafd295fad5c72a4bfbd06cb" />
<rom name="OPFOR_UK (Track 15).bin" size="14970480" crc="58c2c271" md5="af5db79819a7323e8b580ba1b1ee2125" sha1="e83ebaf500f89f7ed82df95147cc2fdf7c06f769" />
<rom name="OPFOR_UK (Track 16).bin" size="15212736" crc="552ac4e5" md5="928d7e004ce94cd18e52417ca0376fc4" sha1="ea1592fab9003a3264830aed0a4cccfd27b6dce4" />
<rom name="OPFOR_UK (Track 17).bin" size="21076272" crc="7cc8aec2" md5="8f421289b56bd132ed526aa59eaa184e" sha1="5b87ef7d8f9a751646cab581a92807e7ef5fb37f" />
<rom name="OPFOR_UK (Track 18).bin" size="10412304" crc="29becff5" md5="28a675ea6ddcbffdedb53b0f64e6c234" sha1="d4d10e4f36e77422bfd18ba4d884dd63d7035ef2" />
<rom name="OPFOR_UK (Track 19).bin" size="22002960" crc="0f00e047" md5="fd0c9cce889b3413132cbdcfe3b2262e" sha1="d634a0b76295e79bc8dfe77580f5a8828e8d9c39" />
<rom name="OPFOR_UK (Track 20).bin" size="16840320" crc="f413fe18" md5="b387b422e6513772fef7cae1252e87cb" sha1="24ee27c923136055ec46538896559cea46bf27e7" />

    Cuesheet:

FILE "OPFOR_UK (Track 01).bin" BINARY
  TRACK 01 MODE1/2352
    INDEX 01 00:00:00
FILE "OPFOR_UK (Track 02).bin" BINARY
  TRACK 02 AUDIO
    INDEX 00 00:00:00
    INDEX 01 00:02:00
FILE "OPFOR_UK (Track 03).bin" BINARY
  TRACK 03 AUDIO
    INDEX 00 00:00:00
    INDEX 01 00:01:74
FILE "OPFOR_UK (Track 04).bin" BINARY
  TRACK 04 AUDIO
    INDEX 00 00:00:00
    INDEX 01 00:01:74
FILE "OPFOR_UK (Track 05).bin" BINARY
  TRACK 05 AUDIO
    INDEX 00 00:00:00
    INDEX 01 00:01:74
FILE "OPFOR_UK (Track 06).bin" BINARY
  TRACK 06 AUDIO
    INDEX 00 00:00:00
    INDEX 01 00:01:74
FILE "OPFOR_UK (Track 07).bin" BINARY
  TRACK 07 AUDIO
    INDEX 00 00:00:00
    INDEX 01 00:01:74
FILE "OPFOR_UK (Track 08).bin" BINARY
  TRACK 08 AUDIO
    INDEX 00 00:00:00
    INDEX 01 00:01:74
FILE "OPFOR_UK (Track 09).bin" BINARY
  TRACK 09 AUDIO
    INDEX 00 00:00:00
    INDEX 01 00:01:74
FILE "OPFOR_UK (Track 10).bin" BINARY
  TRACK 10 AUDIO
    INDEX 00 00:00:00
    INDEX 01 00:01:74
FILE "OPFOR_UK (Track 11).bin" BINARY
  TRACK 11 AUDIO
    INDEX 00 00:00:00
    INDEX 01 00:01:74
FILE "OPFOR_UK (Track 12).bin" BINARY
  TRACK 12 AUDIO
    INDEX 00 00:00:00
    INDEX 01 00:01:74
FILE "OPFOR_UK (Track 13).bin" BINARY
  TRACK 13 AUDIO
    INDEX 00 00:00:00
    INDEX 01 00:01:74
FILE "OPFOR_UK (Track 14).bin" BINARY
  TRACK 14 AUDIO
    INDEX 00 00:00:00
    INDEX 01 00:01:74
FILE "OPFOR_UK (Track 15).bin" BINARY
  TRACK 15 AUDIO
    INDEX 00 00:00:00
    INDEX 01 00:01:74
FILE "OPFOR_UK (Track 16).bin" BINARY
  TRACK 16 AUDIO
    INDEX 00 00:00:00
    INDEX 01 00:01:74
FILE "OPFOR_UK (Track 17).bin" BINARY
  TRACK 17 AUDIO
    INDEX 00 00:00:00
    INDEX 01 00:01:74
FILE "OPFOR_UK (Track 18).bin" BINARY
  TRACK 18 AUDIO
    INDEX 00 00:00:00
    INDEX 01 00:01:74
FILE "OPFOR_UK (Track 19).bin" BINARY
  TRACK 19 AUDIO
    INDEX 00 00:00:00
    INDEX 01 00:01:74
FILE "OPFOR_UK (Track 20).bin" BINARY
  TRACK 20 AUDIO
    INDEX 00 00:00:00
    INDEX 01 00:01:74

    Write Offset: -12
Common Disc Info:
    Title: Half-Life
    Foreign Title (Non-latin): (OPTIONAL)
    Disc Number / Letter: (OPTIONAL)
    Disc Title: (OPTIONAL)
    System: IBM PC Compatible
    Media Type: CD-ROM
    Category: Games
    Region: Europe
    Languages: English
    Disc Serial: S0021211

    Ringcode Information:
        Mastering Code (laser branded/etched): MPO<TAB>S0021211 18OCT00 @@<TAB>20001019 0959 @@ 4
        Mastering SID Code: IFPI L032
        Data-Side Mould SID Code: IFPI 1236
        Label-Side Mould SID Code: (REQUIRED, IF EXISTS)
        Additional Mould: (REQUIRED, IF EXISTS)
        Toolstamp or Mastering Code (engraved/stamped): 10
    Barcode: 3 348542 117204
    Error Count: 0
    Comments: [T:ISBN] (OPTIONAL)
    Contents: (OPTIONAL)

Version and Editions:
    Version: (REQUIRED, IF EXISTS)
    Edition/Release: Generation

Extras:
    Primary Volume Descriptor (PVD):

0320 : 20 20 20 20 20 20 20 20  20 20 20 20 20 32 30 30                200
0330 : 30 30 38 32 39 31 35 32  34 30 30 30 30 08 32 30   0082915240000.20
0340 : 30 30 30 38 32 39 31 35  32 34 30 30 30 30 08 30   00082915240000.0
0350 : 30 30 30 30 30 30 30 30  30 30 30 30 30 30 30 00   000000000000000.
0360 : 30 30 30 30 30 30 30 30  30 30 30 30 30 30 30 30   0000000000000000
0370 : 00 01 00 00 00 00 00 00  00 00 00 00 00 00 00 00   ................

Copy Protection:
    Copy Protection: Path could not be scanned!

Tracks and Write Offsets:
    DAT:

<rom name="HALF_LIFE (Track 01).bin" size="451139472" crc="fde63a97" md5="e9ec75cf2f0b994c6f84daf2439a2c79" sha1="2b66f2ccc402567b70d47da933fce60a879e9441" />
<rom name="HALF_LIFE (Track 02).bin" size="23186016" crc="f796bb19" md5="27c9cf956eb4f1e693788eac53c1e96c" sha1="21ba79563a03407a4aaebcc607f3f10d3839edca" />
<rom name="HALF_LIFE (Track 03).bin" size="23602320" crc="fb1dd589" md5="2ea94d63c772ada1e413a0155f23326d" sha1="a5e018fb908225e7d2e9f966b5adc913dd935425" />
<rom name="HALF_LIFE (Track 04).bin" size="10922688" crc="24a85e9b" md5="5235a4d770d7e7b0e3f4a9edca507ee4" sha1="dc129f3e04a87b76d2521d36e58611aa303ce926" />
<rom name="HALF_LIFE (Track 05).bin" size="17193120" crc="153163ad" md5="d9d229a7c874f4b79cb0b4d43f1b839e" sha1="d28dfa7ac6c32f99304abd326f4669c1bafec004" />
<rom name="HALF_LIFE (Track 06).bin" size="17849328" crc="ba916da1" md5="6ba173576732e8f2f8ab26c05298e789" sha1="b0f6ef2e033cf97d195c17e595c134bf6a0b93ef" />
<rom name="HALF_LIFE (Track 07).bin" size="4424112" crc="8947ff70" md5="5430c5cf7cffd3ef1053ca70d460c07c" sha1="eec0fb57b262d907d72644b3769fea7cf78fa532" />
<rom name="HALF_LIFE (Track 08).bin" size="1902768" crc="87e457df" md5="15d5fba4b3a6511cd2083fc29f6ec69d" sha1="1938fc5810c2adf405ce3e6fe0b07f5980cce38e" />
<rom name="HALF_LIFE (Track 09).bin" size="16743888" crc="a9b5d1ad" md5="41c08f10947f8c9e0ab305a1c0adc0cd" sha1="5005d0344f765cbe310f54232e3ebc2279dcc790" />
<rom name="HALF_LIFE (Track 10).bin" size="18787776" crc="5e36e5fd" md5="bd837cf8dad0fbbb061b1ba152ad85fd" sha1="4063562c32f828e1a3eb29b82e2f00927e896f4c" />
<rom name="HALF_LIFE (Track 11).bin" size="14951664" crc="7468f8c7" md5="9bc5211212954d55c7324bef136f6330" sha1="9d68ed7d6c261d47d2f972c85a104b30873b47be" />
<rom name="HALF_LIFE (Track 12).bin" size="22783824" crc="35640fbb" md5="becf71e9674b2ab7fed3ba4a7af2172f" sha1="33929a4a0bfc60db0263205d5116e578cda814af" />
<rom name="HALF_LIFE (Track 13).bin" size="6731424" crc="9571b537" md5="2ba4fbbf9793f08c24e10d46adcbdc15" sha1="832e48151bcd70f3058bddced2e142e46fe02b94" />
<rom name="HALF_LIFE (Track 14).bin" size="13220592" crc="17c3f7dc" md5="96faae197daa178d80e677f8dc784342" sha1="6c6797f6d5709cb38872d9f01dad92316f72467a" />
<rom name="HALF_LIFE (Track 15).bin" size="21546672" crc="d9e551dc" md5="3231cc7af73b79b86e14bbbf30cccb7c" sha1="25249f91d0ee0bff81459014127aae62388caf5f" />
<rom name="HALF_LIFE (Track 16).bin" size="3201072" crc="2f95d7ab" md5="89467cbfa91c288a24c159eea25e8a14" sha1="1050fbf22448559a1289337821dc69905e318b16" />
<rom name="HALF_LIFE (Track 17).bin" size="22205232" crc="5248d455" md5="bf09965a14e7664b380586b205eb3273" sha1="b0450ee78b5e38963ec9673558e0a8566f6babcf" />
<rom name="HALF_LIFE (Track 18).bin" size="18009264" crc="780623f2" md5="f62ed35c506a3d6b4a0917d77c476109" sha1="bdbb05ca91de031d932a2cc4845fcd8b93df2f09" />
<rom name="HALF_LIFE (Track 19).bin" size="20516496" crc="f4b7ccd1" md5="894eee19e1b139a49f9de4c9bf50bc4a" sha1="7bd6e1629b0cb079f37de46e3b0ad66e6647014a" />
<rom name="HALF_LIFE (Track 20).bin" size="15229200" crc="72e014b0" md5="be0f8c90f4ab19ac1e3c5a107f8b7f15" sha1="d3fc3b91cba5e48f5c4ae427680e6c4cb30324b7" />
<rom name="HALF_LIFE (Track 21).bin" size="15224496" crc="db1bb241" md5="65a3250bfe59f44ebed4e940f92baff9" sha1="3e24b5eec7b9257456e3e761952b23ee54cc11f1" />
<rom name="HALF_LIFE (Track 22).bin" size="14147280" crc="2daff7a3" md5="17324efbb51db9f198b1952b83a9f0f3" sha1="410edbbaef8b086b77509c25d34ac882d842c341" />
<rom name="HALF_LIFE (Track 23).bin" size="20048448" crc="5da98727" md5="4c9501969b2c3b49a898768a00458edf" sha1="702adbb448201f567353f07e01931562302666ab" />
<rom name="HALF_LIFE (Track 24).bin" size="14072016" crc="351fd7c6" md5="51eb153009ac0451fc27c86fe848edf4" sha1="17a5c93f86cf6ac782a6faea29ba9df30f0155d3" />
<rom name="HALF_LIFE (Track 25).bin" size="17865792" crc="e5535c4b" md5="988133ce52f017fc68bcfe45ca727249" sha1="ee1600334472bf470125f28678891e42185a70b7" />
<rom name="HALF_LIFE (Track 26).bin" size="6931344" crc="4f440e75" md5="bed28c3b1ec51dc59979e4ac13eb1fa0" sha1="6618c118532b9ff79bfe9e76fa92ef8b1807b4b7" />
<rom name="HALF_LIFE (Track 27).bin" size="3415104" crc="a29431ce" md5="9c47d2aae2b83a3e5bf64e60006e9a7b" sha1="3a84cce6a3ea50bcd567045c4a5d61669430f0c4" />
<rom name="HALF_LIFE (Track 28).bin" size="1832208" crc="0af612d6" md5="2a1448d6ea697cc72e8ee403e578b486" sha1="6c7a97b8da4923721f3b42b83c507d9ac2c40a61" />

    Cuesheet:

FILE "HALF_LIFE (Track 01).bin" BINARY
  TRACK 01 MODE2/2352
    INDEX 01 00:00:00
FILE "HALF_LIFE (Track 02).bin" BINARY
  TRACK 02 AUDIO
    INDEX 00 00:00:00
    INDEX 01 00:02:02
FILE "HALF_LIFE (Track 03).bin" BINARY
  TRACK 03 AUDIO
    INDEX 00 00:00:00
    INDEX 01 00:01:74
FILE "HALF_LIFE (Track 04).bin" BINARY
  TRACK 04 AUDIO
    INDEX 00 00:00:00
    INDEX 01 00:01:74
FILE "HALF_LIFE (Track 05).bin" BINARY
  TRACK 05 AUDIO
    INDEX 00 00:00:00
    INDEX 01 00:01:74
FILE "HALF_LIFE (Track 06).bin" BINARY
  TRACK 06 AUDIO
    INDEX 00 00:00:00
    INDEX 01 00:01:74
FILE "HALF_LIFE (Track 07).bin" BINARY
  TRACK 07 AUDIO
    INDEX 00 00:00:00
    INDEX 01 00:01:74
FILE "HALF_LIFE (Track 08).bin" BINARY
  TRACK 08 AUDIO
    INDEX 00 00:00:00
    INDEX 01 00:01:74
FILE "HALF_LIFE (Track 09).bin" BINARY
  TRACK 09 AUDIO
    INDEX 00 00:00:00
    INDEX 01 00:01:74
FILE "HALF_LIFE (Track 10).bin" BINARY
  TRACK 10 AUDIO
    INDEX 00 00:00:00
    INDEX 01 00:01:74
FILE "HALF_LIFE (Track 11).bin" BINARY
  TRACK 11 AUDIO
    INDEX 00 00:00:00
    INDEX 01 00:01:74
FILE "HALF_LIFE (Track 12).bin" BINARY
  TRACK 12 AUDIO
    INDEX 00 00:00:00
    INDEX 01 00:01:74
FILE "HALF_LIFE (Track 13).bin" BINARY
  TRACK 13 AUDIO
    INDEX 00 00:00:00
    INDEX 01 00:01:74
FILE "HALF_LIFE (Track 14).bin" BINARY
  TRACK 14 AUDIO
    INDEX 00 00:00:00
    INDEX 01 00:01:74
FILE "HALF_LIFE (Track 15).bin" BINARY
  TRACK 15 AUDIO
    INDEX 00 00:00:00
    INDEX 01 00:01:74
FILE "HALF_LIFE (Track 16).bin" BINARY
  TRACK 16 AUDIO
    INDEX 00 00:00:00
    INDEX 01 00:01:74
FILE "HALF_LIFE (Track 17).bin" BINARY
  TRACK 17 AUDIO
    INDEX 00 00:00:00
    INDEX 01 00:01:74
FILE "HALF_LIFE (Track 18).bin" BINARY
  TRACK 18 AUDIO
    INDEX 00 00:00:00
    INDEX 01 00:01:74
FILE "HALF_LIFE (Track 19).bin" BINARY
  TRACK 19 AUDIO
    INDEX 00 00:00:00
    INDEX 01 00:01:74
FILE "HALF_LIFE (Track 20).bin" BINARY
  TRACK 20 AUDIO
    INDEX 00 00:00:00
    INDEX 01 00:01:74
FILE "HALF_LIFE (Track 21).bin" BINARY
  TRACK 21 AUDIO
    INDEX 00 00:00:00
    INDEX 01 00:01:74
FILE "HALF_LIFE (Track 22).bin" BINARY
  TRACK 22 AUDIO
    INDEX 00 00:00:00
    INDEX 01 00:01:74
FILE "HALF_LIFE (Track 23).bin" BINARY
  TRACK 23 AUDIO
    INDEX 00 00:00:00
    INDEX 01 00:03:74
FILE "HALF_LIFE (Track 24).bin" BINARY
  TRACK 24 AUDIO
    INDEX 00 00:00:00
    INDEX 01 00:01:74
FILE "HALF_LIFE (Track 25).bin" BINARY
  TRACK 25 AUDIO
    INDEX 00 00:00:00
    INDEX 01 00:01:74
FILE "HALF_LIFE (Track 26).bin" BINARY
  TRACK 26 AUDIO
    INDEX 00 00:00:00
    INDEX 01 00:01:74
FILE "HALF_LIFE (Track 27).bin" BINARY
  TRACK 27 AUDIO
    INDEX 00 00:00:00
    INDEX 01 00:01:74
FILE "HALF_LIFE (Track 28).bin" BINARY
  TRACK 28 AUDIO
    INDEX 00 00:00:00
    INDEX 01 00:01:73

    Write Offset: -12
Common Disc Info:
    Title: Half-Life: Counter-Strike Ultimate Edition
    Foreign Title (Non-latin): (OPTIONAL)
    Disc Number / Letter: (OPTIONAL)
    Disc Title: (OPTIONAL)
    System: IBM PC Compatible
    Media Type: CD-ROM
    Category: Games
    Region: Europe
    Languages: English
    Disc Serial: S0021213

    Ringcode Information:
        Mastering Code (laser branded/etched): MPO<TAB>S0021213 20 NOV 00 @@@<TAB>20001121 1557 @@@ 4    
        Mastering SID Code: IFPI L033
        Data-Side Mould SID Code: IFPI 1229
        Label-Side Mould SID Code: (REQUIRED, IF EXISTS)
        Additional Mould: (REQUIRED, IF EXISTS)
        Toolstamp or Mastering Code (engraved/stamped): 03
    Barcode: 3 348542 117204
    Error Count: 0
    Comments: [T:ISBN] (OPTIONAL)
    Contents: (OPTIONAL)

Version and Editions:
    Version: (REQUIRED, IF EXISTS)
    Edition/Release: Generation

Extras:
    Primary Volume Descriptor (PVD):

0320 : 20 20 20 20 20 20 20 20  20 20 20 20 20 32 30 30                200
0330 : 30 31 31 31 35 31 36 35  38 30 34 30 30 00 32 30   0111516580400.20
0340 : 30 30 31 31 31 35 31 36  35 38 30 34 30 30 00 30   00111516580400.0
0350 : 30 30 30 30 30 30 30 30  30 30 30 30 30 30 30 00   000000000000000.
0360 : 30 30 30 30 30 30 30 30  30 30 30 30 30 30 30 30   0000000000000000
0370 : 00 01 00 00 00 00 00 00  00 00 00 00 00 00 00 00   ................

Copy Protection:
    Copy Protection: Path could not be scanned!

Tracks and Write Offsets:
    DAT:

<rom name="CSTRIKE.bin" size="610823808" crc="e16c82e4" md5="fdb4a49b732bb91fc91bae2ffb4ff356" sha1="494f9e6b222a311e9f070c7c585877dcaa37afe4" />

    Cuesheet:

FILE "CSTRIKE.bin" BINARY
  TRACK 01 MODE2/2352
    INDEX 01 00:00:00

    Write Offset: -12

https://gofile.io/?c=IRydpL