Common Disc Info:
    Title: Pariah
    Foreign Title (Non-latin): (OPTIONAL)
    Disc Number / Letter: 1
    Disc Title: (OPTIONAL)
    System: IBM PC Compatible
    Media Type: CD-ROM
    Category: Games
    Region: Europe
    Languages: English, French, German, Italian, Spanish
    Disc Serial: (REQUIRED, IF EXISTS)

    Ringcode Information:
        Mastering Code (laser branded/etched): sonopress arvato<TAB>51465597/PARIAH-1 23
        Mastering SID Code: IFPI LP 73
        Data-Side Mould SID Code: IFPI 0741
        Label-Side Mould SID Code: (REQUIRED, IF EXISTS)
        Additional Mould: (REQUIRED, IF EXISTS)
        Toolstamp or Mastering Code (engraved/stamped): (REQUIRED, IF EXISTS)
    Barcode: 3 760049 399271
    Error Count: 579
    Comments: [T:ISBN] (OPTIONAL)
    Contents: (OPTIONAL)

Version and Editions:
    Version: (REQUIRED, IF EXISTS)
    Edition/Release: Original 

Extras:
    Primary Volume Descriptor (PVD):

0320 : 20 20 20 20 20 20 20 20  20 20 20 20 20 32 30 30                200
0330 : 35 30 34 31 35 31 32 33  38 35 30 30 30 00 32 30   5041512385000.20
0340 : 30 35 30 34 31 35 31 32  33 38 35 30 30 30 00 30   05041512385000.0
0350 : 30 30 30 30 30 30 30 30  30 30 30 30 30 30 30 00   000000000000000.
0360 : 30 30 30 30 30 30 30 30  30 30 30 30 30 30 30 30   0000000000000000
0370 : 00 01 00 00 00 00 00 00  00 00 00 00 00 00 00 00   ................

Copy Protection:
    Copy Protection: Path could not be scanned!

Tracks and Write Offsets:
    DAT:

<rom name="PARIAH_CD1.bin" size="788886672" crc="a12b5f66" md5="80eeead601a9bbf439f91d59d10a8606" sha1="a2a412af04b61394e2f4d327d72547efe5da4320" />

    Cuesheet:

FILE "PARIAH_CD1.bin" BINARY
  TRACK 01 MODE1/2352
    INDEX 01 00:00:00

    Write Offset: 0
Common Disc Info:
    Title: Pariah
    Foreign Title (Non-latin): (OPTIONAL)
    Disc Number / Letter: 2
    Disc Title: (OPTIONAL)
    System: IBM PC Compatible
    Media Type: CD-ROM
    Category: Games
    Region: Europe
    Languages: English, French, German, Italian, Spanish
    Disc Serial: (REQUIRED, IF EXISTS)

    Ringcode Information:
        Mastering Code (laser branded/etched): sonopress arvato<TAB>51465572/PARIAH-2 24
        Mastering SID Code: IFPI LP 73
        Data-Side Mould SID Code: IFPI 0774
        Label-Side Mould SID Code: (REQUIRED, IF EXISTS)
        Additional Mould: (REQUIRED, IF EXISTS)
        Toolstamp or Mastering Code (engraved/stamped): (REQUIRED, IF EXISTS)
    Barcode: 3 760049 399271
    Error Count: 0
    Comments: [T:ISBN] (OPTIONAL)
    Contents: (OPTIONAL)

Version and Editions:
    Version: (REQUIRED, IF EXISTS)
    Edition/Release: Original 

Extras:
    Primary Volume Descriptor (PVD):

0320 : 20 20 20 20 20 20 20 20  20 20 20 20 20 32 30 30                200
0330 : 35 30 34 31 35 31 32 35  33 30 37 30 30 10 32 30   5041512530700.20
0340 : 30 35 30 34 31 35 31 32  35 33 30 37 30 30 10 30   05041512530700.0
0350 : 30 30 30 30 30 30 30 30  30 30 30 30 30 30 30 00   000000000000000.
0360 : 30 30 30 30 30 30 30 30  30 30 30 30 30 30 30 30   0000000000000000
0370 : 00 01 00 00 00 00 00 00  00 00 00 00 00 00 00 00   ................

Copy Protection:
    Copy Protection: Path could not be scanned!

Tracks and Write Offsets:
    DAT:

<rom name="PARIAH_CD2.bin" size="747150432" crc="82464f6c" md5="5c1fd8a8aaf67ec25b2257ad62f67513" sha1="fc453c8932a49dbc28aaf394bdd126e2b12b7aea" />

    Cuesheet:

FILE "PARIAH_CD2.bin" BINARY
  TRACK 01 MODE1/2352
    INDEX 01 00:00:00

    Write Offset: 0
Common Disc Info:
    Title: Pariah
    Foreign Title (Non-latin): (OPTIONAL)
    Disc Number / Letter: 3
    Disc Title: (OPTIONAL)
    System: IBM PC Compatible
    Media Type: CD-ROM
    Category: Games
    Region: Europe
    Languages: English, French, German, Italian, Spanish
    Disc Serial: (REQUIRED, IF EXISTS)

    Ringcode Information:
        Mastering Code (laser branded/etched): sonopress arvato<TAB>51465605/PARIAH-3 23
        Mastering SID Code: IFPI LB47
        Data-Side Mould SID Code: IFPI 0762
        Label-Side Mould SID Code: (REQUIRED, IF EXISTS)
        Additional Mould: (REQUIRED, IF EXISTS)
        Toolstamp or Mastering Code (engraved/stamped): (REQUIRED, IF EXISTS)
    Barcode: 3 760049 399271
    Error Count: 0
    Comments: [T:ISBN] (OPTIONAL)
    Contents: (OPTIONAL)

Version and Editions:
    Version: (REQUIRED, IF EXISTS)
    Edition/Release: Original 

Extras:
    Primary Volume Descriptor (PVD):

0320 : 20 20 20 20 20 20 20 20  20 20 20 20 20 32 30 30                200
0330 : 35 30 34 31 35 31 33 32  32 33 30 30 30 10 32 30   5041513223000.20
0340 : 30 35 30 34 31 35 31 33  32 32 33 30 30 30 10 30   05041513223000.0
0350 : 30 30 30 30 30 30 30 30  30 30 30 30 30 30 30 00   000000000000000.
0360 : 30 30 30 30 30 30 30 30  30 30 30 30 30 30 30 30   0000000000000000
0370 : 00 01 00 00 00 00 00 00  00 00 00 00 00 00 00 00   ................

Copy Protection:
    Copy Protection: Path could not be scanned!

Tracks and Write Offsets:
    DAT:

<rom name="PARIAH_CD3.bin" size="741032880" crc="34cb6150" md5="dbb96298962a5da9acced43b45648f18" sha1="4d15c2c8e557cd900f17ca2d90a97f4b115d3648" />

    Cuesheet:

FILE "PARIAH_CD3.bin" BINARY
  TRACK 01 MODE1/2352
    INDEX 01 00:00:00

    Write Offset: 0

https://transfer.sh/12nk1s/PARIAH_CD1.zip
https://transfer.sh/6RAGV/PARIAH_CD2.zip
https://transfer.sh/WtLZ3/PARIAH_CD3.zip