Title: Dreamcast Middleware Conference Demo Disc Part 2
    Foreign Title (Non-latin): (OPTIONAL)
    Disc Number / Letter: (OPTIONAL)
    Disc Title: MIDDLEWARE CONFERENCE 2
    System: Sega Dreamcast
    Media Type: GD-ROM
    Category: Games
    Region: J
    Languages: J
    Disc Serial: (REQUIRED, IF EXISTS)

    Ringcode Information:
        Mastering Code (laser branded/etched): DPSC-976 2MM1 C 9X
        Mastering SID Code: IFPI L223
        Data-Side Mould SID Code: IFPI 39A1
        Label-Side Mould SID Code: (REQUIRED, IF EXISTS)
        Additional Mould: (REQUIRED, IF EXISTS)
        Toolstamp or Mastering Code (engraved/stamped): (REQUIRED, IF EXISTS)
    Barcode: (OPTIONAL)
    EXE/Build Date: 1999-09-27
    Error Count: 0
    Comments:
    Contents: (OPTIONAL)

Version and Editions:
    Version: V1.000
    Edition/Release: Original

Extras:
    Primary Volume Descriptor (PVD):

0320 : 20 20 20 20 20 20 20 20  20 20 20 20 20 31 39 39                199
0330 : 39 30 39 32 37 32 31 35  32 30 30 30 30 24 31 39   9092721520000$19
0340 : 39 39 30 39 32 37 32 31  35 32 30 30 30 30 24 30   99092721520000$0
0350 : 30 30 30 30 30 30 30 30  30 30 30 30 30 30 30 00   000000000000000.
0360 : 30 30 30 30 30 30 30 30  30 30 30 30 30 30 30 30   0000000000000000
0370 : 00 01 00 00 00 00 00 00  00 00 00 00 00 00 00 00   ................

Tracks and Write Offsets:
    DAT:

<rom name="MIDDLEWARE_CONFERENCE_2 (Track 1).bin" size="705600" crc="ad7554e1" md5="360bf1a74ea1e1fc3a72558a54e8d4d7" sha1="89ae513774b409b7bf0b91ae3d08794dd026bb8b" />
<rom name="MIDDLEWARE_CONFERENCE_2 (Track 2).bin" size="2088576" crc="1859ea65" md5="652a31166a58b8f933e8a924e7c88780" sha1="0ecd537e42946f3e74c80c9fcb8d0bccccfc96f1" />
<rom name="MIDDLEWARE_CONFERENCE_2 (Track 3).bin" size="1185760800" crc="819bceea" md5="c894968bea0c2b6c4e1ac8695e2a58f7" sha1="0f063815ddc0bb43a08f52802346ff977be0beb1" />

    Cuesheet:

FILE "MIDDLEWARE_CONFERENCE_2 (Track 1).bin" BINARY
  TRACK 01 MODE1/2352
    INDEX 01 00:00:00
FILE "MIDDLEWARE_CONFERENCE_2 (Track 2).bin" BINARY
  TRACK 02 AUDIO
    INDEX 00 00:00:00
    INDEX 01 00:02:00
FILE "MIDDLEWARE_CONFERENCE_2 (Track 3).bin" BINARY
  TRACK 03 MODE1/2352
    INDEX 01 00:00:00

    Write Offset: -129

Post's attachments

MIDDLEWARE CONFERENCE 2 - DISK 2.7z 34.33 kb, file has never been downloaded. 

You don't have the permssions to download the attachments of this post.