Common Disc Info:
    Title: Phantasmagoria
    Foreign Title (Non-latin): (OPTIONAL)
    Disc Number / Letter: 1
    Disc Title: (OPTIONAL)
    System: Apple Macintosh
    Media Type: CD-ROM
    Category: Games
    Region: UK
    Languages: English
    Disc Serial: S4190250Z1201

    Ringcode Information:
        Mastering Code (laser branded/etched): PHANMACFE1 07 JUN 96<tab>MPO<tab>01 @@@ 9
        Mastering SID Code: IFPI L033
        Data-Side Mould SID Code: IFPI 1204
        Label-Side Mould SID Code: (REQUIRED, IF EXISTS)
        Additional Mould: (REQUIRED, IF EXISTS)
        Toolstamp or Mastering Code (engraved/stamped): 00
    Barcode: (OPTIONAL)
    Error Count: 0
    Comments: [T:ISBN] (OPTIONAL)
    Contents: (OPTIONAL)

Version and Editions:
    Version: (REQUIRED, IF EXISTS)
    Edition/Release: Original

Extras:
    Primary Volume Descriptor (PVD): Disc has no PVD

Copy Protection:
    Copy Protection: None found

Tracks and Write Offsets:
    DAT:

<rom name="Disc Not Detected.bin" size="591624432" crc="d64946e5" md5="b7983abb9c52c44f33d75510dd87c300" sha1="ed01cf0ff44fc69752144d8830eb1a54f827a826" />

    Cuesheet:

CATALOG 0000000000000
FILE "Disc Not Detected.bin" BINARY
  TRACK 01 MODE1/2352
    FLAGS DCP
    INDEX 01 00:00:00

    Write Offset: 222

https://www.dropbox.com/s/klqlve1drx6bu … AC.7z?dl=0

Common Disc Info:
    Title: Phantasmagoria
    Foreign Title (Non-latin): (OPTIONAL)
    Disc Number / Letter: 2
    Disc Title: (OPTIONAL)
    System: Apple Macintosh
    Media Type: CD-ROM
    Category: Games
    Region: UK
    Languages: English
    Disc Serial: S4190250Z1202

    Ringcode Information:
        Mastering Code (laser branded/etched): PHANMACFE2 07 JUN 96<tab>MPO<tab>02 @@@ 9
        Mastering SID Code: IFPI L033
        Data-Side Mould SID Code: IFPI 1207
        Label-Side Mould SID Code: (REQUIRED, IF EXISTS)
        Additional Mould: (REQUIRED, IF EXISTS)
        Toolstamp or Mastering Code (engraved/stamped): 00
    Barcode: (OPTIONAL)
    Error Count: 0
    Comments: [T:ISBN] (OPTIONAL)
    Contents: (OPTIONAL)

Version and Editions:
    Version: (REQUIRED, IF EXISTS)
    Edition/Release: Original

Extras:
    Primary Volume Descriptor (PVD): Disc has no PVD

Copy Protection:
    Copy Protection: None found

Tracks and Write Offsets:
    DAT:

<rom name="Disc Not Detected.bin" size="621967584" crc="13fb7b31" md5="ed5a480b2b22ca6c8786fb9353106121" sha1="9cf4bd00b40a72a586d79ff0a945f2c262e207ff" />

    Cuesheet:

CATALOG 0000000000000
FILE "Disc Not Detected.bin" BINARY
  TRACK 01 MODE1/2352
    FLAGS DCP
    INDEX 01 00:00:00

    Write Offset: 222

https://www.dropbox.com/s/5brlbagxy4a2p … AC.7z?dl=0

Common Disc Info:
    Title: Phantasmagoria
    Foreign Title (Non-latin): (OPTIONAL)
    Disc Number / Letter: 3
    Disc Title: (OPTIONAL)
    System: Apple Macintosh
    Media Type: CD-ROM
    Category: Games
    Region: UK
    Languages: English
    Disc Serial: S4190250Z1203

    Ringcode Information:
        Mastering Code (laser branded/etched): PHANMACFE3 07 JUN 96<tab>MPO<tab>01 @@@ 9
        Mastering SID Code: IFPI L033
        Data-Side Mould SID Code: IFPI 120A
        Label-Side Mould SID Code: (REQUIRED, IF EXISTS)
        Additional Mould: (REQUIRED, IF EXISTS)
        Toolstamp or Mastering Code (engraved/stamped): 00
    Barcode: (OPTIONAL)
    Error Count: 0
    Comments: [T:ISBN] (OPTIONAL)
    Contents: (OPTIONAL)

Version and Editions:
    Version: (REQUIRED, IF EXISTS)
    Edition/Release: Original

Extras:
    Primary Volume Descriptor (PVD): Disc has no PVD

Copy Protection:
    Copy Protection: None found

Tracks and Write Offsets:
    DAT:

<rom name="Disc Not Detected.bin" size="762066816" crc="316bc735" md5="c87805013d2a2e60e0d4233134eaf9a9" sha1="2bccb527d56b1ad8f33f1bb82f25f000103450c1" />

    Cuesheet:

CATALOG 0000000000000
FILE "Disc Not Detected.bin" BINARY
  TRACK 01 MODE1/2352
    FLAGS DCP
    INDEX 01 00:00:00

    Write Offset: 222

https://www.dropbox.com/s/93v40yh3b9juo … AC.7z?dl=0

Common Disc Info:
    Title: Phantasmagoria
    Foreign Title (Non-latin): (OPTIONAL)
    Disc Number / Letter: 4
    Disc Title: (OPTIONAL)
    System: Apple Macintosh
    Media Type: CD-ROM
    Category: Games
    Region: UK
    Languages: English
    Disc Serial: S4190250Z1204

    Ringcode Information:
        Mastering Code (laser branded/etched): PHANMACFE4 07 JUN 96<tab>MPO<tab>02 @@@ 9
        Mastering SID Code: IFPI L033
        Data-Side Mould SID Code: IFPI 1207
        Label-Side Mould SID Code: (REQUIRED, IF EXISTS)
        Additional Mould: (REQUIRED, IF EXISTS)
        Toolstamp or Mastering Code (engraved/stamped): 00
    Barcode: (OPTIONAL)
    Error Count: 0
    Comments: [T:ISBN] (OPTIONAL)
    Contents: (OPTIONAL)

Version and Editions:
    Version: (REQUIRED, IF EXISTS)
    Edition/Release: Original

Extras:
    Primary Volume Descriptor (PVD): Disc has no PVD

Copy Protection:
    Copy Protection: None found

Tracks and Write Offsets:
    DAT:

<rom name="Disc Not Detected.bin" size="765832368" crc="b39c76bf" md5="5ca43bce2e5432a3c45536258c602bc1" sha1="1addfdb9e4e65416c2ce31401b1186a8e92700a4" />

    Cuesheet:

CATALOG 0000000000000
FILE "Disc Not Detected.bin" BINARY
  TRACK 01 MODE1/2352
    FLAGS DCP
    INDEX 01 00:00:00

    Write Offset: 222

https://www.dropbox.com/s/t67duth0savw3 … AC.7z?dl=0

Common Disc Info:
    Title: Phantasmagoria
    Foreign Title (Non-latin): (OPTIONAL)
    Disc Number / Letter: 5
    Disc Title: (OPTIONAL)
    System: Apple Macintosh
    Media Type: CD-ROM
    Category: Games
    Region: UK
    Languages: English
    Disc Serial: S4190250Z1205

    Ringcode Information:
        Mastering Code (laser branded/etched): PHANMACFE5 07 JUN 96<tab>MPO<tab>02 @@@ 9
        Mastering SID Code: IFPI L033
        Data-Side Mould SID Code: IFPI 1207
        Label-Side Mould SID Code: (REQUIRED, IF EXISTS)
        Additional Mould: (REQUIRED, IF EXISTS)
        Toolstamp or Mastering Code (engraved/stamped): 00
    Barcode: (OPTIONAL)
    Error Count: 0
    Comments: [T:ISBN] (OPTIONAL)
    Contents: (OPTIONAL)

Version and Editions:
    Version: (REQUIRED, IF EXISTS)
    Edition/Release: Original

Extras:
    Primary Volume Descriptor (PVD): Disc has no PVD

Copy Protection:
    Copy Protection: None found

Tracks and Write Offsets:
    DAT:

<rom name="Disc Not Detected.bin" size="737248512" crc="30698a53" md5="ca54c11998a3eb54e22e71346a67f171" sha1="182f024a3e48902e0203009db3820454cd768168" />

    Cuesheet:

CATALOG 0000000000000
FILE "Disc Not Detected.bin" BINARY
  TRACK 01 MODE1/2352
    FLAGS DCP
    INDEX 01 00:00:00

    Write Offset: 222

https://www.dropbox.com/s/ffxh87o6l1sdg … AC.7z?dl=0

Common Disc Info:
    Title: Phantasmagoria
    Foreign Title (Non-latin): (OPTIONAL)
    Disc Number / Letter: 6
    Disc Title: (OPTIONAL)
    System: Apple Macintosh
    Media Type: CD-ROM
    Category: Games
    Region: UK
    Languages: English
    Disc Serial: S4190250Z1206

    Ringcode Information:
        Mastering Code (laser branded/etched): PHANMACFE6 07 JUN 96<tab>MPO<tab>01 @@@ 9
        Mastering SID Code: IFPI L033
        Data-Side Mould SID Code: IFPI 1207
        Label-Side Mould SID Code: (REQUIRED, IF EXISTS)
        Additional Mould: (REQUIRED, IF EXISTS)
        Toolstamp or Mastering Code (engraved/stamped): 00
    Barcode: (OPTIONAL)
    Error Count: 0
    Comments: [T:ISBN] (OPTIONAL)
    Contents: (OPTIONAL)

Version and Editions:
    Version: (REQUIRED, IF EXISTS)
    Edition/Release: Original

Extras:
    Primary Volume Descriptor (PVD): Disc has no PVD

Copy Protection:
    Copy Protection: None found

Tracks and Write Offsets:
    DAT:

<rom name="Disc Not Detected.bin" size="764611680" crc="2a7f210b" md5="a9bf83409b33c8c7fd0cbc025ac1a131" sha1="1dc9ae6a157fdf85d233a9d21ea8397860dff891" />

    Cuesheet:

CATALOG 0000000000000
FILE "Disc Not Detected.bin" BINARY
  TRACK 01 MODE1/2352
    FLAGS DCP
    INDEX 01 00:00:00

    Write Offset: 222

https://www.dropbox.com/s/3y50nlm3yto75 … AC.7z?dl=0

Common Disc Info:
    Title: Phantasmagoria
    Foreign Title (Non-latin): (OPTIONAL)
    Disc Number / Letter: 7
    Disc Title: (OPTIONAL)
    System: Apple Macintosh
    Media Type: CD-ROM
    Category: Games
    Region: UK
    Languages: English
    Disc Serial: S4190250Z1207

    Ringcode Information:
        Mastering Code (laser branded/etched): PHANMACFE7 07 JUN 96<tab>MPO<tab>02 @@@ 9
        Mastering SID Code: IFPI L033
        Data-Side Mould SID Code: IFPI 1207
        Label-Side Mould SID Code: (REQUIRED, IF EXISTS)
        Additional Mould: (REQUIRED, IF EXISTS)
        Toolstamp or Mastering Code (engraved/stamped): 00
    Barcode: (OPTIONAL)
    Error Count: 0
    Comments: [T:ISBN] (OPTIONAL)
    Contents: (OPTIONAL)

Version and Editions:
    Version: (REQUIRED, IF EXISTS)
    Edition/Release: Original

Extras:
    Primary Volume Descriptor (PVD): Disc has no PVD

Copy Protection:
    Copy Protection: None found

Tracks and Write Offsets:
    DAT:

<rom name="Disc Not Detected.bin" size="623780976" crc="2ff01f09" md5="0f8215d06a2b615863ce7fedf1daf5dd" sha1="888d2beb0a4aeb769d5dff17a7ec2863e90c3c42" />

    Cuesheet:

CATALOG 0000000000000
FILE "Disc Not Detected.bin" BINARY
  TRACK 01 MODE1/2352
    FLAGS DCP
    INDEX 01 00:00:00

    Write Offset: 222

https://www.dropbox.com/s/s5yqnkjqmc97s … AC.7z?dl=0