Common Disc Info:
    Title: The 11th Hour
    Foreign Title (Non-latin): (OPTIONAL)
    Disc Number / Letter: 1
    Disc Title: (OPTIONAL)
    System: Apple Macintosh
    Media Type: CD-ROM
    Category: Games
    Region: US
    Languages: English
    Disc Serial: DSK# 83020

    Ringcode Information:
        Mastering Code (laser branded/etched): A4912 D83020-1<tab>R70
        Mastering SID Code: ifpi L911
        Data-Side Mould SID Code: IFPI 2V2M
        Label-Side Mould SID Code: (REQUIRED, IF EXISTS)
        Additional Mould: (REQUIRED, IF EXISTS)
        Toolstamp or Mastering Code (engraved/stamped): *M1 S2
    Barcode: (OPTIONAL)
    Error Count: 0
    Comments: [T:ISBN] (OPTIONAL)
    Contents: (OPTIONAL)

Version and Editions:
    Version: (REQUIRED, IF EXISTS)
    Edition/Release: Original

Extras:
    Primary Volume Descriptor (PVD): Disc has no PVD

Copy Protection:
    Copy Protection: None found

Tracks and Write Offsets:
    DAT:

<rom name="Disc Not Detected.bin" size="603005760" crc="85998ed1" md5="f8a80c54fd40a0482b41f9c17619f371" sha1="4ab966b87f49a66bb599d6ef36698d24f0243399" />

    Cuesheet:

CATALOG 0000000000000
FILE "Disc Not Detected.bin" BINARY
  TRACK 01 MODE1/2352
    INDEX 01 00:00:00

    Write Offset: 0

https://www.dropbox.com/s/789ouni7zbrni … AC.7z?dl=0

Common Disc Info:
    Title: The 11th Hour
    Foreign Title (Non-latin): (OPTIONAL)
    Disc Number / Letter: 2
    Disc Title: (OPTIONAL)
    System: Apple Macintosh
    Media Type: CD-ROM
    Category: Games
    Region: US
    Languages: English
    Disc Serial: DSK# 83020

    Ringcode Information:
        Mastering Code (laser branded/etched): A4911 D83020-2<tab>R70
        Mastering SID Code: ifpi L911
        Data-Side Mould SID Code: IFPI 2V2O
        Label-Side Mould SID Code: (REQUIRED, IF EXISTS)
        Additional Mould: (REQUIRED, IF EXISTS)
        Toolstamp or Mastering Code (engraved/stamped): *M1 S1
    Barcode: (OPTIONAL)
    Error Count: 0
    Comments: [T:ISBN] (OPTIONAL)
    Contents: (OPTIONAL)

Version and Editions:
    Version: (REQUIRED, IF EXISTS)
    Edition/Release: Original

Extras:
    Primary Volume Descriptor (PVD): Disc has no PVD

Copy Protection:
    Copy Protection: None found

Tracks and Write Offsets:
    DAT:

<rom name="Disc Not Detected.bin" size="753496128" crc="9e1c1c61" md5="46aa766a734730c14d9cee515b5f7ab5" sha1="8559a0ab9edca6e9a31dea1692a9400e5078373a" />

    Cuesheet:

CATALOG 0000000000000
FILE "Disc Not Detected.bin" BINARY
  TRACK 01 MODE1/2352
    INDEX 01 00:00:00

    Write Offset: 0

https://www.dropbox.com/s/tu2viss1j26re … AC.7z?dl=0

Common Disc Info:
    Title: The 11th Hour
    Foreign Title (Non-latin): (OPTIONAL)
    Disc Number / Letter: 3
    Disc Title: (OPTIONAL)
    System: Apple Macintosh
    Media Type: CD-ROM
    Category: Games
    Region: US
    Languages: English
    Disc Serial: DSK# 83020

    Ringcode Information:
        Mastering Code (laser branded/etched): B4535 D83020-3<tab>R70
        Mastering SID Code: ifpi L912
        Data-Side Mould SID Code: IFPI 2V2M
        Label-Side Mould SID Code: (REQUIRED, IF EXISTS)
        Additional Mould: (REQUIRED, IF EXISTS)
        Toolstamp or Mastering Code (engraved/stamped): *M1 S1
    Barcode: (OPTIONAL)
    Error Count: 0
    Comments: [T:ISBN] (OPTIONAL)
    Contents: (OPTIONAL)

Version and Editions:
    Version: (REQUIRED, IF EXISTS)
    Edition/Release: Original

Extras:
    Primary Volume Descriptor (PVD): Disc has no PVD

Copy Protection:
    Copy Protection: None found

Tracks and Write Offsets:
    DAT:

<rom name="Disc Not Detected.bin" size="689533488" crc="489e8566" md5="0f78343eaab5109caeb44b7a9353e599" sha1="2dc3625b8eccabe61d236e8b2de79c6d88d69876" />

    Cuesheet:

CATALOG 0000000000000
FILE "Disc Not Detected.bin" BINARY
  TRACK 01 MODE1/2352
    INDEX 01 00:00:00

    Write Offset: 0

https://www.dropbox.com/s/o852x49xkiafy … AC.7z?dl=0

Common Disc Info:
    Title: The 11th Hour
    Foreign Title (Non-latin): (OPTIONAL)
    Disc Number / Letter: 4
    Disc Title: (OPTIONAL)
    System: Apple Macintosh
    Media Type: CD-ROM
    Category: Games
    Region: US
    Languages: English
    Disc Serial: DSK# 83020

    Ringcode Information:
        Mastering Code (laser branded/etched): B4536 D83020-4<tab>R70
        Mastering SID Code: ifpi L912
        Data-Side Mould SID Code: IFPI 2V2O
        Label-Side Mould SID Code: (REQUIRED, IF EXISTS)
        Additional Mould: (REQUIRED, IF EXISTS)
        Toolstamp or Mastering Code (engraved/stamped): *M1 S2
    Barcode: (OPTIONAL)
    Error Count: 0
    Comments: [T:ISBN] (OPTIONAL)
    Contents: (OPTIONAL)

Version and Editions:
    Version: (REQUIRED, IF EXISTS)
    Edition/Release: Original

Extras:
    Primary Volume Descriptor (PVD): Disc has no PVD

Copy Protection:
    Copy Protection: None found

Tracks and Write Offsets:
    DAT:

<rom name="Disc Not Detected.bin" size="730232496" crc="f72c42b6" md5="e3a63399f0ff5d3add99c7f9ec5345b4" sha1="fa698b3cb8aa0f1fe8fcd2d6111d5287410b7874" />

    Cuesheet:

CATALOG 0000000000000
FILE "Disc Not Detected.bin" BINARY
  TRACK 01 MODE1/2352
    INDEX 01 00:00:00

    Write Offset: 0

https://www.dropbox.com/s/0x1lc1eit2uro … AC.7z?dl=0