Common Disc Info:
    Title: 13 SENTINELS: AEGIS RIM ORIGINAL MINI SOUND TRACK
    Foreign Title (Non-latin): 十三機兵防衛圏 オリジナルミニサウンドトラックCD
    Disc Number / Letter: (OPTIONAL)
    Disc Title: (OPTIONAL)
    System: Audio CD
    Media Type: CD-ROM
    Category: Games
    Region: Japan
    Languages: Japanese
    Disc Serial: 687-00768

    Ringcode Information:
        Mastering Code (laser branded/etched): ATS-01992-02924 MT D02
        Mastering SID Code: IFPI L261
        Data-Side Mould SID Code: IFPI 44C4
        Label-Side Mould SID Code: (REQUIRED, IF EXISTS)
        Additional Mould: (REQUIRED, IF EXISTS)
        Toolstamp or Mastering Code (engraved/stamped): (REQUIRED, IF EXISTS)
    Barcode: 4984995902913
    Error Count: Error retrieving error count
    Comments: Part of the 'Music and Art Clips' Limited Edition
    Contents: https://vgmdb.net/album/83273

Version and Editions:
    Version: (REQUIRED, IF EXISTS)
    Edition/Release: Original

Extras:
    Primary Volume Descriptor (PVD): Disc has no PVD

Tracks and Write Offsets:
    DAT:

<rom name="13SentiCD (Track 01).bin" size="20229552" crc="d727d380" md5="76bffd2e64ef7a0ebeccde520b6d061d" sha1="c1a2cf2b9f7aa9cd068972b30156644c3cf48174" />
<rom name="13SentiCD (Track 02).bin" size="32986800" crc="9d18e9c3" md5="914f25b23f12156d480595d9edcf34d4" sha1="79218de4646e39f4b3f61fc7885d40cd4c5e00a1" />
<rom name="13SentiCD (Track 03).bin" size="41171760" crc="661f2fe6" md5="57bf78f7cc16944b10ba7b86ee0a5603" sha1="0fa19d3ffc6837497b015bfd00a8678b04d608da" />
<rom name="13SentiCD (Track 04).bin" size="40294464" crc="44fd03a9" md5="d4719ff2fb6eb78b335e986297a65a21" sha1="7fa21ec67527803031c8138706b0a3972e2d20c9" />
<rom name="13SentiCD (Track 05).bin" size="19331088" crc="e190d54d" md5="d5955da333e3ea9f238501f26d94c07e" sha1="614558db9d5dbcdec8aa5f07b95e627dc9f3f0b3" />
<rom name="13SentiCD (Track 06).bin" size="17797584" crc="251c5be7" md5="ba763c2a101578e4b1857ef05b0922c4" sha1="21e88136003096996555ca967d591439cf943e82" />
<rom name="13SentiCD (Track 07).bin" size="39504192" crc="eb5d63ca" md5="df1f98e55d8f2578b2f6b73493491db9" sha1="06aafbe302b068e78b11f2bf0ee2641abe2fcc98" />
<rom name="13SentiCD (Track 08).bin" size="34964832" crc="fc0e2780" md5="d79464cf2363f9d937507992e135f91e" sha1="ed6657fc37f0c4750d3fb378fbf1d54736b861a9" />
<rom name="13SentiCD (Track 09).bin" size="44967888" crc="07a5e9d5" md5="c0f282bee23a12299e14ff2d4ae12b6b" sha1="024ee676bc499f224b0f782530b838f2aac30128" />
<rom name="13SentiCD (Track 10).bin" size="41630400" crc="69027d42" md5="4b5b2039eaf2ab7529ce0ab330cad33f" sha1="974da438383bfe6e96d160ce5323c1a67a6cc2e1" />

    Cuesheet:

CATALOG 4984995902913
FILE "13SentiCD (Track 01).bin" BINARY
  TRACK 01 AUDIO
    ISRC JPK651802101
    INDEX 01 00:00:00
FILE "13SentiCD (Track 02).bin" BINARY
  TRACK 02 AUDIO
    ISRC JPK651802102
    INDEX 00 00:00:00
    INDEX 01 00:02:00
FILE "13SentiCD (Track 03).bin" BINARY
  TRACK 03 AUDIO
    ISRC JPK651802103
    INDEX 00 00:00:00
    INDEX 01 00:02:00
FILE "13SentiCD (Track 04).bin" BINARY
  TRACK 04 AUDIO
    ISRC JPK651802104
    INDEX 00 00:00:00
    INDEX 01 00:02:00
FILE "13SentiCD (Track 05).bin" BINARY
  TRACK 05 AUDIO
    ISRC JPK651802105
    INDEX 00 00:00:00
    INDEX 01 00:02:00
FILE "13SentiCD (Track 06).bin" BINARY
  TRACK 06 AUDIO
    ISRC JPK651802106
    INDEX 00 00:00:00
    INDEX 01 00:02:00
FILE "13SentiCD (Track 07).bin" BINARY
  TRACK 07 AUDIO
    ISRC JPK651802107
    INDEX 00 00:00:00
    INDEX 01 00:02:00
FILE "13SentiCD (Track 08).bin" BINARY
  TRACK 08 AUDIO
    ISRC JPK651802108
    INDEX 00 00:00:00
    INDEX 01 00:02:00
FILE "13SentiCD (Track 09).bin" BINARY
  TRACK 09 AUDIO
    ISRC JPK651802109
    INDEX 00 00:00:00
    INDEX 01 00:02:00
FILE "13SentiCD (Track 10).bin" BINARY
  TRACK 10 AUDIO
    ISRC JPK651802110
    INDEX 00 00:00:00
    INDEX 01 00:02:00

    Write Offset: 0

NOTE:
https://vgmdb.net/album/83273
https://www.dropbox.com/s/vxyd79vsik0ud … CD.7z?dl=0