1 (edited by Gameboi64 2019-09-10 23:35:47)

Common Disc Info:
    Title: Katamari Fortissimo Damacy
    Foreign Title (Non-latin): 塊フォルテッシモ魂
    System: Audio CD
    Media Type: CD-ROM
    Category: Soundtrack
    Region: Japan
    Languages: Japanese
    Disc Serial: COCX-32760

    Ringcode Information:
        Mastering Code (laser branded/etched): COCX-32760    1
        Mastering SID Code: IFPI L276
        Data-Side Mould SID Code: IFPI 45N0
    Barcode: 4 988001 937449
    Error Count: Error retrieving error count
    Comments: Soundtrack to Katamari Damacy, sold separately.
    Contents: Track Listing:
    01. Nananan Katamari
    02. Katamari On The Rock ~ Main Theme
    03. Overture
    04. The Moon And The Prince
    05. Fugue #7777
    06. LONELY ROLLING STAR
    07. The Wonderful Star's Walk is Wonderful
    08. katamari mambo ~ Katamari Syndrome mix
    09. You Are Smart
    10. A Crimson Rose and a Gin Tonic
    11. WANDA WANDA
    12. Que・Sera・Sera
    13. Angel Flavor's Present
    14. Katamaritaino
    15. Katamari Stars
    16. Cherry Blossom Color Season
    17. Lovely Angel
    18. Stardust Fanfare
    19. The Last Samba
    20. Katamari of Love ~ Ending Theme
    21. Katamari March Damacy

Version and Editions:
    Edition/Release: Original

Extras:
    Primary Volume Descriptor (PVD): Disc has no PVD

Tracks and Write Offsets:
    DAT:

<rom name="KFD (Track 01).bin" size="14307216" crc="3a3c185e" md5="8aa33cff694f0c475a50ea77c564a2a7" sha1="be95aad9d3cfe7e4a85066f2b1b2a4589438fc44" />
<rom name="KFD (Track 02).bin" size="62798400" crc="6a13c040" md5="ebc00950ca8c861e296f94d23de28902" sha1="ab89950ca8667ab05aea98d4662a4b6266aca8e3" />
<rom name="KFD (Track 03).bin" size="8942304" crc="53b3973f" md5="be21f9266b1d6968656db13d5bd7dc9c" sha1="676825133a8e8c0b3e81e4196d3ec33a219c8fec" />
<rom name="KFD (Track 04).bin" size="58242576" crc="5dace49c" md5="4578f0c8cea24c5e3340b5ab0da77064" sha1="21763b11eb7bef40923511c43715a90eae10c6fc" />
<rom name="KFD (Track 05).bin" size="14535360" crc="ad57b2ac" md5="0bac2237bd5837e2b763c900df6361d2" sha1="20a1009649e077ed212b2ee0c8cf2c56f6fc32dd" />
<rom name="KFD (Track 06).bin" size="60705120" crc="ee7d6441" md5="75ac781560e94e7bf51d203db4e6c138" sha1="3fe003a11b9cbc7cac2c09255ab8b5a64b05d529" />
<rom name="KFD (Track 07).bin" size="33932304" crc="30ff79dc" md5="f1fcd148fe9dfba00766a6cb508268c6" sha1="e3ddf5001775d370ecd9682cb39b43c7a98baf0d" />
<rom name="KFD (Track 08).bin" size="58999920" crc="53fd5ece" md5="8088523f124e87acf353de98c2c575d6" sha1="eeb345865bdb7bb92440f0bb2670a23cd07142cd" />
<rom name="KFD (Track 09).bin" size="37573200" crc="663538b7" md5="1c740431af27106f310a26c26bd1114d" sha1="04f04e36d986265b4c8c6c80a3ccf0ce86d2ff50" />
<rom name="KFD (Track 10).bin" size="47533920" crc="1e9d2c47" md5="5e1f09b3b07b16e7cba3f7e7b92554c8" sha1="d0e2b9871cd787dea16feb1316c3f59ca662da7f" />
<rom name="KFD (Track 11).bin" size="35915040" crc="b22a361c" md5="d45fc5d2f7da48ba158a3a2423108abf" sha1="7d7de64609b2e195a323f2d5017c4a6feffd657a" />
<rom name="KFD (Track 12).bin" size="58294320" crc="00b68924" md5="6dfdb3a241d0e78d2a1460c04f9911b3" sha1="72c89da0d4766dff6052edb390bb860de34e4f74" />
<rom name="KFD (Track 13).bin" size="54538176" crc="90fb1611" md5="9a8ecca5a6d6cd9be123ec3caf3ffd37" sha1="3f855608f8108f19366e0f9a6050dc9db07132b3" />
<rom name="KFD (Track 14).bin" size="62363280" crc="190586b4" md5="8237f45ac57ed5a73a4ee673bf6a2805" sha1="cdd8c82c98207442141c45d858c591339ca0b554" />
<rom name="KFD (Track 15).bin" size="26236560" crc="f8e86473" md5="839a458db7a98c809a73c0b5175fd175" sha1="8e5f206225d2c339605115fe4b03e706131356b2" />
<rom name="KFD (Track 16).bin" size="65914800" crc="3d258584" md5="ca767a7f92bccd18263e60006544fbfd" sha1="f4bd742f740fd4146cf6cbb6ec319dddb25f8d48" />
<rom name="KFD (Track 17).bin" size="15640800" crc="99ccd3b1" md5="fa4c8b4f340b323a7e1732a1d87b28be" sha1="9757a7c25a458890d7f27815418fb0c89d5a152d" />
<rom name="KFD (Track 18).bin" size="1434720" crc="613d63c8" md5="066d57851ed829f4a74716de438316d6" sha1="b8c897918f71d5645a3771df1a9ee03463ce9851" />
<rom name="KFD (Track 19).bin" size="10725120" crc="03ca182e" md5="a269b3a76aa12a2c4e23a9429339facc" sha1="082f8db6bcdb1b002738048b36bb0259d3978566" />
<rom name="KFD (Track 20).bin" size="43394400" crc="d81314ce" md5="e7ba541dab7f40b80d4a1d343bcbd8a2" sha1="9c9c5cde29cf05db40415b39395089284c73299d" />
<rom name="KFD (Track 21).bin" size="25570944" crc="2fab6422" md5="959ec549d198bedecf1d3e855d75af74" sha1="6fe4b35aab7d547018fae9b7c2fc1cd3de0166e7" />

    Cuesheet:

CATALOG 4988001937449
FILE "KFD (Track 01).bin" BINARY
  TRACK 01 AUDIO
    ISRC JPCO00407580
    INDEX 01 00:00:00
FILE "KFD (Track 02).bin" BINARY
  TRACK 02 AUDIO
    ISRC JPCO00407590
    INDEX 01 00:00:00
FILE "KFD (Track 03).bin" BINARY
  TRACK 03 AUDIO
    ISRC JPCO00407600
    INDEX 00 00:00:00
    INDEX 01 00:01:17
FILE "KFD (Track 04).bin" BINARY
  TRACK 04 AUDIO
    ISRC JPCO00407610
    INDEX 01 00:00:00
FILE "KFD (Track 05).bin" BINARY
  TRACK 05 AUDIO
    ISRC JPCO00407620
    INDEX 01 00:00:00
FILE "KFD (Track 06).bin" BINARY
  TRACK 06 AUDIO
    ISRC JPCO00407630
    INDEX 01 00:00:00
FILE "KFD (Track 07).bin" BINARY
  TRACK 07 AUDIO
    ISRC JPCO00407640
    INDEX 01 00:00:00
FILE "KFD (Track 08).bin" BINARY
  TRACK 08 AUDIO
    ISRC JPCO00407650
    INDEX 01 00:00:00
FILE "KFD (Track 09).bin" BINARY
  TRACK 09 AUDIO
    ISRC JPCO00407660
    INDEX 00 00:00:00
    INDEX 01 00:00:40
FILE "KFD (Track 10).bin" BINARY
  TRACK 10 AUDIO
    ISRC JPCO00407670
    INDEX 01 00:00:00
FILE "KFD (Track 11).bin" BINARY
  TRACK 11 AUDIO
    ISRC JPCO00407680
    INDEX 01 00:00:00
FILE "KFD (Track 12).bin" BINARY
  TRACK 12 AUDIO
    ISRC JPCO00407690
    INDEX 01 00:00:00
FILE "KFD (Track 13).bin" BINARY
  TRACK 13 AUDIO
    ISRC JPCO00407700
    INDEX 00 00:00:00
    INDEX 01 00:01:00
FILE "KFD (Track 14).bin" BINARY
  TRACK 14 AUDIO
    ISRC JPCO00407710
    INDEX 01 00:00:00
FILE "KFD (Track 15).bin" BINARY
  TRACK 15 AUDIO
    ISRC JPCO00407720
    INDEX 00 00:00:00
    INDEX 01 00:00:32
FILE "KFD (Track 16).bin" BINARY
  TRACK 16 AUDIO
    ISRC JPCO00407730
    INDEX 01 00:00:00
FILE "KFD (Track 17).bin" BINARY
  TRACK 17 AUDIO
    ISRC JPCO00407740
    INDEX 00 00:00:00
    INDEX 01 00:00:67
FILE "KFD (Track 18).bin" BINARY
  TRACK 18 AUDIO
    ISRC JPCO00407750
    INDEX 01 00:00:00
FILE "KFD (Track 19).bin" BINARY
  TRACK 19 AUDIO
    ISRC JPCO00407760
    INDEX 01 00:00:00
FILE "KFD (Track 20).bin" BINARY
  TRACK 20 AUDIO
    ISRC JPCO00407770
    INDEX 01 00:00:00
FILE "KFD (Track 21).bin" BINARY
  TRACK 21 AUDIO
    ISRC JPCO00407780
    INDEX 00 00:00:00
    INDEX 01 00:03:20

    Write Offset: 0

https://drive.google.com/file/d/1sl0YAy … sp=sharing

If you want to get a ton of dumps done and ready for upload, never batch dump without tagging. You will leave yourself with a myriad of untagged dumps and it will drive you nuts.