1 (edited by Parotaku 2019-07-28 11:52:00)

Common Disc Info:
    Title: The Residents' Gingerbread Man (Expanded Album)
    Foreign Title (Non-latin): (OPTIONAL)
    Disc Number / Letter: (OPTIONAL)
    Disc Title: (OPTIONAL)
    System: Apple Macintosh
    Media Type: CD-ROM
    Category: Games
    Region: Europe
    Languages: English
    Disc Serial: 7-6896-40006-2

    Ringcode Information:
        Mastering Code (laser branded/etched): SONOPRESS * CD-ROM M * K-2153 A<tab>1
        Mastering SID Code: IFPI L021
        Data-Side Mould SID Code: IFPI 0734
        Label-Side Mould SID Code: (REQUIRED, IF EXISTS)
        Additional Mould: (REQUIRED, IF EXISTS)
        Toolstamp or Mastering Code (engraved/stamped): (REQUIRED, IF EXISTS)
    Barcode: 7 6896-40006-2 6
    Error Count: 0
    Comments: [T:ISBN] 1-885245-03-3
    Contents: https://www.discogs.com/The-Residents-G … se/8701021

Version and Editions:
    Version: (REQUIRED, IF EXISTS)
    Edition/Release: Original

Extras:
    Primary Volume Descriptor (PVD): Disc has no PVD

Copy Protection:
    Copy Protection: None found

Tracks and Write Offsets:
    DAT:

<rom name="gingerbreadman (Track 01).bin" size="308243712" crc="89564558" md5="fc520b614253f8de337afd94fb93f8d5" sha1="1e30955ebaf6d61c85f3f232601b350735ea9fba" />
<rom name="gingerbreadman (Track 02).bin" size="41028288" crc="12c1d728" md5="2d553a89e4ad0da969896bac38174e27" sha1="019b886f504be079f217ac34592b4d93aab38229" />
<rom name="gingerbreadman (Track 03).bin" size="34111056" crc="4e4204f5" md5="6e43fc04bd847ffd530e8eb236ccebfa" sha1="6b85d3eb6effcbada804828196252a5f60d77f41" />
<rom name="gingerbreadman (Track 04).bin" size="34162800" crc="62913509" md5="3e102daaa0589bad12b0c24d762dd9d9" sha1="63f42c0e9f7c86558dd9cc5bbd86b5981a295d49" />
<rom name="gingerbreadman (Track 05).bin" size="40042800" crc="61ba188a" md5="03d42458fdde8c6f38736c1fd49aaf5b" sha1="8783b8ce730dcc690d06a29574253aa16a678b79" />
<rom name="gingerbreadman (Track 06).bin" size="43747200" crc="dc687b34" md5="173b7370ffb9c79d212354c75f217c05" sha1="20294b0ebdbb53a222fcef4a49ceb5deb539d382" />
<rom name="gingerbreadman (Track 07).bin" size="37279200" crc="483fe4f7" md5="d95d8b81cb62cc1e2894e15a5f33face" sha1="90fc621027a962750216c39f185ed2a08cb8f408" />
<rom name="gingerbreadman (Track 08).bin" size="51492336" crc="d8230104" md5="9c258d356fc555261a7cc308e6dc2c07" sha1="4283e672e89e76c257e2a9fa917e3e4022f8934f" />
<rom name="gingerbreadman (Track 09).bin" size="32634000" crc="e4c12cce" md5="7387c5de81e2ad87c95d5c3c1518e09d" sha1="34c510d8d2a96c8d97dd7010cb489341e76956bb" />
<rom name="gingerbreadman (Track 10).bin" size="47980800" crc="ce22a3aa" md5="ba8defa8f602955bdfb725dd7522f854" sha1="5754b3cd4f09f7a5fc9795196f59acc94d13a6d8" />
<rom name="gingerbreadman (Track 11).bin" size="26154240" crc="b80fde5d" md5="ab6197fa4870a7d2cd2047e2ba997085" sha1="53c6fb6e8915d97d326e48c1a1f7a2734da9971d" />

    Cuesheet:

CATALOG 0000000000000
FILE "gingerbreadman (Track 01).bin" BINARY
  TRACK 01 MODE1/2352
    INDEX 01 00:00:00
FILE "gingerbreadman (Track 02).bin" BINARY
  TRACK 02 AUDIO
    INDEX 00 00:00:00
    INDEX 01 00:01:74
FILE "gingerbreadman (Track 03).bin" BINARY
  TRACK 03 AUDIO
    INDEX 00 00:00:00
    INDEX 01 00:02:00
FILE "gingerbreadman (Track 04).bin" BINARY
  TRACK 04 AUDIO
    INDEX 00 00:00:00
    INDEX 01 00:02:00
FILE "gingerbreadman (Track 05).bin" BINARY
  TRACK 05 AUDIO
    INDEX 00 00:00:00
    INDEX 01 00:02:00
FILE "gingerbreadman (Track 06).bin" BINARY
  TRACK 06 AUDIO
    INDEX 00 00:00:00
    INDEX 01 00:02:00
FILE "gingerbreadman (Track 07).bin" BINARY
  TRACK 07 AUDIO
    INDEX 00 00:00:00
    INDEX 01 00:02:00
FILE "gingerbreadman (Track 08).bin" BINARY
  TRACK 08 AUDIO
    INDEX 00 00:00:00
    INDEX 01 00:02:00
FILE "gingerbreadman (Track 09).bin" BINARY
  TRACK 09 AUDIO
    INDEX 00 00:00:00
    INDEX 01 00:02:00
FILE "gingerbreadman (Track 10).bin" BINARY
  TRACK 10 AUDIO
    INDEX 00 00:00:00
    INDEX 01 00:02:00
FILE "gingerbreadman (Track 11).bin" BINARY
  TRACK 11 AUDIO
    INDEX 00 00:00:00
    INDEX 01 00:02:00

    Write Offset: 222

https://www.dropbox.com/s/qvwd5yzbzc8za … AC.7z?dl=0
Note: Missing from the Mac database

I don't have the big box anymore but the details about this multimedia disc are here:
https://www.discogs.com/The-Residents-G … se/8701021

2 (edited by Parotaku 2019-07-29 18:45:34)

I have other audio CDs with additionnal multimedia content readable on both PC & MAC (PC/Mac hybrid)...
What profile should I use in DICUI to dump them? Enhanced CD?