DICUI 1.12.2 + DIC (20190326 220739)
http://redump.org/disc/8552/
all hashes match

#1 2A2
dic/subdump logs

Title: Shinsetsu Yumemi Yakata: Tobira no Oku ni Dareka ga ...
Disc Number / Letter: -
Disc Title: -
System: Sega Saturn
Media Type: CD-ROM
Category: Games
Region: Japan
Languages: 
Disc Serial: GS-9005 (Sega ID: 670-6088)
Build Date: 1994-11-11
Ringcode Information:
    Mastering Code (laser branded/etched): GS-9005P-00268A[TAB]2A2[TAB]C[TAB]4Y
    Mastering SID Code: -
    Data-Side Mould SID Code: IFPI 3901
    Label-Side Mould SID Code: -
    Additional Mould: -
    Toolstamp or Mastering Code (engraved/stamped): -
Barcode: 
Error Count: 0
Comments: -
Contents: -
Version: V1.000
Edition/Release: Original
Header:

0000 : 53 45 47 41 20 53 45 47  41 53 41 54 55 52 4E 20   SEGA SEGASATURN 
0010 : 53 45 47 41 20 45 4E 54  45 52 50 52 49 53 45 53   SEGA ENTERPRISES
0020 : 47 53 2D 39 30 30 35 20  20 20 56 31 2E 30 30 30   GS-9005   V1.000
0030 : 31 39 39 34 31 31 31 31  43 44 2D 31 2F 31 20 20   19941111CD-1/1  
0040 : 4A 54 20 20 20 20 20 20  20 20 20 20 20 20 20 20   JT              
0050 : 4A 20 20 20 20 20 20 20  20 20 20 20 20 20 20 20   J               
0060 : 53 48 49 4E 53 45 54 53  55 20 59 55 4D 45 4D 49   SHINSETSU YUMEMI
0070 : 59 41 4B 41 54 41 20 20  20 20 20 20 20 20 20 20   YAKATA          
0080 : 20 20 20 20 20 20 20 20  20 20 20 20 20 20 20 20                   
0090 : 20 20 20 20 20 20 20 20  20 20 20 20 20 20 20 20                   
00A0 : 20 20 20 20 20 20 20 20  20 20 20 20 20 20 20 20                   
00B0 : 20 20 20 20 20 20 20 20  20 20 20 20 20 20 20 20                   
00C0 : 20 20 20 20 20 20 20 20  20 20 20 20 20 20 20 20                   
00D0 : 00 00 00 00 00 00 00 00  00 00 00 00 00 00 00 00   ................
00E0 : 00 00 10 00 00 00 00 00  00 00 00 00 00 00 00 00   ................
00F0 : 06 01 00 00 00 00 00 00  00 00 00 00 00 00 00 00   ................

Primary Volume Descriptor (PVD):

0320 : 20 20 20 20 20 20 20 20  20 20 20 20 20 31 39 39                199
0330 : 34 31 31 31 31 31 35 34  34 32 32 30 30 14 31 39   4111115442200.19
0340 : 39 34 31 31 31 31 31 35  34 34 32 32 30 30 14 30   94111115442200.0
0350 : 30 30 30 30 30 30 30 30  30 30 30 30 30 30 30 00   000000000000000.
0360 : 30 30 30 30 30 30 30 30  30 30 30 30 30 30 30 30   0000000000000000
0370 : 00 01 00 00 00 00 00 00  00 00 00 00 00 00 00 00   ................

DAT:

<rom name="SHINSETSU_YUMEMIYAKATA (Track 1).bin" size="466051152" crc="15865aef" md5="7f595f4e63beded0e88fd8d691cba56e" sha1="e45b70cbd9dffc90cfa4dcf35cf1b032ca60aa9f" />
<rom name="SHINSETSU_YUMEMIYAKATA (Track 2).bin" size="1766352" crc="7b6e96af" md5="d7ca057f9d2a80fbc41be6409ac8dee5" sha1="c3fb252a2888bb4d4c6f9e1942403d710bbcf8a5" />

Cuesheet:

CATALOG 0000000000000
FILE "SHINSETSU_YUMEMIYAKATA (Track 1).bin" BINARY
  TRACK 01 MODE1/2352
    INDEX 01 00:00:00
FILE "SHINSETSU_YUMEMIYAKATA (Track 2).bin" BINARY
  TRACK 02 AUDIO
    INDEX 00 00:00:00
    INDEX 01 00:02:01

Write Offset: 222

#2 2B2
dic/subdump logs

Title: Shinsetsu Yumemi Yakata: Tobira no Oku ni Dareka ga ...
Disc Number / Letter: -
Disc Title: -
System: Sega Saturn
Media Type: CD-ROM
Category: Games
Region: Japan
Languages: 
Disc Serial: GS-9005 (Sega ID: 670-6088)
Build Date: 1994-11-11
Ringcode Information:
    Mastering Code (laser branded/etched): GS-9005P-00268A[TAB]2B2[TAB]C[TAB]4Y
    Mastering SID Code: -
    Data-Side Mould SID Code: -
    Label-Side Mould SID Code: -
    Additional Mould: -
    Toolstamp or Mastering Code (engraved/stamped): -
Barcode: 
Error Count: 0
Comments: -
Contents: -
Version: V1.000
Edition/Release: Original
Header:

0000 : 53 45 47 41 20 53 45 47  41 53 41 54 55 52 4E 20   SEGA SEGASATURN 
0010 : 53 45 47 41 20 45 4E 54  45 52 50 52 49 53 45 53   SEGA ENTERPRISES
0020 : 47 53 2D 39 30 30 35 20  20 20 56 31 2E 30 30 30   GS-9005   V1.000
0030 : 31 39 39 34 31 31 31 31  43 44 2D 31 2F 31 20 20   19941111CD-1/1  
0040 : 4A 54 20 20 20 20 20 20  20 20 20 20 20 20 20 20   JT              
0050 : 4A 20 20 20 20 20 20 20  20 20 20 20 20 20 20 20   J               
0060 : 53 48 49 4E 53 45 54 53  55 20 59 55 4D 45 4D 49   SHINSETSU YUMEMI
0070 : 59 41 4B 41 54 41 20 20  20 20 20 20 20 20 20 20   YAKATA          
0080 : 20 20 20 20 20 20 20 20  20 20 20 20 20 20 20 20                   
0090 : 20 20 20 20 20 20 20 20  20 20 20 20 20 20 20 20                   
00A0 : 20 20 20 20 20 20 20 20  20 20 20 20 20 20 20 20                   
00B0 : 20 20 20 20 20 20 20 20  20 20 20 20 20 20 20 20                   
00C0 : 20 20 20 20 20 20 20 20  20 20 20 20 20 20 20 20                   
00D0 : 00 00 00 00 00 00 00 00  00 00 00 00 00 00 00 00   ................
00E0 : 00 00 10 00 00 00 00 00  00 00 00 00 00 00 00 00   ................
00F0 : 06 01 00 00 00 00 00 00  00 00 00 00 00 00 00 00   ................

Primary Volume Descriptor (PVD):

0320 : 20 20 20 20 20 20 20 20  20 20 20 20 20 31 39 39                199
0330 : 34 31 31 31 31 31 35 34  34 32 32 30 30 14 31 39   4111115442200.19
0340 : 39 34 31 31 31 31 31 35  34 34 32 32 30 30 14 30   94111115442200.0
0350 : 30 30 30 30 30 30 30 30  30 30 30 30 30 30 30 00   000000000000000.
0360 : 30 30 30 30 30 30 30 30  30 30 30 30 30 30 30 30   0000000000000000
0370 : 00 01 00 00 00 00 00 00  00 00 00 00 00 00 00 00   ................

DAT:

<rom name="SHINSETSU_YUMEMIYAKATA (Track 1).bin" size="466051152" crc="15865aef" md5="7f595f4e63beded0e88fd8d691cba56e" sha1="e45b70cbd9dffc90cfa4dcf35cf1b032ca60aa9f" />
<rom name="SHINSETSU_YUMEMIYAKATA (Track 2).bin" size="1766352" crc="7b6e96af" md5="d7ca057f9d2a80fbc41be6409ac8dee5" sha1="c3fb252a2888bb4d4c6f9e1942403d710bbcf8a5" />

Cuesheet:

CATALOG 0000000000000
FILE "SHINSETSU_YUMEMIYAKATA (Track 1).bin" BINARY
  TRACK 01 MODE1/2352
    INDEX 01 00:00:00
FILE "SHINSETSU_YUMEMIYAKATA (Track 2).bin" BINARY
  TRACK 02 AUDIO
    INDEX 00 00:00:00
    INDEX 01 00:02:01

Write Offset: 222