1 (edited by gingerbeardman 2019-06-14 16:44:39)

Existing: http://redump.org/disc/32078/
New: https://www.mediafire.com/file/s31e3ba1 … gs.7z/file

All hashes match.

Title: Buster Bros.
Disc Title: none
System: NEC PC-Engine / TurboGrafx CD
Media Type: CD-ROM
Category: Games
Region: USA
Languages: English
Disc Serial: TGXCD1031
Ringcode Information:
    Mastering Code (laser branded/etched): 11
    Mastering SID Code: TGXCD10311 R1D
    Additional Mould: MFD BY JVC
Barcode: 0 92218 00168 9
Error Count: 0
Edition/Release: Original
Primary Volume Descriptor (PVD):

Disc has no PVD
DAT:

<rom name="BusterBros (Track 01).bin" size="7914480" crc="16841024" md5="c7ec65c2c430ec5e01ea1e781b5fb933" sha1="2e5a9235aaa4c04baefb8a5104fa2c2977869191" />
<rom name="BusterBros (Track 02).bin" size="6143424" crc="035dd9b3" md5="a078c0c9e5cc0536670ce503ca033d25" sha1="49a095b1b013254866be16eef76b83cd47b0878b" />
<rom name="BusterBros (Track 03).bin" size="12232752" crc="c061138e" md5="23365b8443d0d3f6ab5dac74ed02d9a9" sha1="de5b0610935bbefc301123de247a950a595fd95f" />
<rom name="BusterBros (Track 04).bin" size="10028928" crc="7c27140c" md5="3b5be6100df1c4467c5dd0ecc056394b" sha1="f56f5a29c6df9a6ebbb3d6e98e57492e470cae6e" />
<rom name="BusterBros (Track 05).bin" size="10273536" crc="8ef62655" md5="a832de2eec8bc7663acece07896ed231" sha1="49ae5f436ccbc5b7de26154cb867baaf0646b673" />
<rom name="BusterBros (Track 06).bin" size="8163792" crc="b33327bd" md5="e11326c1d6d3c4b79824c1e176d3f6a9" sha1="966b7c9b18503e644fc5d63f7975f65f77274a3d" />
<rom name="BusterBros (Track 07).bin" size="11567136" crc="85b26baa" md5="daecd60e5cd5de6ee7858ca87525d3bd" sha1="c2389765879d4d6a807dfcc88b9dde9f942d3150" />
<rom name="BusterBros (Track 08).bin" size="8620080" crc="d1838493" md5="e0e537c3c372e57dcb2af352f2040194" sha1="395c79ab7ce9f4436134c2843179fab841820525" />
<rom name="BusterBros (Track 09).bin" size="10682784" crc="781ba39b" md5="9c53a6be9e33e7e08c68034a4e9c75a5" sha1="440c1cb76b471e49abb8a72a180591af3ebc9f9d" />
<rom name="BusterBros (Track 10).bin" size="9487968" crc="3d77ca12" md5="d7101d11cdf26bc513bf2d5ddb77e87e" sha1="4ca84e1ee8999ce0f37c8412176b3e285771ea1e" />
<rom name="BusterBros (Track 11).bin" size="8224944" crc="5934ab32" md5="c3c6c93b31186eb2d4dde416e99b9823" sha1="2dcc834aaef0e4e7395bd1cc48376eddf03c738b" />
<rom name="BusterBros (Track 12).bin" size="10520496" crc="a2cee88e" md5="1b6231ea159ac8324368354c1a041ff0" sha1="1ba00d1afe7a0957551c05fa54c00276c4a376f2" />
<rom name="BusterBros (Track 13).bin" size="12289200" crc="ac6151b0" md5="d27a67428c1780ed6f1249119062299f" sha1="5a130feec137ca59b67f92e0056a3f78ac6bd3dc" />
<rom name="BusterBros (Track 14).bin" size="11470704" crc="fe031f6d" md5="9f6ffe8fb9e960a4dc56a0e017fbf7b4" sha1="984e0ff0ecdef9400510b10713fd6ace3902b065" />
<rom name="BusterBros (Track 15).bin" size="11731776" crc="636a321f" md5="f5af7a5db9154dba0b4d72f2f8e4bf02" sha1="eacaefc515c5787e5c465a7f516e3c2983747493" />
<rom name="BusterBros (Track 16).bin" size="12961872" crc="57bd28b6" md5="fd26bcc12f9d0ea05f7a4a158e6ed1dd" sha1="b40c8cc23afba2b25eda6195f1bd03512a19a529" />
<rom name="BusterBros (Track 17).bin" size="9029328" crc="2deefab1" md5="2e07d248e006cb3c707b11f235868b46" sha1="273ef63bb6b41d67bc89215f9f89349c29473288" />
<rom name="BusterBros (Track 18).bin" size="10553424" crc="3eff36fd" md5="47fe43d835cd0eb3d230db7ac07048eb" sha1="32d8070ef0b95a1fa8b46213c52234e95bafa975" />
<rom name="BusterBros (Track 19).bin" size="10995600" crc="53fdf47c" md5="a6bcd3ebea91d46329b7afb5d3cf32f5" sha1="aa7ec86f3c93eb7dac83c980d16d8f6af4baed6d" />
<rom name="BusterBros (Track 20).bin" size="10830960" crc="147b5e69" md5="4fdb954d9e73bcfbe2e90b35450f4392" sha1="c7f23e0e6ead1765150a14b2ba83bc19a74c3b9d" />
<rom name="BusterBros (Track 21).bin" size="9619680" crc="c292d342" md5="d1482c33c4c7f5605b1f74650932bf8b" sha1="52cd425c980ae08dd12fd456a926eb9a1be04604" />
<rom name="BusterBros (Track 22).bin" size="24717168" crc="3835839b" md5="b73d5efeb243e3e2adc337ceb2cd661e" sha1="dbefb8a8c963e3c66a923c18a789d89054611d0f" />
<rom name="BusterBros (Track 23).bin" size="22054704" crc="fa33a3df" md5="f4cb6feca1886aad514a4e175cd51266" sha1="058631c1dcc508eb6dea7cb7b9d6c6282fb77a0a" />
<rom name="BusterBros (Track 24).bin" size="5792976" crc="37646af2" md5="44dc67144df2d281395cd6c549146e85" sha1="2470b85797123a73755509ea8f40892526fe5371" />

Cuesheet:

CATALOG 0000000000000
FILE "BusterBros (Track 01).bin" BINARY
  TRACK 01 AUDIO
    INDEX 01 00:00:00
FILE "BusterBros (Track 02).bin" BINARY
  TRACK 02 MODE1/2352
    INDEX 00 00:00:00
    INDEX 01 00:03:00
FILE "BusterBros (Track 03).bin" BINARY
  TRACK 03 AUDIO
    INDEX 00 00:00:00
    INDEX 01 00:02:00
FILE "BusterBros (Track 04).bin" BINARY
  TRACK 04 AUDIO
    INDEX 01 00:00:00
FILE "BusterBros (Track 05).bin" BINARY
  TRACK 05 AUDIO
    INDEX 01 00:00:00
FILE "BusterBros (Track 06).bin" BINARY
  TRACK 06 AUDIO
    INDEX 01 00:00:00
FILE "BusterBros (Track 07).bin" BINARY
  TRACK 07 AUDIO
    INDEX 01 00:00:00
FILE "BusterBros (Track 08).bin" BINARY
  TRACK 08 AUDIO
    INDEX 01 00:00:00
FILE "BusterBros (Track 09).bin" BINARY
  TRACK 09 AUDIO
    INDEX 01 00:00:00
FILE "BusterBros (Track 10).bin" BINARY
  TRACK 10 AUDIO
    INDEX 01 00:00:00
FILE "BusterBros (Track 11).bin" BINARY
  TRACK 11 AUDIO
    INDEX 01 00:00:00
FILE "BusterBros (Track 12).bin" BINARY
  TRACK 12 AUDIO
    INDEX 01 00:00:00
FILE "BusterBros (Track 13).bin" BINARY
  TRACK 13 AUDIO
    INDEX 01 00:00:00
FILE "BusterBros (Track 14).bin" BINARY
  TRACK 14 AUDIO
    INDEX 01 00:00:00
FILE "BusterBros (Track 15).bin" BINARY
  TRACK 15 AUDIO
    INDEX 01 00:00:00
FILE "BusterBros (Track 16).bin" BINARY
  TRACK 16 AUDIO
    INDEX 01 00:00:00
FILE "BusterBros (Track 17).bin" BINARY
  TRACK 17 AUDIO
    INDEX 01 00:00:00
FILE "BusterBros (Track 18).bin" BINARY
  TRACK 18 AUDIO
    INDEX 01 00:00:00
FILE "BusterBros (Track 19).bin" BINARY
  TRACK 19 AUDIO
    INDEX 01 00:00:00
FILE "BusterBros (Track 20).bin" BINARY
  TRACK 20 AUDIO
    INDEX 01 00:00:00
FILE "BusterBros (Track 21).bin" BINARY
  TRACK 21 AUDIO
    INDEX 01 00:00:00
FILE "BusterBros (Track 22).bin" BINARY
  TRACK 22 AUDIO
    INDEX 01 00:00:00
FILE "BusterBros (Track 23).bin" BINARY
  TRACK 23 AUDIO
    INDEX 01 00:00:00
FILE "BusterBros (Track 24).bin" BINARY
  TRACK 24 MODE1/2352
    INDEX 00 00:00:00
    INDEX 01 00:03:00

Write Offset: -80