1 (edited by MajorPBX 2019-06-12 02:33:54)

Title: Wangan Midnight Maximum Tune
Disc Number / Letter: GDX-0009B
Disc Title:
System: Chihiro
Media Type: GD-ROM
Category: Games
Region: J
Languages: J
Disc Serial:
Ringcode Information:
    Mastering Code (laser branded/etched): GDX-0009B 20MS1 C 46
    Mastering SID Code: IFPI L223
    Label-Side Mould SID Code:
    Data-Side Mould SID Code: IFPI 39A5
    Additional Mould:
    Toolstamp or Mastering Code (engraved/stamped):
Barcode:
Error Count: 0
Comments: (OPTIONAL)
Contents: (OPTIONAL)
Version: V3.000
Edition/Release:
Primary Volume Descriptor (PVD):

0320 : 20 20 20 20 20 20 20 20  20 20 20 20 20 32 30 30                200
0330 : 34 30 33 30 33 31 32 32  32 34 33 30 30 24 32 30   4030312224300$20
0340 : 30 34 30 33 30 33 31 32  32 32 34 33 30 30 24 30   04030312224300$0
0350 : 30 30 30 30 30 30 30 30  30 30 30 30 30 30 30 00   000000000000000.
0360 : 30 30 30 30 30 30 30 30  30 30 30 30 30 30 30 30   0000000000000000
0370 : 00 01 00 00 00 00 00 00  00 00 00 00 00 00 00 00   ................

DAT:

<rom name="Wangan Midnight (Track 1).bin" size="1058400" crc="59e899c4" md5="7ebdb206d5e2d46da41a3b69b6cb66d0" sha1="3447e86f3a739880af27f1d4587fc68e9aa7c5d4" />
<rom name="Wangan Midnight (Track 2).bin" size="3532704" crc="211cdb93" md5="2238142a7f82218edeeb4cc89a562ee6" sha1="80783e504e8e5db70944702b3d90aa14a9f73a41" />
<rom name="Wangan Midnight (Track 3).bin" size="1185760800" crc="c22ba22b" md5="42b2f0fda499fb9680d642d563bddbe1" sha1="84c032e089f75f910804ebaad5400edec84dd5f3" />

Cuesheet:

FILE "Wangan Midnight (Track 1).bin" BINARY
  TRACK 01 MODE1/2352
    INDEX 01 00:00:00
FILE "Wangan Midnight (Track 2).bin" BINARY
  TRACK 02 AUDIO
    INDEX 00 00:00:00
    INDEX 01 00:02:00
FILE "Wangan Midnight (Track 3).bin" BINARY
  TRACK 03 MODE1/2352
    INDEX 01 00:00:00

Write Offset: -126

Post's attachments

GDX-0009B - WANGAN EXP.zip 82.49 kb, file has never been downloaded. 

You don't have the permssions to download the attachments of this post.