1 (edited by wiggy2k 2019-06-12 01:00:34)

Title: Schwarzschild IV: The Cradle End
non latin title:  シュバルツシルトⅣ ~クレイドルエンド~
Or maybe     シュヴァルツシルト4 THE CRADLE END
System:   FMT
Media: CDROM
Category:  Games
Region: Japan
Languages:  Japanese (not checked)
Serial:   
Ringcode:
     Mastering Code:   SPFMKG001
Barcode:  T4959067936707
Version: ?
Edition: Original
Errors: 0
Offset:   -374
Comments:  Genre: Scenario Simulation Game

PVD:

0320 : 20 20 20 20 20 20 20 20  20 20 20 20 20 31 39 39                199
0330 : 33 31 31 31 39 31 34 30  30 30 30 30 30 00 31 39   3111914000000.19
0340 : 39 33 31 31 31 39 31 34  30 30 30 30 30 30 00 30   93111914000000.0
0350 : 30 30 30 30 30 30 30 30  30 30 30 30 30 30 30 00   000000000000000.
0360 : 30 30 30 30 30 30 30 30  30 30 30 30 30 30 30 30   0000000000000000
0370 : 00 01 00 00 00 00 00 00  00 00 00 00 00 00 00 00   ................

CUE:

CATALOG 0000000000000
FILE "SchwarzschildIV-CradleEnd (Track 01).bin" BINARY
  TRACK 01 MODE1/2352
    INDEX 01 00:00:00
FILE "SchwarzschildIV-CradleEnd (Track 02).bin" BINARY
  TRACK 02 AUDIO
    INDEX 00 00:00:00
    INDEX 01 00:02:00
FILE "SchwarzschildIV-CradleEnd (Track 03).bin" BINARY
  TRACK 03 AUDIO
    INDEX 00 00:00:00
    INDEX 01 00:02:00
FILE "SchwarzschildIV-CradleEnd (Track 04).bin" BINARY
  TRACK 04 AUDIO
    INDEX 00 00:00:00
    INDEX 01 00:02:00
FILE "SchwarzschildIV-CradleEnd (Track 05).bin" BINARY
  TRACK 05 AUDIO
    INDEX 00 00:00:00
    INDEX 01 00:02:00
FILE "SchwarzschildIV-CradleEnd (Track 06).bin" BINARY
  TRACK 06 AUDIO
    INDEX 00 00:00:00
    INDEX 01 00:02:00
FILE "SchwarzschildIV-CradleEnd (Track 07).bin" BINARY
  TRACK 07 AUDIO
    INDEX 00 00:00:00
    INDEX 01 00:02:00
FILE "SchwarzschildIV-CradleEnd (Track 08).bin" BINARY
  TRACK 08 AUDIO
    INDEX 00 00:00:00
    INDEX 01 00:02:00
FILE "SchwarzschildIV-CradleEnd (Track 09).bin" BINARY
  TRACK 09 AUDIO
    INDEX 00 00:00:00
    INDEX 01 00:02:00
FILE "SchwarzschildIV-CradleEnd (Track 10).bin" BINARY
  TRACK 10 AUDIO
    INDEX 00 00:00:00
    INDEX 01 00:02:00
FILE "SchwarzschildIV-CradleEnd (Track 11).bin" BINARY
  TRACK 11 AUDIO
    INDEX 00 00:00:00
    INDEX 01 00:02:00

DAT:

    <rom name="SchwarzschildIV-CradleEnd (Track 01).bin" size="20815200" crc="3e101f85" md5="4d6377b7543ac0804e4f5ee9a7c7014d" sha1="1eaee58ca791993c1c75b91a2a72c3bb7f37e9f9" />
    <rom name="SchwarzschildIV-CradleEnd (Track 02).bin" size="9349200" crc="29c775d4" md5="9ad5b117fa0494b6017a3ea4762db6c2" sha1="a932a8c2b1d96c0d3288729d0262efaa486fbc6e" />
    <rom name="SchwarzschildIV-CradleEnd (Track 03).bin" size="58917600" crc="4febb8bd" md5="143f68b1a1fabccaf2395633b77dcf6d" sha1="9d9c93307053c79926095bcf36bb3049d3c4584e" />
    <rom name="SchwarzschildIV-CradleEnd (Track 04).bin" size="59094000" crc="335f4f19" md5="5deb4deb7828a8a6ff45e727b0acfed8" sha1="7a48ca61da0c632d1f8e2db6b07578caa5ec9f63" />
    <rom name="SchwarzschildIV-CradleEnd (Track 05).bin" size="81320400" crc="5ea12ab7" md5="ebb6e42b2bc2f13cfe510a9682f4ce7b" sha1="4033d0d57af0b97040cf8d73dca07d69f44dea6b" />
    <rom name="SchwarzschildIV-CradleEnd (Track 06).bin" size="76381200" crc="439756a8" md5="4a71a1045f71a0831b9b3d5e476f39b6" sha1="85d917d234171ebbf644091298b059ba59d60df6" />
    <rom name="SchwarzschildIV-CradleEnd (Track 07).bin" size="112190400" crc="78084d7d" md5="26238700464a058c4b2c7da9dc6f6117" sha1="847b3806448270d572d06e3bf8bb8dae02c860c0" />
    <rom name="SchwarzschildIV-CradleEnd (Track 08).bin" size="50803200" crc="b113d211" md5="435b414f1c9184838d0ba9e079b59518" sha1="1eac86c55e49f43eb3624a987870d33cc220263a" />
    <rom name="SchwarzschildIV-CradleEnd (Track 09).bin" size="49039200" crc="c79b7df2" md5="37a5f84d4c6ec6d3fbb398039d690e81" sha1="b889cd06b47afdcfb323b9e119c96334821a237f" />
    <rom name="SchwarzschildIV-CradleEnd (Track 10).bin" size="51332400" crc="bc4c2f78" md5="4e59c668033ccbd376399e5d0fe836ee" sha1="c15a059b10acd1af132a590a2e92114f12406298" />
    <rom name="SchwarzschildIV-CradleEnd (Track 11).bin" size="37926000" crc="3922209d" md5="7b8950888bb6c44ad3cc424c96ba2dc0" sha1="f1e77d4e8bb97c42711e8b00cc0c367e13c195a4" />

Logs:

https://mega.nz/#!X5UmkIxQ!TtzhPNSZD393 … 4MJtVWEP9c