Matches: http://redump.org/disc/37473/
Pics/Files: https://drive.google.com/open?id=1s_D68 … KzrX4g_NE5

Title: FX Fighter
Disc Number / Letter:
Disc Title:
System: IBM PC Compatible
Media Type: CD-ROM
Category: Games
Region: USA
Languages: En
Disc Serial: 4012-0595
Ringcode Information:
    Mastering Code (laser branded/etched): W.O.# 48578-2     48578     DISC MFG., INC. [A8]
    Mastering SID Code:
    Data-Side Mould SID Code:
    Label-Side Mould SID Code:
    Additional Mould:
    Toolstamp or Mastering Code (engraved/stamped):
Barcode: 794546012039 Part No. 1009-0595
ISBN:
Error Count: 0
Comments:
Contents:
Version:
Edition/Release: Original
Primary Volume Descriptor (PVD):

0320 : 20 20 20 20 20 20 20 20  20 20 20 20 20 31 39 39                199
0330 : 35 30 35 33 31 31 36 35  38 31 38 00 00 04 31 39   50531165818...19
0340 : 39 35 30 35 33 31 31 36  35 38 31 38 00 00 04 32   950531165818...2
0350 : 39 39 35 30 35 33 31 31  36 35 38 31 38 00 00 04   9950531165818...
0360 : 31 39 39 35 30 35 33 31  31 36 35 38 31 38 00 00   19950531165818..
0370 : 04 01 00 00 00 00 00 00  00 00 00 00 00 00 00 00   ................

Copy Protection: None found

DAT:

<rom name="FX_GOLD2 (Track 01).bin" size="78625008" crc="d1b8a5a9" md5="164400ee035f09f85133e9bff6c85467" sha1="9007dc76bf082693f383c542eb3de520f46241a4" />
<rom name="FX_GOLD2 (Track 02).bin" size="14652960" crc="da628084" md5="3a70f40437576c242a8d40b1b33e8c01" sha1="62fb054270641e9bac78828b015e443124eca6a4" />
<rom name="FX_GOLD2 (Track 03).bin" size="6178704" crc="89b6a26b" md5="a64c2cfae2712954b49a0c16ad49dd0b" sha1="368aee852d62532cb10b6af3782e1b6da22fe541" />
<rom name="FX_GOLD2 (Track 04).bin" size="53806704" crc="7fae03c5" md5="61c33e53305aa8cef20b9e8b6bbfe6e8" sha1="dde013e9c7a681e3e6de3d44ff6098c2f4b7a817" />
<rom name="FX_GOLD2 (Track 05).bin" size="1239504" crc="476107ef" md5="f175c0c1036a97d09536068c38f50fa6" sha1="52096e4505f80f072c5bfbc8adf0583521f35f62" />
<rom name="FX_GOLD2 (Track 06).bin" size="1239504" crc="1b562a67" md5="03d938b37c2e9778d98b1f44ad6b5c8b" sha1="0d2dbf627a18008ae92be5019296713964a43b36" />
<rom name="FX_GOLD2 (Track 07).bin" size="55394304" crc="1e4a1fd1" md5="dc659122c81aa8820e47cf0d187d077c" sha1="0d313e75902cf6e7488c1e6f74574eacda9cd7ac" />
<rom name="FX_GOLD2 (Track 08).bin" size="1239504" crc="191d6b37" md5="6b5eeedaf0d9c4b6a4020ebc3aff6adb" sha1="74bfad240a4ab8651a9651fc786188c482c1b4f0" />
<rom name="FX_GOLD2 (Track 09).bin" size="1239504" crc="13103c4f" md5="82bef6911f91854ed723a25b479f6814" sha1="5ccc04148b9d591378c1d8b92d93d16068e50893" />
<rom name="FX_GOLD2 (Track 10).bin" size="55217904" crc="64123b98" md5="66a7b03d7a8f7ab3cd11951f679066e6" sha1="635e384fe5324338c2ea7ff3be0e97ca624e1482" />
<rom name="FX_GOLD2 (Track 11).bin" size="1239504" crc="837cbde9" md5="41a7bc0a1af40d757ce91ce151bffb1b" sha1="c4b6172aff729f70b56f7aa02aa2b4df712dd230" />
<rom name="FX_GOLD2 (Track 12).bin" size="1239504" crc="12e37957" md5="18932c6fc65ff3cbe338a8fe8d691e22" sha1="604ee7cf8e24c3effb6ba00f2c36e354d3b5510f" />
<rom name="FX_GOLD2 (Track 13).bin" size="55747104" crc="2138793e" md5="5a073eabb063364fcf518f5d97e2bd68" sha1="aa30b56f3cb8642ddbefb5ac00daf61cb0c99d8c" />
<rom name="FX_GOLD2 (Track 14).bin" size="1063104" crc="c9a9fb19" md5="268a7ed19f81820cf57d81da304ccb61" sha1="150f53139362e5fdce553b4b10a1779485133a95" />
<rom name="FX_GOLD2 (Track 15).bin" size="1063104" crc="60718a30" md5="65970c2f240a95a28b75c02479da07e8" sha1="bc61ee57d481bc8acddd4dffccd1a5cdf8b73889" />
<rom name="FX_GOLD2 (Track 16).bin" size="56276304" crc="ada04330" md5="ae0e3de5dd93b47f1d0fe213b9062b7b" sha1="94a194d97962e5baa85ee2bc5b489d71993ac335" />
<rom name="FX_GOLD2 (Track 17).bin" size="1063104" crc="6b06d879" md5="8d6907537a50b0052a7d5b6e5a2f830b" sha1="1c3c1681cd4cbab570ebe9b369a16096f6956497" />
<rom name="FX_GOLD2 (Track 18).bin" size="1063104" crc="8facf2be" md5="c164956333d54c27df8b06a3a4536ec7" sha1="60354d16539e187acdafa1bf301db239b929359f" />
<rom name="FX_GOLD2 (Track 19).bin" size="54688704" crc="f7c3d5a7" md5="f6f7d722277f40f0a08ddc4d86b887cd" sha1="ba6228457e1bb7eb691c6094be4213c288f91651" />
<rom name="FX_GOLD2 (Track 20).bin" size="1239504" crc="40eb4e71" md5="921b1abeabfc00af0a2805e72b417d3f" sha1="46f60e258f866b1b7aa3a5bba52c60e3fe9343bf" />
<rom name="FX_GOLD2 (Track 21).bin" size="1239504" crc="48869eff" md5="e9eb53e99460a22f7426df9ed73b474e" sha1="3e55a93c6ef1bda1b02ff628008fa32ab26a7505" />
<rom name="FX_GOLD2 (Track 22).bin" size="54865104" crc="fc955552" md5="f3235d5da94d6204ca59eeb1da1ae5a7" sha1="e75344b14ffc90b549a5c8c8f7b74b87ab9380f8" />
<rom name="FX_GOLD2 (Track 23).bin" size="1239504" crc="fc106c62" md5="888ffb9259e6fb433c506ec663640883" sha1="888b30e68ee9627b56fa580436a2410c9ea30c4d" />
<rom name="FX_GOLD2 (Track 24).bin" size="1239504" crc="5f31107a" md5="da5b9e3d2bd75aa49600aeb923bad97d" sha1="e223db9f7cda30cc256b47d383e3c8d4742e0a68" />
<rom name="FX_GOLD2 (Track 25).bin" size="50631504" crc="c92f6003" md5="6c0ea94f5f7a9486e0459ce771850975" sha1="a43ab458de5564059b622a37ed94c4ae85d7d691" />
<rom name="FX_GOLD2 (Track 26).bin" size="1415904" crc="1f36f1bc" md5="737004ed667d9db5c8273fe1f68fb4a7" sha1="4dd141da27f7794dcba57ded1c9886ea3f114af9" />
<rom name="FX_GOLD2 (Track 27).bin" size="1415904" crc="157c53e5" md5="3b065573e119b38844b40ad6079b1dd1" sha1="f27174da1cea5a49ba84941c307d9d5b2053fd84" />
<rom name="FX_GOLD2 (Track 28).bin" size="53453904" crc="ee470678" md5="2c238c7b7ba1d11c93fc8d4578bf72cc" sha1="7a4506e9f61decc53af8571102880d39b337941c" />
<rom name="FX_GOLD2 (Track 29).bin" size="3003504" crc="dc44db2c" md5="482f007a999df1fdd5ff1fad766ada2a" sha1="6ee3105631dca87e4ff879dee3743bd7f727ae0e" />
<rom name="FX_GOLD2 (Track 30).bin" size="2297904" crc="3b8a3b61" md5="0656ae49afc29b4a4d7bb3bcca81d348" sha1="b536c66fdb6cb42212223a30ceedc5d1e429f2da" />
<rom name="FX_GOLD2 (Track 31).bin" size="6531504" crc="7c69ca4c" md5="44ab3f392063c9717952527e150e53c0" sha1="2598242f00a8065b031ec000c5e8500d68641bb5" />
<rom name="FX_GOLD2 (Track 32).bin" size="6350400" crc="5ad831ed" md5="e3e27f2787a8e16e11e91d1d0b5bb119" sha1="67d18f90e4355657fee5dba61218cea369bc5f73" />

Cuesheet:

CATALOG 0000000000000
FILE "FX_GOLD2 (Track 01).bin" BINARY
  TRACK 01 MODE1/2352
    INDEX 01 00:00:00
FILE "FX_GOLD2 (Track 02).bin" BINARY
  TRACK 02 AUDIO
    INDEX 00 00:00:00
    INDEX 01 00:02:01
FILE "FX_GOLD2 (Track 03).bin" BINARY
  TRACK 03 AUDIO
    INDEX 00 00:00:00
    INDEX 01 00:01:73
FILE "FX_GOLD2 (Track 04).bin" BINARY
  TRACK 04 AUDIO
    INDEX 00 00:00:00
    INDEX 01 00:01:73
FILE "FX_GOLD2 (Track 05).bin" BINARY
  TRACK 05 AUDIO
    INDEX 00 00:00:00
    INDEX 01 00:01:73
FILE "FX_GOLD2 (Track 06).bin" BINARY
  TRACK 06 AUDIO
    INDEX 00 00:00:00
    INDEX 01 00:01:73
FILE "FX_GOLD2 (Track 07).bin" BINARY
  TRACK 07 AUDIO
    INDEX 00 00:00:00
    INDEX 01 00:01:73
FILE "FX_GOLD2 (Track 08).bin" BINARY
  TRACK 08 AUDIO
    INDEX 00 00:00:00
    INDEX 01 00:01:73
FILE "FX_GOLD2 (Track 09).bin" BINARY
  TRACK 09 AUDIO
    INDEX 00 00:00:00
    INDEX 01 00:01:73
FILE "FX_GOLD2 (Track 10).bin" BINARY
  TRACK 10 AUDIO
    INDEX 00 00:00:00
    INDEX 01 00:01:73
FILE "FX_GOLD2 (Track 11).bin" BINARY
  TRACK 11 AUDIO
    INDEX 00 00:00:00
    INDEX 01 00:01:73
FILE "FX_GOLD2 (Track 12).bin" BINARY
  TRACK 12 AUDIO
    INDEX 00 00:00:00
    INDEX 01 00:01:73
FILE "FX_GOLD2 (Track 13).bin" BINARY
  TRACK 13 AUDIO
    INDEX 00 00:00:00
    INDEX 01 00:01:73
FILE "FX_GOLD2 (Track 14).bin" BINARY
  TRACK 14 AUDIO
    INDEX 00 00:00:00
    INDEX 01 00:01:73
FILE "FX_GOLD2 (Track 15).bin" BINARY
  TRACK 15 AUDIO
    INDEX 00 00:00:00
    INDEX 01 00:01:73
FILE "FX_GOLD2 (Track 16).bin" BINARY
  TRACK 16 AUDIO
    INDEX 00 00:00:00
    INDEX 01 00:01:73
FILE "FX_GOLD2 (Track 17).bin" BINARY
  TRACK 17 AUDIO
    INDEX 00 00:00:00
    INDEX 01 00:01:73
FILE "FX_GOLD2 (Track 18).bin" BINARY
  TRACK 18 AUDIO
    INDEX 00 00:00:00
    INDEX 01 00:01:73
FILE "FX_GOLD2 (Track 19).bin" BINARY
  TRACK 19 AUDIO
    INDEX 00 00:00:00
    INDEX 01 00:01:73
FILE "FX_GOLD2 (Track 20).bin" BINARY
  TRACK 20 AUDIO
    INDEX 00 00:00:00
    INDEX 01 00:01:73
FILE "FX_GOLD2 (Track 21).bin" BINARY
  TRACK 21 AUDIO
    INDEX 00 00:00:00
    INDEX 01 00:01:73
FILE "FX_GOLD2 (Track 22).bin" BINARY
  TRACK 22 AUDIO
    INDEX 00 00:00:00
    INDEX 01 00:01:73
FILE "FX_GOLD2 (Track 23).bin" BINARY
  TRACK 23 AUDIO
    INDEX 00 00:00:00
    INDEX 01 00:01:73
FILE "FX_GOLD2 (Track 24).bin" BINARY
  TRACK 24 AUDIO
    INDEX 00 00:00:00
    INDEX 01 00:01:73
FILE "FX_GOLD2 (Track 25).bin" BINARY
  TRACK 25 AUDIO
    INDEX 00 00:00:00
    INDEX 01 00:01:73
FILE "FX_GOLD2 (Track 26).bin" BINARY
  TRACK 26 AUDIO
    INDEX 00 00:00:00
    INDEX 01 00:01:73
FILE "FX_GOLD2 (Track 27).bin" BINARY
  TRACK 27 AUDIO
    INDEX 00 00:00:00
    INDEX 01 00:01:73
FILE "FX_GOLD2 (Track 28).bin" BINARY
  TRACK 28 AUDIO
    INDEX 00 00:00:00
    INDEX 01 00:01:73
FILE "FX_GOLD2 (Track 29).bin" BINARY
  TRACK 29 AUDIO
    INDEX 00 00:00:00
    INDEX 01 00:01:73
FILE "FX_GOLD2 (Track 30).bin" BINARY
  TRACK 30 AUDIO
    INDEX 00 00:00:00
    INDEX 01 00:01:73
FILE "FX_GOLD2 (Track 31).bin" BINARY
  TRACK 31 AUDIO
    INDEX 00 00:00:00
    INDEX 01 00:01:73
FILE "FX_GOLD2 (Track 32).bin" BINARY
  TRACK 32 AUDIO
    INDEX 00 00:00:00
    INDEX 01 00:01:73

Write Offset: 222