1 (edited by RevQuixo 2019-04-10 21:14:03)

Logs:
https://drive.google.com/open?id=1CZM2F … K6VzgWaRBF


Title: Myst
Disc Number / Letter: (OPTIONAL)
Disc Title: (OPTIONAL)
System: Atari Jaguar CDMedia Type: CD-ROM
Category: Demo
Region: USA
Languages: English
Disc Serial: 700141-002
Ringcode Information:
    Mastering Code (laser branded/etched): 49449<tab>DISC MFG., INC. [A8]<TAB>W.O.# 49449-1
    Mastering SID Code: (REQUIRED, IF EXISTS)
    Label-Side Mould SID Code: (REQUIRED, IF EXISTS)
    Data-Side Mould SID Code: IFPI 2F84
    Additional Mould: (REQUIRED, IF EXISTS)
    Toolstamp or Mastering Code (engraved/stamped): (REQUIRED, IF EXISTS)
Barcode: N/A
Error Count: -1
Comments: (OPTIONAL)
Contents: (OPTIONAL)
Version: (REQUIRED, IF EXISTS)
Edition/Release: Original
Primary Volume Descriptor (PVD):

Disc has no PVD
DAT:

<rom name="myst-demo (Track 1).bin" size="16739184" crc="d86d3113" md5="e327adb32c4255469d68ef5067017068" sha1="6f8b78e0afbdffa0ba73cf47c89f5dbbbdfaa12b" />
<rom name="myst-demo (Track 2).bin" size="1053696" crc="1f42d3d2" md5="f9b3435f8be7efdd79d80e8873b265db" sha1="cb4e2f48b07ce834c5053c6a8a222d50e3caefc7" />
<rom name="myst-demo (Track 3).bin" size="62360928" crc="9cbf2169" md5="ac57c526a83c2527e56a2646eca6f4ab" sha1="5fb64ef44f78d8306cdfbda795bf2761e398b15d" />
<rom name="myst-demo (Track 4).bin" size="1401792" crc="b5791083" md5="7d9dfacd6ca5163804a87f4badc81967" sha1="57245d1926b70ffbd1a76207f8025e9f11a5b639" />

Cuesheet:

FILE "myst-demo (Track 1).bin" BINARY
  REM SESSION 01
  TRACK 01 AUDIO
    FLAGS DCP
    INDEX 01 00:00:00
FILE "myst-demo (Track 2).bin" BINARY
  TRACK 02 AUDIO
    FLAGS DCP
    INDEX 01 00:00:00
FILE "myst-demo (Track 3).bin" BINARY
  TRACK 03 AUDIO
    FLAGS DCP
    INDEX 00 00:00:00
    INDEX 01 00:01:74
FILE "myst-demo (Track 4).bin" BINARY
  REM LEAD-OUT 01:34:67
  REM SESSION 02
  TRACK 04 AUDIO
    FLAGS DCP
    INDEX 00 00:00:00
    INDEX 01 00:01:74

Write Offset: 0

oooooh multi session.

This is another version of Myst Demo for Jaguar CD. I already dumped this cd once and now using the latest DIC version. My dumps match each other but do not match the one from RevQuixo.



All dumps made using DiscImageCreator_test_20190409
All CDs dumped using /c2 command
Zero c2 errors in all dumps
DIC logs and pictures at: https://mega.nz/#F!td5llKaT!ivqN6ZfaJ5DHnw__xVbfXQ


Name: Myst Demo
System: Jaguar CD
Media: Interactive Multimedia Compact Disc
Category: Demo
Region: USA
Serial: 700142-002 (back sleeve) / 700141-002 (cd)
Version: Original

Mastering Code: KAO OPTICAL PRODUCTS<tab>***RF100802-600***