1 (edited by KailoKyra 2019-03-18 09:28:42)

Bought some games recently :

Tonic Trouble (Brazilian release) : https://mega.nz/#F!IRZmmaaR!AMZzxWeNwSwVsjYkn8Fvpg

Title: Tonic Trouble
Disc Number / Letter: 
Disc Title: 
System: IBM PC Compatible
Media Type: CD-ROM
Category: Games
Region: Brazil
Languages: English
Disc Serial: SORO 350 744.02.0
Ringcode Information:
    Mastering Code (laser branded/etched): SORO350 29050    VIDEOLAR
    Mastering SID Code: IFPI L562
    Label-Side Mould SID Code: 
    Data-Side Mould SID Code: IFPI 9680
    Additional Mould: 
    Toolstamp or Mastering Code (engraved/stamped):
Barcode: 7 898132 629526
ISBN: 
Error Count: 0
Comments: 
Contents: 
Version: RETAIL MASTER V3 (10/13/99)
Edition/Release: Original
Primary Volume Descriptor (PVD):

0320 : 20 20 20 20 20 20 20 20  20 20 20 20 20 31 39 39                199
0330 : 39 31 30 32 38 30 38 35  35 30 37 30 30 00 31 39   9102808550700.19
0340 : 39 39 31 30 32 38 30 38  35 35 30 37 30 30 00 32   99102808550700.2
0350 : 30 30 39 31 30 32 35 30  37 35 35 30 37 30 30 00   009102507550700.
0360 : 31 39 39 39 31 30 32 38  30 38 35 35 30 37 30 30   1999102808550700
0370 : 00 01 00 00 00 00 00 00  00 00 00 00 00 00 00 00   ................

Copy Protection: None found

DAT:

<rom name="TT.bin" size="754309920" crc="eb5aee1a" md5="a6151704df4f1a61b43c92311492aa9a" sha1="8fb774792f693ff601795ffa8aac29ffdffdec7c" />

Cuesheet:

CATALOG 0000000000000
FILE "TT.bin" BINARY
  TRACK 01 MODE1/2352
    INDEX 01 00:00:00

Write Offset: 0


Rayman 2 "Version courte" (It's the demo, released on a disc) : https://mega.nz/#F!5AImRQLR!LGa5XDUwVmeWCrE9S0hNVA

Title: Rayman 2: The Great Escape
Disc Number / Letter: 
Disc Title: 
System: IBM PC Compatible
Media Type: CD-ROM
Category: Games
Region: France
Languages: French, English
Disc Serial: 
Ringcode Information:
    Mastering Code (laser branded/etched): 554 656 3    00
    Mastering SID Code: IFPI L003
    Label-Side Mould SID Code: 
    Data-Side Mould SID Code: IFPI 02A5
    Additional Mould: Made in France by Universal M & L
    Toolstamp or Mastering Code (engraved/stamped): 1K
Barcode: 
ISBN: 
Error Count: 0
Comments: 
Contents:
Version: Version Courte ("short version")
Edition/Release: Demo
Primary Volume Descriptor (PVD):

0320 : 20 20 20 20 20 20 20 20  20 20 20 20 20 31 39 39                199
0330 : 39 30 38 31 39 31 38 30  34 35 31 30 30 00 31 39   9081918045100.19
0340 : 39 39 30 38 31 39 31 38  30 34 35 31 30 30 00 30   99081918045100.0
0350 : 30 30 30 30 30 30 30 30  30 30 30 30 30 30 30 00   000000000000000.
0360 : 30 30 30 30 30 30 30 30  30 30 30 30 30 30 30 30   0000000000000000
0370 : 00 01 00 00 00 00 00 00  00 00 00 00 00 00 00 00   ................

Copy Protection: None found

DAT:

<rom name="990819_1804.bin" size="78232224" crc="03f196a2" md5="2960ae1e86eb5878e43c0e29bc81efde" sha1="f1dac77823e3e70ca24dc023691ea59faf21b701" />

Cuesheet:

CATALOG 0000000000000
FILE "990819_1804.bin" BINARY
  TRACK 01 MODE1/2352
    INDEX 01 00:00:00

Write Offset: 0

Rayman Palm OS : https://mega.nz/#F!wJA2gAqT!sn70ZzLjFtsuN-zwwDd6lQ

(I don't know if it goes into PC games as this is an installer that runs on Windows for the Palm OS version of Rayman)

Title: Rayman
Disc Number / Letter: 
Disc Title: 
System: IBM PC Compatible
Media Type: CD-ROM
Category: Games
Region: Europe
Languages: English, French, German, Spanish, Italian
Disc Serial: 
Ringcode Information:
    Mastering Code (laser branded/etched): MPO    2528002 24AUG01 @@
    Mastering SID Code: IFPI L032
    Label-Side Mould SID Code: 
    Data-Side Mould SID Code: IFPI 1240
    Additional Mould: 
    Toolstamp or Mastering Code (engraved/stamped): 01
Barcode: 3 307212 501682
ISBN: 
Error Count: 0
Comments: 
Contents: 
Version: 
Edition/Release: Original
Primary Volume Descriptor (PVD):

0320 : 20 20 20 20 20 20 20 20  20 20 20 20 20 32 30 30                200
0330 : 31 30 38 30 31 31 35 31  32 30 30 30 30 08 32 30   1080115120000.20
0340 : 30 31 30 38 30 31 31 35  31 32 30 30 30 30 08 30   01080115120000.0
0350 : 30 30 30 30 30 30 30 30  30 30 30 30 30 30 30 00   000000000000000.
0360 : 30 30 30 30 30 30 30 30  30 30 30 30 30 30 30 30   0000000000000000
0370 : 00 01 00 00 00 00 00 00  00 00 00 00 00 00 00 00   ................

Copy Protection: None found

DAT:

<rom name="RAYMAN_PALM.bin" size="34988352" crc="1a979d0c" md5="5231bce039ada328ee3eb1ff6946de11" sha1="38f3d586095ae142952ed638c9aaa15b2cc2a0b8" />

Cuesheet:

FILE "RAYMAN_PALM.bin" BINARY
  TRACK 01 MODE1/2352
    INDEX 01 00:00:00

Write Offset: -12

Hype: The Time Quest (Brazilian release) :  https://mega.nz/#F!BUZUFIgZ!S5rmex6P7346IizYzWnwbw

This matches the UK release

Title: Hype: The Time Quest
Disc Number / Letter: 
Disc Title:
System: IBM PC Compatible
Media Type: CD-ROM
Category: Games
Region: Brazil
Languages: English
Disc Serial: 
Ringcode Information:
    Mastering Code (laser branded/etched): SORO509 34640    VIDEOLAR
    Mastering SID Code: IFPI L562
    Label-Side Mould SID Code: 
    Data-Side Mould SID Code: IFPI 9683
    Additional Mould: 
    Toolstamp or Mastering Code (engraved/stamped): 
Barcode: 7 898323 020583 >
ISBN:
Error Count: 0
Comments: 
Contents:
Version: 
Edition/Release: Original
Primary Volume Descriptor (PVD):

0320 : 20 20 20 20 20 20 20 20  20 20 20 20 20 31 39 39                199
0330 : 39 30 37 32 33 31 30 33  33 33 37 30 30 00 31 39   9072310333700.19
0340 : 39 39 30 37 32 33 31 30  33 33 33 37 30 30 00 32   99072310333700.2
0350 : 30 30 39 30 37 32 30 31  30 33 33 33 37 30 30 00   009072010333700.
0360 : 31 39 39 39 30 37 32 33  31 30 33 33 33 37 30 30   1999072310333700
0370 : 00 01 00 00 00 00 00 00  00 00 00 00 00 00 00 00   ................

Copy Protection: None found

DAT:

<rom name="HYPE.bin" size="660735600" crc="a0717d3c" md5="64213cc3e34f4f907c8b92e8b23cf5ef" sha1="0c433ce98bab41cad2531a28062c9be20b8123cc" />

Cuesheet:

CATALOG 0000000000000
FILE "HYPE.bin" BINARY
  TRACK 01 MODE1/2352
    INDEX 01 00:00:00

Write Offset: 0