1 (edited by LastCat 2019-03-16 00:49:19)

Title: Anubis: Zone Of The Enders - Special Maxi Single
Disc Number / Letter: (OPTIONAL)
Disc Title: (OPTIONAL)
System: Audio CD
Media Type: CD-ROM
Category: PS2 Game Bundle
Region: Japan
Languages: Japanese
Disc Serial: KCEJ-0001
Ringcode Information:
    Mastering Code (laser branded/etched): KCEJ-0001       1
    Mastering SID Code: IFPI L277
    Label-Side Mould SID Code:
    Data-Side Mould SID Code: IFPI 45GF
    Additional Mould:
    Toolstamp or Mastering Code (engraved/stamped):
Barcode:
Error Count: -1
Comments: Has english voice over tracks, bundled with the Anubis: Zone Of The Enders Special Edition
Contents:
Version:
Edition/Release: Original
Primary Volume Descriptor (PVD):

Disc has no PVD
DAT:

<rom name="Special Maxi Single (Track 01).bin" size="59319792" crc="0ec65dce" md5="762e84e515e91cd26f0c49027cfceea0" sha1="efc008059ca78b0ba924a11fa9ad6decbb119de3" />
<rom name="Special Maxi Single (Track 02).bin" size="61589472" crc="29aabefd" md5="eaf0e002a112227f7938e2d54e310d39" sha1="b3619688df928f351f9198d2991fafef985f7313" />
<rom name="Special Maxi Single (Track 03).bin" size="14888160" crc="25936145" md5="f0a13e00646756f20f286cabdd2d1233" sha1="8c3d08f4bcf89a14bd1f399eee175d6219242fea" />
<rom name="Special Maxi Single (Track 04).bin" size="56055216" crc="c382d673" md5="3a5cf408c68bf1cf00631e5074be5c26" sha1="91e806f8e96c384a16e16f23a601204009239d7d" />
<rom name="Special Maxi Single (Track 05).bin" size="18373824" crc="534c0662" md5="8b87f35eb3bb5a2156781765e86808c3" sha1="f1df9edcfcaafd843c540d08d1cc2adf145b4494" />
<rom name="Special Maxi Single (Track 06).bin" size="22433376" crc="3f617266" md5="e14c3ee5e6ec78190fd0fa60241d41a1" sha1="a11141874f597387e4e5ed447b2a9d65f2156625" />
<rom name="Special Maxi Single (Track 07).bin" size="21527856" crc="9318bfb2" md5="a39421c7af56ec604623482a612b51cd" sha1="3d446c4c2fbabd9d9fe8f484d7501e2e2ecd7476" />
<rom name="Special Maxi Single (Track 08).bin" size="36519504" crc="a8389bc0" md5="266e624e603eb806ba4a93fb0548fc4a" sha1="da7a5b71dc2ec20b70bfd84aaba977cdca5abfe0" />
<rom name="Special Maxi Single (Track 09).bin" size="16845024" crc="7b8734cb" md5="99ff5cdf01475eb764a596cb970cd385" sha1="59295f11a3395ba8be067a43d556de668546b7c2" />
<rom name="Special Maxi Single (Track 10).bin" size="15614928" crc="f4763b70" md5="727cae67652a8c78dae44ef48c90278a" sha1="b14d9d23a984baa8ba73453e1793d8d610ee7ab6" />
<rom name="Special Maxi Single (Track 11).bin" size="5197920" crc="c6021651" md5="6a15a08cf5bb743eaa17376abac77985" sha1="8e78154425b58744f3d3a2e35a87ec1aa72a3dc7" />
<rom name="Special Maxi Single (Track 12).bin" size="30855888" crc="f2a44ca7" md5="81fd35c27191f5bc0743f30f70446101" sha1="8b22a9d68293712336966d6aacab38c65b5aacb0" />
<rom name="Special Maxi Single (Track 13).bin" size="13448736" crc="eab8c524" md5="1d702d1b213a81415fef4394d67da893" sha1="9bd76c916fe92bef932903cd6793aa7518e92e7f" />
<rom name="Special Maxi Single (Track 14).bin" size="62379744" crc="374b297a" md5="ef264ba17cfeef322fb56b8ce89cfb6a" sha1="7c3d470a60c94fbd897f1fb301afc0610d3cdac2" />

Cuesheet:

FILE "Special Maxi Single (Track 01).bin" BINARY
  TRACK 01 AUDIO
    INDEX 01 00:00:00
FILE "Special Maxi Single (Track 02).bin" BINARY
  TRACK 02 AUDIO
    INDEX 01 00:00:00
FILE "Special Maxi Single (Track 03).bin" BINARY
  TRACK 03 AUDIO
    INDEX 00 00:00:00
    INDEX 01 00:04:51
FILE "Special Maxi Single (Track 04).bin" BINARY
  TRACK 04 AUDIO
    INDEX 01 00:00:00
FILE "Special Maxi Single (Track 05).bin" BINARY
  TRACK 05 AUDIO
    INDEX 01 00:00:00
FILE "Special Maxi Single (Track 06).bin" BINARY
  TRACK 06 AUDIO
    INDEX 01 00:00:00
FILE "Special Maxi Single (Track 07).bin" BINARY
  TRACK 07 AUDIO
    INDEX 01 00:00:00
FILE "Special Maxi Single (Track 08).bin" BINARY
  TRACK 08 AUDIO
    INDEX 01 00:00:00
FILE "Special Maxi Single (Track 09).bin" BINARY
  TRACK 09 AUDIO
    INDEX 00 00:00:00
    INDEX 01 00:01:13
FILE "Special Maxi Single (Track 10).bin" BINARY
  TRACK 10 AUDIO
    INDEX 01 00:00:00
FILE "Special Maxi Single (Track 11).bin" BINARY
  TRACK 11 AUDIO
    INDEX 01 00:00:00
FILE "Special Maxi Single (Track 12).bin" BINARY
  TRACK 12 AUDIO
    INDEX 01 00:00:00
FILE "Special Maxi Single (Track 13).bin" BINARY
  TRACK 13 AUDIO
    INDEX 01 00:00:00
FILE "Special Maxi Single (Track 14).bin" BINARY
  TRACK 14 AUDIO
    INDEX 00 00:00:00
    INDEX 01 00:01:17

Write Offset: 0

https://megaupload.nz/3dNcf1x3b0/Special_Maxi_Single_7z