1 (edited by Peepo_UK 2019-01-11 12:29:45)

Added via new disc form

Title: Football Frenzy
フットボールフレンジー
Disc Number / Letter: (OPTIONAL)
Disc Title: (OPTIONAL)
System: SNK Neo Geo CD
Media Type: CD-ROM
Category: Games
Region: Japan
Languages: English
Disc Serial: NGCD-034
Ringcode Information:
    Mastering Ring: NGCD-034 MT    B01
    Mastering SID Code: (REQUIRED, IF EXISTS)
    Mould SID Code: (REQUIRED, IF EXISTS)
    Additional Mould: Q
    Toolstamp or Mastering Code: (REQUIRED, IF EXISTS)
Barcode (Obi): T4964808 50035 2
Error Count: 0
Comments: (OPTIONAL)
Contents: (OPTIONAL)
Version: (REQUIRED, IF EXISTS)
Edition/Release: Original
Primary Volume Descriptor (PVD):

0320 : 20 20 20 20 20 20 20 20  20 20 20 20 20 31 39 39                199
0330 : 34 30 38 30 35 32 31 31  34 30 37 30 30 00 31 39   4080521140700.19
0340 : 39 34 30 38 30 35 32 31  31 34 30 37 30 30 00 30   94080521140700.0
0350 : 30 30 30 30 30 30 30 30  30 30 30 30 30 30 30 00   000000000000000.
0360 : 31 39 39 34 30 38 30 35  32 31 31 34 30 37 30 30   1994080521140700
0370 : 00 01 00 00 00 00 00 00  00 00 00 00 00 00 00 00   ................

Cuesheet:

FILE "FootballFrenzy (Track 01).bin" BINARY
  TRACK 01 MODE1/2352
    FLAGS DCP
    INDEX 01 00:00:00
FILE "FootballFrenzy (Track 02).bin" BINARY
  TRACK 02 AUDIO
    FLAGS DCP
    INDEX 00 00:00:00
    INDEX 01 00:03:00
FILE "FootballFrenzy (Track 03).bin" BINARY
  TRACK 03 AUDIO
    FLAGS DCP
    INDEX 01 00:00:00
FILE "FootballFrenzy (Track 04).bin" BINARY
  TRACK 04 AUDIO
    FLAGS DCP
    INDEX 01 00:00:00
FILE "FootballFrenzy (Track 05).bin" BINARY
  TRACK 05 AUDIO
    FLAGS DCP
    INDEX 01 00:00:00
FILE "FootballFrenzy (Track 06).bin" BINARY
  TRACK 06 AUDIO
    FLAGS DCP
    INDEX 01 00:00:00
FILE "FootballFrenzy (Track 07).bin" BINARY
  TRACK 07 AUDIO
    FLAGS DCP
    INDEX 01 00:00:00
FILE "FootballFrenzy (Track 08).bin" BINARY
  TRACK 08 AUDIO
    FLAGS DCP
    INDEX 01 00:00:00
FILE "FootballFrenzy (Track 09).bin" BINARY
  TRACK 09 AUDIO
    FLAGS DCP
    INDEX 01 00:00:00
FILE "FootballFrenzy (Track 10).bin" BINARY
  TRACK 10 AUDIO
    FLAGS DCP
    INDEX 01 00:00:00
FILE "FootballFrenzy (Track 11).bin" BINARY
  TRACK 11 AUDIO
    FLAGS DCP
    INDEX 01 00:00:00
FILE "FootballFrenzy (Track 12).bin" BINARY
  TRACK 12 AUDIO
    FLAGS DCP
    INDEX 01 00:00:00
FILE "FootballFrenzy (Track 13).bin" BINARY
  TRACK 13 AUDIO
    FLAGS DCP
    INDEX 01 00:00:00
FILE "FootballFrenzy (Track 14).bin" BINARY
  TRACK 14 AUDIO
    FLAGS DCP
    INDEX 01 00:00:00
FILE "FootballFrenzy (Track 15).bin" BINARY
  TRACK 15 AUDIO
    FLAGS DCP
    INDEX 01 00:00:00
FILE "FootballFrenzy (Track 16).bin" BINARY
  TRACK 16 AUDIO
    FLAGS DCP
    INDEX 01 00:00:00
FILE "FootballFrenzy (Track 17).bin" BINARY
  TRACK 17 AUDIO
    FLAGS DCP
    INDEX 01 00:00:00
FILE "FootballFrenzy (Track 18).bin" BINARY
  TRACK 18 AUDIO
    FLAGS DCP
    INDEX 01 00:00:00

Write Offset: 2

DAT:

<rom name="FootballFrenzy (Track 01).bin" size="8674176" crc="07514424" md5="9b8d0942d2c3b3055f54daf73f1d7a4d" sha1="344f43854e814a65c3bf88a84f99f83c0e096b8c" />
<rom name="FootballFrenzy (Track 02).bin" size="45687600" crc="cb21c3da" md5="1e85a69767c223b6162c74236db3a0cd" sha1="7e5db5c333befc98dd82e8ca9f21e05aa72e58af" />
<rom name="FootballFrenzy (Track 03).bin" size="44459856" crc="3c8db943" md5="8fb9ef5c4db020e16e8123c67267dc39" sha1="16b95e96d8ea835bb530d7a9afb177c19739dae6" />
<rom name="FootballFrenzy (Track 04).bin" size="44854992" crc="3cccca2e" md5="1024388b7abf7c50153c75e520261abc" sha1="b1a55c941f6f2cc495aa2ec34929aaaad1842c7a" />
<rom name="FootballFrenzy (Track 05).bin" size="44429280" crc="142f4c18" md5="f225c115151bcaff93235c9bf8257b1c" sha1="c2d20f239711aa15a8d026d3bce1a768f7f9e99e" />
<rom name="FootballFrenzy (Track 06).bin" size="4640496" crc="c9b5eb41" md5="26202b555263760e84e28a08faccd7ef" sha1="9aa849f84b3fa27a4488cf11a054479f04aec282" />
<rom name="FootballFrenzy (Track 07).bin" size="9676128" crc="b1339705" md5="61c4af148301d11c4ee32b17810661d6" sha1="764807fe1f603d5e2425f40d6a833e6ef7270706" />
<rom name="FootballFrenzy (Track 08).bin" size="8812944" crc="e15fc644" md5="6771267ab519427d25f2f8c0126786ef" sha1="5061f6eb73ce0d5c8cb91c485047b75dcf74408a" />
<rom name="FootballFrenzy (Track 09).bin" size="7326480" crc="7e82940c" md5="777e20206668594e39ffa80ff183ee4b" sha1="7351b163d4409b356a081054030560b8de96b9d2" />
<rom name="FootballFrenzy (Track 10).bin" size="3452736" crc="528c7e5a" md5="0c764cc6763afb3b2b4745e91b0abef3" sha1="22e704787f6b6295013e04d8ef7f40c2c7268322" />
<rom name="FootballFrenzy (Track 11).bin" size="2469600" crc="0f5da37b" md5="f24789a1c9f31bb977fd2397f2b635a7" sha1="12dc8d153ff0a8d16f2c71ddbd4a9213a99bd3f9" />
<rom name="FootballFrenzy (Track 12).bin" size="3530352" crc="ab7be535" md5="f7c0fdfc551f9a1b9f000de46dd4378d" sha1="d825c367b3780cbd775fbb9c710e46ca0c53eb02" />
<rom name="FootballFrenzy (Track 13).bin" size="8467200" crc="ca550f80" md5="1f3fa0095b98a51426fda35c90980db2" sha1="c38d5ce3cbee745118a0c247e6fc906130c67f62" />
<rom name="FootballFrenzy (Track 14).bin" size="2624832" crc="c9b21ee2" md5="297da45825d5d6c895bdc514e3c058ca" sha1="a7acbca4a4b4155a489056a44aa1473e77934b69" />
<rom name="FootballFrenzy (Track 15).bin" size="2166192" crc="fecafb0f" md5="c4dce9bb613a08c897b24b4be3adb969" sha1="72b4a88d51019d8d7c4a62a81af20c59b4d8cae9" />
<rom name="FootballFrenzy (Track 16).bin" size="7058352" crc="54dd533b" md5="310832460fe77d489a403861caed4544" sha1="edd6738f7fc0a7f901966297200e04a759b3fb3c" />
<rom name="FootballFrenzy (Track 17).bin" size="33396048" crc="df9ba100" md5="4785c983dbeeb89876bb0d13c9e0d284" sha1="fa15f1316828fbad245fc93352150ba381c45fad" />
<rom name="FootballFrenzy (Track 18).bin" size="3001152" crc="3aaf0c73" md5="44efbc2c7e99c613232052c669352a57" sha1="2d9ff6ab1bca2122a88252643453e46e55f3d22f" />

Logs: https://mega.nz/#!5BghUIoD!q_f2hIDJUUQJ … dhOdLPg4E0