Title: Chou Aniki: Kyuukyoku ... Otoko no Gyakushuu
Disc Number / Letter: (OPTIONAL)
Disc Title: (OPTIONAL)
System: Sega Saturn
Media Type: CD-ROM
Category: Games
Region: Japan
Languages: Japanese
Disc Serial: T-2503G
Build Date: 19960305
Ringcode Information:
    Mastering Ring: T-2503GP-00763-P1K    V
    Mastering SID Code: IFPI L237
    Mould SID Code: IFPI 4011
    Additional Mould: (REQUIRED, IF EXISTS)
    Toolstamp or Mastering Code: (REQUIRED, IF EXISTS)
Barcode: T4988616011015
Error Count: 0
Comments: (OPTIONAL)
Contents: (OPTIONAL)
Version: V1.00C
Edition/Release: Original
Header:

0000 : 53 45 47 41 20 53 45 47  41 53 41 54 55 52 4E 20   SEGA SEGASATURN
0010 : 53 45 47 41 20 54 50 20  54 2D 32 35 20 20 20 20   SEGA TP T-25   
0020 : 54 2D 32 35 30 33 47 20  20 20 56 31 2E 30 30 43   T-2503G   V1.00C
0030 : 31 39 39 36 30 33 30 35  43 44 2D 31 2F 31 20 20   19960305CD-1/1 
0040 : 4A 20 20 20 20 20 20 20  20 20 20 20 20 20 20 20   J               
0050 : 4A 20 20 20 20 20 20 20  20 20 20 20 20 20 20 20   J               
0060 : 43 48 4F 20 41 4E 49 4B  49 20 20 20 20 20 20 20   CHO ANIKI       
0070 : 20 20 20 20 20 20 20 20  20 20 20 20 20 20 20 20                   
0080 : 20 20 20 20 20 20 20 20  20 20 20 20 20 20 20 20                   
0090 : 20 20 20 20 20 20 20 20  20 20 20 20 20 20 20 20                   
00A0 : 20 20 20 20 20 20 20 20  20 20 20 20 20 20 20 20                   
00B0 : 20 20 20 20 20 20 20 20  20 20 20 20 20 20 20 20                   
00C0 : 20 20 20 20 20 20 20 20  20 20 20 20 20 20 20 20                   
00D0 : 00 00 00 00 00 00 00 00  00 00 00 00 00 00 00 00   ................
00E0 : 00 00 11 90 00 00 00 00  00 00 00 00 00 00 00 00   ................
00F0 : 06 01 00 00 00 00 00 00  00 00 00 00 00 00 00 00   ................


Primary Volume Descriptor (PVD):

0320 : 20 20 20 20 20 20 20 20  20 20 20 20 20 31 39 39                199
0330 : 36 30 33 30 35 30 31 31  32 33 36 30 30 14 31 39   6030501123600.19
0340 : 39 36 30 33 30 35 30 31  31 32 33 36 30 30 14 30   96030501123600.0
0350 : 30 30 30 30 30 30 30 30  30 30 30 30 30 30 30 00   000000000000000.
0360 : 30 30 30 30 30 30 30 30  30 30 30 30 30 30 30 30   0000000000000000
0370 : 00 01 00 00 00 00 00 00  00 00 00 00 00 00 00 00   ................

Cuesheet:

CATALOG 0000000000000
FILE "CHOU_ANIKI (Track 01).bin" BINARY
  TRACK 01 MODE1/2352
    INDEX 01 00:00:00
FILE "CHOU_ANIKI (Track 02).bin" BINARY
  TRACK 02 AUDIO
    INDEX 00 00:00:00
    INDEX 01 00:02:00
FILE "CHOU_ANIKI (Track 03).bin" BINARY
  TRACK 03 AUDIO
    INDEX 00 00:00:00
    INDEX 01 00:01:74
FILE "CHOU_ANIKI (Track 04).bin" BINARY
  TRACK 04 AUDIO
    INDEX 00 00:00:00
    INDEX 01 00:01:74
FILE "CHOU_ANIKI (Track 05).bin" BINARY
  TRACK 05 AUDIO
    INDEX 00 00:00:00
    INDEX 01 00:01:74
FILE "CHOU_ANIKI (Track 06).bin" BINARY
  TRACK 06 AUDIO
    INDEX 00 00:00:00
    INDEX 01 00:01:74
FILE "CHOU_ANIKI (Track 07).bin" BINARY
  TRACK 07 AUDIO
    INDEX 00 00:00:00
    INDEX 01 00:01:74
FILE "CHOU_ANIKI (Track 08).bin" BINARY
  TRACK 08 AUDIO
    INDEX 00 00:00:00
    INDEX 01 00:01:74
FILE "CHOU_ANIKI (Track 09).bin" BINARY
  TRACK 09 AUDIO
    INDEX 00 00:00:00
    INDEX 01 00:01:74
FILE "CHOU_ANIKI (Track 10).bin" BINARY
  TRACK 10 AUDIO
    INDEX 00 00:00:00
    INDEX 01 00:01:74
FILE "CHOU_ANIKI (Track 11).bin" BINARY
  TRACK 11 AUDIO
    INDEX 00 00:00:00
    INDEX 01 00:01:74
FILE "CHOU_ANIKI (Track 12).bin" BINARY
  TRACK 12 AUDIO
    INDEX 00 00:00:00
    INDEX 01 00:01:74
FILE "CHOU_ANIKI (Track 13).bin" BINARY
  TRACK 13 AUDIO
    INDEX 00 00:00:00
    INDEX 01 00:01:74
FILE "CHOU_ANIKI (Track 14).bin" BINARY
  TRACK 14 AUDIO
    INDEX 00 00:00:00
    INDEX 01 00:01:74
FILE "CHOU_ANIKI (Track 15).bin" BINARY
  TRACK 15 AUDIO
    INDEX 00 00:00:00
    INDEX 01 00:01:74
FILE "CHOU_ANIKI (Track 16).bin" BINARY
  TRACK 16 AUDIO
    INDEX 00 00:00:00
    INDEX 01 00:01:74
FILE "CHOU_ANIKI (Track 17).bin" BINARY
  TRACK 17 AUDIO
    INDEX 00 00:00:00
    INDEX 01 00:01:74
FILE "CHOU_ANIKI (Track 18).bin" BINARY
  TRACK 18 AUDIO
    INDEX 00 00:00:00
    INDEX 01 00:01:74
FILE "CHOU_ANIKI (Track 19).bin" BINARY
  TRACK 19 AUDIO
    INDEX 00 00:00:00
    INDEX 01 00:01:74
FILE "CHOU_ANIKI (Track 20).bin" BINARY
  TRACK 20 AUDIO
    INDEX 00 00:00:00
    INDEX 01 00:01:74
FILE "CHOU_ANIKI (Track 21).bin" BINARY
  TRACK 21 AUDIO
    INDEX 00 00:00:00
    INDEX 01 00:01:74
FILE "CHOU_ANIKI (Track 22).bin" BINARY
  TRACK 22 AUDIO
    INDEX 00 00:00:00
    INDEX 01 00:01:74

Write Offset: 684

DAT:

<rom name="CHOU_ANIKI (Track 01).bin" size="283082016" crc="8f9c015b" md5="4cfc765d24e06db5872f599c05d7d7bd" sha1="19a484ab0e22c5a51c1c0fd1eda879f39a914395" />
<rom name="CHOU_ANIKI (Track 02).bin" size="25361616" crc="0b51f2d4" md5="312318350d9e67b303334083f2d12c73" sha1="ec05c5901587f2218de2f987e2bc3804323bcd44" />
<rom name="CHOU_ANIKI (Track 03).bin" size="37707264" crc="21faff8f" md5="94218e13c79640651c71bba09b3a64b4" sha1="4dce166cb4f2b35af54dff24873062a0aaada012" />
<rom name="CHOU_ANIKI (Track 04).bin" size="12152784" crc="2c222af0" md5="f46485c4aa0f306dbd230791833dbbe5" sha1="668a0fdeb5cc96badc735c54a1e4b20fbd15d542" />
<rom name="CHOU_ANIKI (Track 05).bin" size="16673328" crc="2fc3894a" md5="216c0f19e84e7f9fdd7cdcd5edb7a75a" sha1="9c5e5c9f3154b2accbf7287480992ada4d881e1f" />
<rom name="CHOU_ANIKI (Track 06).bin" size="15643152" crc="5b80c75f" md5="17c76ed25a2650beab9b6a98a32c067a" sha1="ccabe206ef332c3c339198442fa02a9a5af2d1c8" />
<rom name="CHOU_ANIKI (Track 07).bin" size="15852480" crc="d2c1a0b4" md5="8adb5af82e4048a4e5088217c01e3b93" sha1="8ea495414a5327de47deb628bae99a3a4502e938" />
<rom name="CHOU_ANIKI (Track 08).bin" size="14791728" crc="ee8f0ad6" md5="98e9c5d930ba076d4f02e5154d545775" sha1="c69928d056c10bf088dec5c222f7b4aeda795a15" />
<rom name="CHOU_ANIKI (Track 09).bin" size="11607120" crc="0a4345d3" md5="689ef33f4dfaede2b850116299013c54" sha1="1309a22f83f24e76b42261f3310fdd4b343909a3" />
<rom name="CHOU_ANIKI (Track 10).bin" size="14772912" crc="7548f3d6" md5="f0a27fcd612dbf9ce5ef363fe8e126f8" sha1="a066a030f64f61bf311c4ab2df4f38a036bc0cca" />
<rom name="CHOU_ANIKI (Track 11).bin" size="12771360" crc="4b0fd327" md5="4eeca9a56cc5bbda4e0bb3f215abd363" sha1="948817380c8b16f9c7068ed2246a2b74a1cd2140" />
<rom name="CHOU_ANIKI (Track 12).bin" size="18773664" crc="b5793140" md5="bdf3c9d7a99a3ab14183a009af032e12" sha1="83d2b3b15367142e2cdb51e36bfe0017c4dc83a6" />
<rom name="CHOU_ANIKI (Track 13).bin" size="15365616" crc="9b3becf8" md5="9201b2b0b4e6368fd47490957b71d854" sha1="e3570b2a3d1f77010054693af947c7d6c08e61e1" />
<rom name="CHOU_ANIKI (Track 14).bin" size="29056608" crc="7a23efcd" md5="be914b0d7e5aed1692402c7d34f8418d" sha1="95fedfea9f67099ad4a246218f0ae3c71637c750" />
<rom name="CHOU_ANIKI (Track 15).bin" size="24719520" crc="a26b9afe" md5="e562b1d94d75c1ccd8f1d071308586ff" sha1="1e773e872be0e941a3d817694e4661ee8700a75d" />
<rom name="CHOU_ANIKI (Track 16).bin" size="17061408" crc="5cacea6e" md5="1c56d43d76a3802f655e75c6ffd91f3a" sha1="75bdad1154903cfe0a1743aedc5546922d16ccb9" />
<rom name="CHOU_ANIKI (Track 17).bin" size="19107648" crc="64c00138" md5="e955a20e78a6b5806f4bdd0a0dad59fe" sha1="bb531fded2ab5e8ad5716cb34b8714c42fbf5437" />
<rom name="CHOU_ANIKI (Track 18).bin" size="13907376" crc="92542ea7" md5="814024c3beae632c2022d5b0a2829724" sha1="9208a4ce62bd8589874c8cff75ec913b8f0afa49" />
<rom name="CHOU_ANIKI (Track 19).bin" size="12319776" crc="1e56714e" md5="697319051a34fceaafad723789d61d53" sha1="3ed3986d41a7530be7ad7f4ec3d7c38565677862" />
<rom name="CHOU_ANIKI (Track 20).bin" size="19164096" crc="4476d3da" md5="b68b4c4052abd02fabb3dbcc7c188f61" sha1="b5101145482ec08b88d7851e06d7b24bc5b00941" />
<rom name="CHOU_ANIKI (Track 21).bin" size="19420464" crc="b20703db" md5="0a7999f33f80d639eccfdd885150719e" sha1="3e31c02b149bffed5ca40cac24e2100e1e8c4729" />
<rom name="CHOU_ANIKI (Track 22).bin" size="11936400" crc="ba8e6766" md5="27c2ed7d07130aae1c07481bbfd72f29" sha1="455344d9020eb9435285a01f069a819fd59c2490" />


https://megaupload.nz/L8E5L7nab6/CHOU_ANIKI_zip

Toolstamp is missing.