1 (edited by Cre8 2018-11-04 15:02:52)

Andretti Racing:
Matches: http://redump.org/disc/25240/
Link to logs: https://mega.nz/#!cAIhlKLb!83_XOn2VGz-S … dYANVOy7xg

Title: Andretti Racing
System: Sony PlayStation
Media Type: CD-ROM
Category: Games
Region: Germany
Languages: German
Disc Serial: SLES-00440
EXE Date: 1996-08-15
Ringcode Information:
    Mastering Ring: DADC AUSTRIA    A0100202195-0101    15    A2
    Mastering SID Code: IFPI L555
    Mould SID Code: IFPI 948A
    Additional Mould: ✶
    Toolstamp or Mastering Code: (REQUIRED, IF EXISTS)
Barcode: 5 030935 010473
Error Count: 1
Edition/Release: Original
EDC: No
Anti-modchip: No
LibCrypt: No
Primary Volume Descriptor (PVD):

0320 : 20 20 20 20 20 20 20 20  20 20 20 20 20 31 39 39                199
0330 : 36 31 30 30 32 32 31 33  30 30 30 30 30 24 30 30   6100221300000$00
0340 : 30 30 30 30 30 30 30 30  30 30 30 30 30 30 00 30   00000000000000.0
0350 : 30 30 30 30 30 30 30 30  30 30 30 30 30 30 30 00   000000000000000.
0360 : 30 30 30 30 30 30 30 30  30 30 30 30 30 30 30 30   0000000000000000
0370 : 00 01 00 00 00 00 00 00  00 00 00 00 00 00 00 00   ................

Cuesheet:

FILE "ANDRETTI (Track 1).bin" BINARY
  TRACK 01 MODE2/2352
    INDEX 01 00:00:00
FILE "ANDRETTI (Track 2).bin" BINARY
  TRACK 02 AUDIO
    INDEX 00 00:00:00
    INDEX 01 00:02:00
FILE "ANDRETTI (Track 3).bin" BINARY
  TRACK 03 AUDIO
    INDEX 00 00:00:00
    INDEX 01 00:02:00
FILE "ANDRETTI (Track 4).bin" BINARY
  TRACK 04 AUDIO
    INDEX 00 00:00:00
    INDEX 01 00:02:00
FILE "ANDRETTI (Track 5).bin" BINARY
  TRACK 05 AUDIO
    INDEX 00 00:00:00
    INDEX 01 00:02:00
FILE "ANDRETTI (Track 6).bin" BINARY
  TRACK 06 AUDIO
    INDEX 00 00:00:00
    INDEX 01 00:02:00

Write Offset: 2

DAT:

<rom name="ANDRETTI (Track 1).bin" size="575087520" crc="e7a16456" md5="    " sha1="ac002c1b479943a6f4423f5b811e30f3cb747da0" />
<rom name="ANDRETTI (Track 2).bin" size="23475312" crc="1b1bfc1c" md5="969b8a951e451a099027d122cba3a327" sha1="c05b2f0f7f0a0c3cfba7fd294fa24ad9bcf0ce52" />
<rom name="ANDRETTI (Track 3).bin" size="26516448" crc="ded4644f" md5="565d59c5f37b7b0da0e177df31a2ed9f" sha1="bee68dd9f27ea98b8a52f42192b6321ccb3e4559" />
<rom name="ANDRETTI (Track 4).bin" size="27805344" crc="6f60fb5e" md5="bea918ff84d17986d4283102d5feb6c4" sha1="e58d04fee0a44ac9e4f5dbee2431e59240be69bd" />
<rom name="ANDRETTI (Track 5).bin" size="25495680" crc="a016715e" md5="a07316efa7c68a9766ad53dd077de770" sha1="d0ec0ecec6eb9db89464291f93081ae596bff542" />
<rom name="ANDRETTI (Track 6).bin" size="31074624" crc="da1f2d55" md5="01900b517eba213dad871f5992b577a9" sha1="19176f27bab77674c6295d7beaed04e773743920" />

Formula 1:
Matches: http://redump.org/disc/924/
Link to logs: https://mega.nz/#!tcIljSpC!krvyEa81eMKt … WOuXfm6AeU

I will provide the mastering codes as a fix, once I get to them.

Title: Formula 1
System: Sony PlayStation
Media Type: CD-ROM
Category: Games
Region: Europe
Languages: English, French, Italian, Spanish, German
Disc Serial: SLES-00298
EXE Date: 1996-08-02
Ringcode Information:
    Mould SID Code: IFPI 949B
    Additional Mould: ✶
Error Count: 1
Edition/Release: Original
EDC: No
Anti-modchip: No
LibCrypt: No
Primary Volume Descriptor (PVD):

0320 : 20 20 20 20 20 20 20 20  20 20 20 20 20 31 39 39                199
0330 : 36 30 38 32 32 31 32 33  35 30 30 30 30 24 30 30   6082212350000$00
0340 : 30 30 30 30 30 30 30 30  30 30 30 30 30 30 00 30   00000000000000.0
0350 : 30 30 30 30 30 30 30 30  30 30 30 30 30 30 30 00   000000000000000.
0360 : 30 30 30 30 30 30 30 30  30 30 30 30 30 30 30 30   0000000000000000
0370 : 00 01 00 00 00 00 00 00  00 00 00 00 00 00 00 00   ................

Cuesheet:

FILE "FORMULA_1 (Track 01).bin" BINARY
  TRACK 01 MODE2/2352
    INDEX 01 00:00:00
FILE "FORMULA_1 (Track 02).bin" BINARY
  TRACK 02 AUDIO
    INDEX 00 00:00:00
    INDEX 01 00:02:00
FILE "FORMULA_1 (Track 03).bin" BINARY
  TRACK 03 AUDIO
    INDEX 00 00:00:00
    INDEX 01 00:02:00
FILE "FORMULA_1 (Track 04).bin" BINARY
  TRACK 04 AUDIO
    INDEX 00 00:00:00
    INDEX 01 00:02:00
FILE "FORMULA_1 (Track 05).bin" BINARY
  TRACK 05 AUDIO
    INDEX 00 00:00:00
    INDEX 01 00:02:00
FILE "FORMULA_1 (Track 06).bin" BINARY
  TRACK 06 AUDIO
    INDEX 00 00:00:00
    INDEX 01 00:02:00
FILE "FORMULA_1 (Track 07).bin" BINARY
  TRACK 07 AUDIO
    INDEX 00 00:00:00
    INDEX 01 00:02:00
FILE "FORMULA_1 (Track 08).bin" BINARY
  TRACK 08 AUDIO
    INDEX 00 00:00:00
    INDEX 01 00:02:00
FILE "FORMULA_1 (Track 09).bin" BINARY
  TRACK 09 AUDIO
    INDEX 00 00:00:00
    INDEX 01 00:02:00
FILE "FORMULA_1 (Track 10).bin" BINARY
  TRACK 10 AUDIO
    INDEX 00 00:00:00
    INDEX 01 00:02:00
FILE "FORMULA_1 (Track 11).bin" BINARY
  TRACK 11 AUDIO
    INDEX 00 00:00:00
    INDEX 01 00:02:00
FILE "FORMULA_1 (Track 12).bin" BINARY
  TRACK 12 AUDIO
    INDEX 00 00:00:00
    INDEX 01 00:02:00
FILE "FORMULA_1 (Track 13).bin" BINARY
  TRACK 13 AUDIO
    INDEX 00 00:00:00
    INDEX 01 00:02:00
FILE "FORMULA_1 (Track 14).bin" BINARY
  TRACK 14 AUDIO
    INDEX 00 00:00:00
    INDEX 01 00:02:00

Write Offset: 2

DAT:

<rom name="FORMULA_1 (Track 01).bin" size="255998736" crc="2c3ee14b" md5="0af75797f941dc8d06e014d0490e7051" sha1="84587414278e1161968c853401ebcaf74e16c7b4" />
<rom name="FORMULA_1 (Track 02).bin" size="34179264" crc="c9b48711" md5="b94008705678e70387d92d9d89f04822" sha1="d154dba1f520cf19c4eeb66d15c5d83903fa3c6a" />
<rom name="FORMULA_1 (Track 03).bin" size="27527808" crc="5743c114" md5="0846418a84762d8e8bc8aacae2978905" sha1="4d4c38e87b244ce6beacb81b6febe93d6753c7a8" />
<rom name="FORMULA_1 (Track 04).bin" size="26772816" crc="0a4fd471" md5="dcf87025a0cbe2967502687c3b220579" sha1="2b2ac6cd268dd9799ba7fd32ae829fcc3dcd38a6" />
<rom name="FORMULA_1 (Track 05).bin" size="30213792" crc="b4b280c4" md5="1fae0f9fa15bd6d0abdbe62bb3dadb57" sha1="4173cd4f58696d5095f02b1ea971334ee15d8d41" />
<rom name="FORMULA_1 (Track 06).bin" size="29355312" crc="f6fc87b4" md5="ae316cbadf6172f5e8fb16368be71c30" sha1="f333fae1068827fce81c7db432a9ac3270c71f3c" />
<rom name="FORMULA_1 (Track 07).bin" size="29952720" crc="87a7355f" md5="c20d7184d83e658423092d44fd97f42c" sha1="bbd3dc973bcc51a24f3381bdfd6c906146299043" />
<rom name="FORMULA_1 (Track 08).bin" size="29856288" crc="9537800d" md5="c26881bd460e188a4d2bc263adeb8f6f" sha1="2c5a2d9864b08b622083c5449e651138b710658b" />
<rom name="FORMULA_1 (Track 09).bin" size="30406656" crc="eefeb12b" md5="e199fb7081ca9153d7c6adeb7d29b961" sha1="e4b2ef491b9873ee337423064ca2e3473fa01530" />
<rom name="FORMULA_1 (Track 10).bin" size="33603024" crc="26a6a469" md5="38656c383fa2a1517827ec8f3f91fab4" sha1="ebc942b1e528bfc25e11c9b601fcfcd560cc6c9f" />
<rom name="FORMULA_1 (Track 11).bin" size="29294160" crc="a4f752c3" md5="6a9e1e435704e17d1d2a5b2c8e6c1e6c" sha1="fe094f749d5eb5a9c9af21064ad4b6b14fd91f11" />
<rom name="FORMULA_1 (Track 12).bin" size="31476816" crc="c1c72408" md5="1a3cc168356407703156e149659999c4" sha1="f20f5d27a7f286e18efd93f980a51cd3b3231dd6" />
<rom name="FORMULA_1 (Track 13).bin" size="32972688" crc="7b70f6f0" md5="b73ea14e0b9737c2debc69a6a92a3b96" sha1="981b3d4a171431a41359767b94f3e7efc234c366" />
<rom name="FORMULA_1 (Track 14).bin" size="42688800" crc="8a322cf1" md5="d3acdf1a08d047c72e595351fc548900" sha1="632cb32ce4c7edd6cd7e2aa88cd2b631f88d5b96" />