1 (edited by scsi_wuzzy 2018-10-09 16:00:13)

This is the SATURN81004R variant of Bug! (USA).

Edit: Had typo in serial in this post. The pasted log was fine, but now they're both right.

Logs: https://www.dropbox.com/s/p5d7jph6kr3pq … 21.7z?dl=0

Title: Bug!
Disc Number / Letter: 
Disc Title: 
System: Sega Saturn
Media Type: CD-ROM
Category: Games
Region: USA
Languages: English
Disc Serial: MK-81004
Build Date: 19950622
Ringcode Information:
    Mastering Ring: SATURN81004R P1H
    Mastering SID Code: IFPI L238
    Mould SID Code: 
    Additional Mould: 
    Toolstamp or Mastering Code: 13
Barcode: 0 10086 81004 2
Error Count: 0
Comments: 
Contents: 
Version: V1.017
Edition/Release: Original
Header:

0000 : 53 45 47 41 20 53 45 47 41 53 41 54 55 52 4E 20   SEGA SEGASATURN 
0010 : 53 45 47 41 20 45 4E 54 45 52 50 52 49 53 45 53   SEGA ENTERPRISES
0020 : 4D 4B 2D 38 31 30 30 34 20 20 56 31 2E 30 31 37   MK-81004  V1.017
0030 : 31 39 39 35 30 36 32 32 43 44 2D 31 2F 31 20 20   19950622CD-1/1  
0040 : 55 20 20 20 20 20 20 20 20 20 20 20 20 20 20 20   U               
0050 : 4A 20 20 20 20 20 20 20 20 20 20 20 20 20 20 20   J               
0060 : 42 55 47 20 20 20 20 20 20 20 20 20 20 20 20 20   BUG             
0070 : 20 20 20 20 20 20 20 20 20 20 20 20 20 20 20 20                   
0080 : 20 20 20 20 20 20 20 20 20 20 20 20 20 20 20 20                   
0090 : 20 20 20 20 20 20 20 20 20 20 20 20 20 20 20 20                   
00A0 : 20 20 20 20 20 20 20 20 20 20 20 20 20 20 20 20                   
00B0 : 20 20 20 20 20 20 20 20 20 20 20 20 20 20 20 20                   
00C0 : 20 20 20 20 20 20 20 20 20 20 20 20 20 20 20 20                   
00D0 : 00 00 00 00 00 00 00 00 00 00 00 00 00 00 00 00                   
00E0 : 00 00 80 00 00 00 00 00 00 00 00 00 00 00 00 00     ?             
00F0 : 06 01 00 00 00 00 00 00 00 00 00 00 00 00 00 00                 

Primary Volume Descriptor (PVD):

0320 : 52 F1 72 02 1F 21 51 F2  71 FF 1F 12 21 18 8B F0   R.r..!Q.q...!...
0330 : 7F 14 00 0B 00 09 00 90  06 00 2D 80 06 00 2D 84   ..........-...-.
0340 : 06 00 2D 7C 25 F8 00 00  7F E0 D3 15 1F 37 E3 00   ..-|%........7..
0350 : 1F 33 E3 00 1F 32 D3 13  1F 31 E3 00 2F 32 A0 12   .3...2...1../2..
0360 : 00 09 52 F7 72 04 1F 27  72 FC 63 22 52 F3 32 3C   ..R.r..'r.c"R.2<
0370 : 1F 23 53 F2 23 2A 1F 32  53 F2 51 F1 31 38 1F 11   .#S.#*.2S.Q.18..

Cuesheet:

CATALOG 0000000000000
FILE "disc (Track 01).bin" BINARY
  TRACK 01 MODE1/2352
    INDEX 01 00:00:00
FILE "disc (Track 02).bin" BINARY
  TRACK 02 AUDIO
    INDEX 00 00:00:00
    INDEX 01 00:02:00
FILE "disc (Track 03).bin" BINARY
  TRACK 03 AUDIO
    INDEX 00 00:00:00
    INDEX 01 00:02:00
FILE "disc (Track 04).bin" BINARY
  TRACK 04 AUDIO
    INDEX 00 00:00:00
    INDEX 01 00:02:00
FILE "disc (Track 05).bin" BINARY
  TRACK 05 AUDIO
    INDEX 00 00:00:00
    INDEX 01 00:02:00
FILE "disc (Track 06).bin" BINARY
  TRACK 06 AUDIO
    INDEX 00 00:00:00
    INDEX 01 00:02:00
FILE "disc (Track 07).bin" BINARY
  TRACK 07 AUDIO
    INDEX 00 00:00:00
    INDEX 01 00:01:72
FILE "disc (Track 08).bin" BINARY
  TRACK 08 AUDIO
    INDEX 00 00:00:00
    INDEX 01 00:02:00
FILE "disc (Track 09).bin" BINARY
  TRACK 09 AUDIO
    INDEX 00 00:00:00
    INDEX 01 00:02:00
FILE "disc (Track 10).bin" BINARY
  TRACK 10 AUDIO
    INDEX 00 00:00:00
    INDEX 01 00:02:00
FILE "disc (Track 11).bin" BINARY
  TRACK 11 AUDIO
    INDEX 00 00:00:00
    INDEX 01 00:02:00
FILE "disc (Track 12).bin" BINARY
  TRACK 12 AUDIO
    INDEX 00 00:00:00
    INDEX 01 00:02:00
FILE "disc (Track 13).bin" BINARY
  TRACK 13 AUDIO
    INDEX 00 00:00:00
    INDEX 01 00:02:00
FILE "disc (Track 14).bin" BINARY
  TRACK 14 AUDIO
    INDEX 00 00:00:00
    INDEX 01 00:02:00
FILE "disc (Track 15).bin" BINARY
  TRACK 15 AUDIO
    INDEX 00 00:00:00
    INDEX 01 00:02:00
FILE "disc (Track 16).bin" BINARY
  TRACK 16 AUDIO
    INDEX 00 00:00:00
    INDEX 01 00:02:00
FILE "disc (Track 17).bin" BINARY
  TRACK 17 AUDIO
    INDEX 00 00:00:00
    INDEX 01 00:02:00
FILE "disc (Track 18).bin" BINARY
  TRACK 18 AUDIO
    INDEX 00 00:00:00
    INDEX 01 00:02:00
FILE "disc (Track 19).bin" BINARY
  TRACK 19 AUDIO
    INDEX 00 00:00:00
    INDEX 01 00:02:00
FILE "disc (Track 20).bin" BINARY
  TRACK 20 AUDIO
    INDEX 00 00:00:00
    INDEX 01 00:02:00
FILE "disc (Track 21).bin" BINARY
  TRACK 21 AUDIO
    INDEX 00 00:00:00
    INDEX 01 00:02:00
FILE "disc (Track 22).bin" BINARY
  TRACK 22 AUDIO
    INDEX 00 00:00:00
    INDEX 01 00:02:00
FILE "disc (Track 23).bin" BINARY
  TRACK 23 AUDIO
    INDEX 00 00:00:00
    INDEX 01 00:02:00
FILE "disc (Track 24).bin" BINARY
  TRACK 24 AUDIO
    INDEX 00 00:00:00
    INDEX 01 00:02:00
FILE "disc (Track 25).bin" BINARY
  TRACK 25 AUDIO
    INDEX 00 00:00:00
    INDEX 01 00:02:00
FILE "disc (Track 26).bin" BINARY
  TRACK 26 AUDIO
    INDEX 00 00:00:00
    INDEX 01 00:02:00
FILE "disc (Track 27).bin" BINARY
  TRACK 27 AUDIO
    INDEX 00 00:00:00
    INDEX 01 00:02:00
FILE "disc (Track 28).bin" BINARY
  TRACK 28 AUDIO
    INDEX 00 00:00:00
    INDEX 01 00:02:00
FILE "disc (Track 29).bin" BINARY
  TRACK 29 AUDIO
    INDEX 00 00:00:00
    INDEX 01 00:02:00
FILE "disc (Track 30).bin" BINARY
  TRACK 30 AUDIO
    INDEX 00 00:00:00
    INDEX 01 00:02:00
FILE "disc (Track 31).bin" BINARY
  TRACK 31 AUDIO
    INDEX 00 00:00:00
    INDEX 01 00:02:00
FILE "disc (Track 32).bin" BINARY
  TRACK 32 AUDIO
    INDEX 00 00:00:00
    INDEX 01 00:02:00
FILE "disc (Track 33).bin" BINARY
  TRACK 33 AUDIO
    INDEX 00 00:00:00
    INDEX 01 00:02:00
FILE "disc (Track 34).bin" BINARY
  TRACK 34 AUDIO
    INDEX 00 00:00:00
    INDEX 01 00:02:00
FILE "disc (Track 35).bin" BINARY
  TRACK 35 AUDIO
    INDEX 00 00:00:00
    INDEX 01 00:02:00
FILE "disc (Track 36).bin" BINARY
  TRACK 36 AUDIO
    INDEX 00 00:00:00
    INDEX 01 00:02:00
FILE "disc (Track 37).bin" BINARY
  TRACK 37 AUDIO
    INDEX 00 00:00:00
    INDEX 01 00:02:00
FILE "disc (Track 38).bin" BINARY
  TRACK 38 AUDIO
    INDEX 00 00:00:00
    INDEX 01 00:02:00
FILE "disc (Track 39).bin" BINARY
  TRACK 39 AUDIO
    INDEX 00 00:00:00
    INDEX 01 00:02:00
FILE "disc (Track 40).bin" BINARY
  TRACK 40 AUDIO
    INDEX 00 00:00:00
    INDEX 01 00:02:00
FILE "disc (Track 41).bin" BINARY
  TRACK 41 AUDIO
    INDEX 00 00:00:00
    INDEX 01 00:02:00
FILE "disc (Track 42).bin" BINARY
  TRACK 42 AUDIO
    INDEX 00 00:00:00
    INDEX 01 00:02:00
FILE "disc (Track 43).bin" BINARY
  TRACK 43 AUDIO
    INDEX 00 00:00:00
    INDEX 01 00:02:00
FILE "disc (Track 44).bin" BINARY
  TRACK 44 AUDIO
    INDEX 00 00:00:00
    INDEX 01 00:02:00
FILE "disc (Track 45).bin" BINARY
  TRACK 45 AUDIO
    INDEX 00 00:00:00
    INDEX 01 00:02:00
FILE "disc (Track 46).bin" BINARY
  TRACK 46 AUDIO
    INDEX 00 00:00:00
    INDEX 01 00:02:00
FILE "disc (Track 47).bin" BINARY
  TRACK 47 AUDIO
    INDEX 00 00:00:00
    INDEX 01 00:02:00
FILE "disc (Track 48).bin" BINARY
  TRACK 48 AUDIO
    INDEX 00 00:00:00
    INDEX 01 00:02:00
FILE "disc (Track 49).bin" BINARY
  TRACK 49 AUDIO
    INDEX 00 00:00:00
    INDEX 01 00:02:00
FILE "disc (Track 50).bin" BINARY
  TRACK 50 AUDIO
    INDEX 00 00:00:00
    INDEX 01 00:02:00
FILE "disc (Track 51).bin" BINARY
  TRACK 51 AUDIO
    INDEX 00 00:00:00
    INDEX 01 00:02:00
FILE "disc (Track 52).bin" BINARY
  TRACK 52 AUDIO
    INDEX 00 00:00:00
    INDEX 01 00:02:00
FILE "disc (Track 53).bin" BINARY
  TRACK 53 AUDIO
    INDEX 00 00:00:00
    INDEX 01 00:02:00
FILE "disc (Track 54).bin" BINARY
  TRACK 54 AUDIO
    INDEX 00 00:00:00
    INDEX 01 00:02:00
FILE "disc (Track 55).bin" BINARY
  TRACK 55 AUDIO
    INDEX 00 00:00:00
    INDEX 01 00:02:00
FILE "disc (Track 56).bin" BINARY
  TRACK 56 AUDIO
    INDEX 00 00:00:00
    INDEX 01 00:02:00
FILE "disc (Track 57).bin" BINARY
  TRACK 57 AUDIO
    INDEX 00 00:00:00
    INDEX 01 00:02:00
FILE "disc (Track 58).bin" BINARY
  TRACK 58 AUDIO
    INDEX 00 00:00:00
    INDEX 01 00:02:00
FILE "disc (Track 59).bin" BINARY
  TRACK 59 AUDIO
    INDEX 00 00:00:00
    INDEX 01 00:02:00
FILE "disc (Track 60).bin" BINARY
  TRACK 60 AUDIO
    INDEX 00 00:00:00
    INDEX 01 00:02:00
FILE "disc (Track 61).bin" BINARY
  TRACK 61 AUDIO
    INDEX 00 00:00:00
    INDEX 01 00:02:00
FILE "disc (Track 62).bin" BINARY
  TRACK 62 AUDIO
    INDEX 00 00:00:00
    INDEX 01 00:02:00
FILE "disc (Track 63).bin" BINARY
  TRACK 63 AUDIO
    INDEX 00 00:00:00
    INDEX 01 00:02:00
FILE "disc (Track 64).bin" BINARY
  TRACK 64 AUDIO
    INDEX 00 00:00:00
    INDEX 01 00:02:00
FILE "disc (Track 65).bin" BINARY
  TRACK 65 AUDIO
    INDEX 00 00:00:00
    INDEX 01 00:02:00
FILE "disc (Track 66).bin" BINARY
  TRACK 66 AUDIO
    INDEX 00 00:00:00
    INDEX 01 00:02:00
FILE "disc (Track 67).bin" BINARY
  TRACK 67 AUDIO
    INDEX 00 00:00:00
    INDEX 01 00:02:00
FILE "disc (Track 68).bin" BINARY
  TRACK 68 AUDIO
    INDEX 00 00:00:00
    INDEX 01 00:02:00
FILE "disc (Track 69).bin" BINARY
  TRACK 69 AUDIO
    INDEX 00 00:00:00
    INDEX 01 00:02:00
FILE "disc (Track 70).bin" BINARY
  TRACK 70 AUDIO
    INDEX 00 00:00:00
    INDEX 01 00:02:00
FILE "disc (Track 71).bin" BINARY
  TRACK 71 AUDIO
    INDEX 00 00:00:00
    INDEX 01 00:02:00
FILE "disc (Track 72).bin" BINARY
  TRACK 72 AUDIO
    INDEX 00 00:00:00
    INDEX 01 00:02:00
FILE "disc (Track 73).bin" BINARY
  TRACK 73 AUDIO
    INDEX 00 00:00:00
    INDEX 01 00:02:00

Write Offset: 1356

DAT:

<rom name="disc (Track 01).bin" size="133635936" crc="299968d3" md5="071184a82a5c1f303c2fb856d55e02a2" sha1="9c5383b50f6c96de0602e2a7509337a2c777e278" />
<rom name="disc (Track 02).bin" size="23146032" crc="a220975c" md5="cb23b5008b2a1fcdd321622e918e62d1" sha1="a46fda112c5782e80cd2ba7ca56033a5748eefbd" />
<rom name="disc (Track 03).bin" size="8664768" crc="d8c61600" md5="904a0a41f1f1162ee226680d9041c1ba" sha1="bed8b72cd6928283c75a7f26f2d817adf971c1e0" />
<rom name="disc (Track 04).bin" size="8413104" crc="6c6c8b15" md5="1f70dca0a46a17c9a1cd57bd27d797ad" sha1="43b8e95df5c5468597784882ef011e16d1793df6" />
<rom name="disc (Track 05).bin" size="8206128" crc="f3f50788" md5="b95f1b59dce0d1482080ed652770a19d" sha1="ae64233b8569c2c22ea8329f798c51c014b0dfd4" />
<rom name="disc (Track 06).bin" size="8128512" crc="918c56e8" md5="5ccb62a9a64358a1c17974d1bee01feb" sha1="99551fd0abd07add11b36ab3a599bf507658046a" />
<rom name="disc (Track 07).bin" size="1679328" crc="fecc92b2" md5="d7f6a81c99e5197d61902f4e74c948c4" sha1="8807ebe926a788357f3024a316b0cbda99824336" />
<rom name="disc (Track 08).bin" size="2474304" crc="76f70dd8" md5="8c5b3473cee6213fc105708dfe66781e" sha1="c521b87c41804ee5776d84a23d163ab67292127b" />
<rom name="disc (Track 09).bin" size="1415904" crc="cec6f90a" md5="d0c8b9786afb7b2e181b6d8c0f9b7915" sha1="8acfee7a0df7d3187b28df8b27c584f39e700bd3" />
<rom name="disc (Track 10).bin" size="1415904" crc="575608ef" md5="20b799817336dbaad53ede5b588b0691" sha1="7c44e299f1dd34177e990f1717e2a2e8404fb98f" />
<rom name="disc (Track 11).bin" size="1415904" crc="c703fbaa" md5="25c2c62d0832ce0b6d349eeb5a4abb1a" sha1="50c37f06ee8d3131e7fcef22cfc88884609a81b1" />
<rom name="disc (Track 12).bin" size="1415904" crc="856ce075" md5="aa6547cf1f431bca964fe39076ea4cf7" sha1="a886f112327331d93c9577ec79dcc26939f93108" />
<rom name="disc (Track 13).bin" size="1415904" crc="5fe5b7bb" md5="c43197c64a20350e8b1028b53c43f0c2" sha1="2a3153c79b88fa8d2d7ec12d7c81caabc33b4bfa" />
<rom name="disc (Track 14).bin" size="1415904" crc="d9e06c34" md5="9f11d3b2a46d95e25087a8c2deca2221" sha1="624ea52f2309313e778fdd2ca90be03d5d0ba5f2" />
<rom name="disc (Track 15).bin" size="1415904" crc="f27110ec" md5="57e3f0c32fd12fb1560b3eda478a826b" sha1="96b9599c1ddcd68e16461bc00cd94dc99e9753c7" />
<rom name="disc (Track 16).bin" size="1415904" crc="ba09a83e" md5="05c224ce0a4054050a97cc6616624356" sha1="48944408eeb6b5bdb7ead7782a0934cc3a7b9fa1" />
<rom name="disc (Track 17).bin" size="1415904" crc="370fa768" md5="25ca1391d0b05493edfce9dab4c0d9d5" sha1="7bac5a95879785087b1fd78efd98c2da41a560f3" />
<rom name="disc (Track 18).bin" size="1415904" crc="aa149fb3" md5="047fe74e33ee43476a8045788d514fa0" sha1="530422906b6cdcf36e96b68fb6f1dafba9613f17" />
<rom name="disc (Track 19).bin" size="1415904" crc="f837373f" md5="6b4c121ba53a07fd184896b375a4df38" sha1="f8de10cef203b67ab7734e239562224669c69b7f" />
<rom name="disc (Track 20).bin" size="1415904" crc="89befacf" md5="78696ccc178ef24ceb0fa3a298924c60" sha1="d100e0089033226735212a480d975742ea116f92" />
<rom name="disc (Track 21).bin" size="1415904" crc="59dddb9c" md5="582998b8c75b4ef82db04ed241493bf5" sha1="2a917f5c2a8368ad5f64880c4606e806990c675d" />
<rom name="disc (Track 22).bin" size="1415904" crc="0be0b9ca" md5="7464ca4d74e603f9783384fc3d8cb53f" sha1="824b8dc1c3060902170e82e8d8b7b17354240587" />
<rom name="disc (Track 23).bin" size="1415904" crc="bf935ae3" md5="c61f83b831225608b78a658c40aab06d" sha1="d8f5e6af80d72bf6c87fdb9e6a31e9c3b23406d5" />
<rom name="disc (Track 24).bin" size="1415904" crc="9bbcff9a" md5="ab7f9f935a508e9995bff5873c8cfdfe" sha1="29823ae6795a49d99cddc955b2cece1fd53d36df" />
<rom name="disc (Track 25).bin" size="1415904" crc="f29d4e42" md5="186144b232e1b146de81c1aed5023406" sha1="941e61a367eb2a26756121731348fa99f4b3740f" />
<rom name="disc (Track 26).bin" size="1415904" crc="bcb11568" md5="3568d18c041956e799aa8f93d524cbd6" sha1="56fb83839add62e9070f7612736572495b8a4ad9" />
<rom name="disc (Track 27).bin" size="1415904" crc="d4bfb657" md5="e4176c0ed4471b9d01969c547553084f" sha1="679e8e6d2938cbcbfbe05fa4ae6e2675f9380db5" />
<rom name="disc (Track 28).bin" size="1415904" crc="ee51a491" md5="f76c769b80d05776bcf3f291d2bb4f85" sha1="5d802e54d3ac9257d30bfad51dac393b6e147a6b" />
<rom name="disc (Track 29).bin" size="1415904" crc="a844cfa3" md5="10b5a2479489b21bc1084b46e34d0af5" sha1="e755b0008869eb06b919947dd375ee4fe6b728cb" />
<rom name="disc (Track 30).bin" size="1415904" crc="d1da117c" md5="753725058a11c296335d75ae4ede22af" sha1="bea455ce9ae965c6c7109fc5c2f9576d2dc4b17a" />
<rom name="disc (Track 31).bin" size="1415904" crc="f3531d26" md5="c64cb3d5eb6b0d8c782b739f4a5e7675" sha1="c45942b3291c34662670969feb00d69ace2c2e1c" />
<rom name="disc (Track 32).bin" size="1415904" crc="e25a763b" md5="de2d7cf24a93fff8710dcb4b0919b045" sha1="79cc8899daa2651643da6423451c8af49be4af79" />
<rom name="disc (Track 33).bin" size="1422960" crc="40cb34ab" md5="443b83090d2cfb02188ba11880dc836e" sha1="d0b3665944a0eba9217a2561c9ccd4880fb4c977" />
<rom name="disc (Track 34).bin" size="1425312" crc="e18aab2b" md5="4b1ea21e35da1cd4c9e5025ee8ca917b" sha1="ffacc75e3692cf5bd03f3da96348087285a93c9b" />
<rom name="disc (Track 35).bin" size="1430016" crc="d59b0615" md5="94fd75149136a6944ac5366f4bf774cc" sha1="2ebfe81ffae3b51e9a7e634a32d5e7f6ab1fdfd1" />
<rom name="disc (Track 36).bin" size="1415904" crc="156726e9" md5="5a7040fd928253fc4ad7c0bb8848b037" sha1="b006093c26ae01ffe05eab430b03d2d363c3c3bd" />
<rom name="disc (Track 37).bin" size="1415904" crc="74ed86f1" md5="7bf39d14a9f88857131c41c59d02a891" sha1="829cba0aeb42fec183a505d336e128d74985b76e" />
<rom name="disc (Track 38).bin" size="1415904" crc="a294accb" md5="83a2886139e3746fb2e2db638bbf67b1" sha1="87fce96706ee80df855752189a7ab92044bac833" />
<rom name="disc (Track 39).bin" size="1415904" crc="88fa28e8" md5="8621e95a5c4720e2ac52130b8fac06db" sha1="4931373537f80f7082291b9c76df435e99454697" />
<rom name="disc (Track 40).bin" size="1415904" crc="e1d92810" md5="ecd55f0f1166a5f12d75b547603dea66" sha1="4dc6639f07db4036372779b85183366450c46eb7" />
<rom name="disc (Track 41).bin" size="1415904" crc="b6a79645" md5="d2d3a6fe3a3c76200b16dfb2157f051f" sha1="8af5661c7517e2d48c2dd7c365e3026c71d87afe" />
<rom name="disc (Track 42).bin" size="1415904" crc="fa91a23f" md5="e068d757240db417ccd6af5a5960da1c" sha1="021fcf4c7d5081a6c8b9c91118e180f3adc6d2f0" />
<rom name="disc (Track 43).bin" size="1415904" crc="1932d797" md5="7529009f5c66c2c82edc3fcd36d19a60" sha1="8f99578b78961ea7896fb8f6cb29f853fe2a7553" />
<rom name="disc (Track 44).bin" size="1415904" crc="cd8004ec" md5="ebf7b48758f0afe620817a7131e3205a" sha1="41d27eb3946d01e4188e0713786dbc194e033586" />
<rom name="disc (Track 45).bin" size="1415904" crc="ecf22fcd" md5="42cff48df219dc8bda1b79e6367514f8" sha1="c22aa1055b4215a155376dc8067b9c4abaab890d" />
<rom name="disc (Track 46).bin" size="1415904" crc="e8e3fb15" md5="33ce6bd17c0ad677b729ededd036133c" sha1="ab02c583a7bded7704b06c301f41ed2db92a32a4" />
<rom name="disc (Track 47).bin" size="1415904" crc="92700be2" md5="bda7cf75714614da7dddb6dd4c75647b" sha1="a029c7c965779e9107cfca8d17f4bb7a3af586bc" />
<rom name="disc (Track 48).bin" size="1415904" crc="5ebffaf2" md5="4896d39f6e46fcef677f0558ae8841b2" sha1="e34677dc25eb05039d73fd8341cd8567eca6724c" />
<rom name="disc (Track 49).bin" size="1415904" crc="b16ca338" md5="1f0524fa44f84b142e4fe28fed0bdaa9" sha1="a5e8943fac0bebc6759bc5bf16e94999e5f68b02" />
<rom name="disc (Track 50).bin" size="1415904" crc="5a5ebc1e" md5="61dcdcc48da5f49357a876c869e79ce8" sha1="7ac037cf5fa863844420b74570f6796ba8f3711a" />
<rom name="disc (Track 51).bin" size="1415904" crc="b84f3fc9" md5="eebf5ced4931e466a35479c2a8179ca5" sha1="1fdf857f83a7e45eacb1f779b46c6b24d09bfcd9" />
<rom name="disc (Track 52).bin" size="1415904" crc="a76d2583" md5="5df0b3838e372c45bbcce8ce64966bd2" sha1="31dc64012ef9a47e0696495dbce27ff05e872a89" />
<rom name="disc (Track 53).bin" size="1415904" crc="1f9162bf" md5="c042643d23901d5e050123296564c6a0" sha1="6e26c2e427a79531859287658b1b397a40a21747" />
<rom name="disc (Track 54).bin" size="1415904" crc="2210b82f" md5="5bc0184f429a2f46479d6a7ea6a37ee2" sha1="a673b41d2c58ae34d321bdafe378d3c35684b4f0" />
<rom name="disc (Track 55).bin" size="1415904" crc="f99aa4d6" md5="0f525e5bf7a64bdfb00c9a768a063624" sha1="56f173f0cfe125740ba1d64d6205551c578d0ec7" />
<rom name="disc (Track 56).bin" size="1415904" crc="cf820bac" md5="8360739fa690e2e740fd60f6c4f7faa7" sha1="5a5218aecdb17e4a76cc9ebbb7705a7c665b2a71" />
<rom name="disc (Track 57).bin" size="1415904" crc="4e6d3d0f" md5="3d3a73b6130f70b233e3895921061b02" sha1="1c6f439620c4e073cee882872e62907b123ee688" />
<rom name="disc (Track 58).bin" size="1415904" crc="32e61f5b" md5="3b5a9a3023817f8e0c74ebdd2c2e019c" sha1="8dfa9c167ee2b2c1dd1aa5e208a2dabe7db6cf8c" />
<rom name="disc (Track 59).bin" size="1926288" crc="f3f5372b" md5="fba16b4ebd0ead8445a5709a3261f743" sha1="db59b6d1a18aa586514886e5742dcd7916cacdd2" />
<rom name="disc (Track 60).bin" size="1415904" crc="fd4867ee" md5="a96a54340aaa87f2d12f2765a33d376d" sha1="cfe7738ba6f47395d5229512ceab540bb74657bb" />
<rom name="disc (Track 61).bin" size="1415904" crc="525b5bd9" md5="f783891ad61bd04f039e75030420e63f" sha1="d3f4170ba769233897bf3e5ca8ca6a9692e15c2b" />
<rom name="disc (Track 62).bin" size="1415904" crc="f82e88f0" md5="63f2c01a01341e7d348d4ce0f2e6eb29" sha1="710dd30b0b4bdbcfa39a821275353c8c9b06482b" />
<rom name="disc (Track 63).bin" size="2062704" crc="aadcc15d" md5="c5dd3742115b8095d18d8feb7ca86e16" sha1="73840b73a6ef48930c733d9e80c22228fc9823e3" />
<rom name="disc (Track 64).bin" size="2500176" crc="6a76b65f" md5="57360d67ce89aeeb94a233c7a4e322de" sha1="6288e532cbca6784de9a750ee2ab483b879fa539" />
<rom name="disc (Track 65).bin" size="2808288" crc="86be878c" md5="be7a9665134051ecaed05646930bc189" sha1="69eb7250d1b13fdca6453a0b2d1ff383399c100e" />
<rom name="disc (Track 66).bin" size="1573488" crc="ed354258" md5="957f21a8e59a7699799c1ab229582e0d" sha1="1f893d5ecfb56f909acc99a433c18cf4dfa59a09" />
<rom name="disc (Track 67).bin" size="2262624" crc="b802dd46" md5="ab93fd40865efdd493bcd587b93be6f1" sha1="a6b99eed9753156baad457d124d8491dc1dec57d" />
<rom name="disc (Track 68).bin" size="2241456" crc="9b8f9040" md5="32d5069c1fe0bc332bcdaa1b057eaf19" sha1="df836805eb30d148bd3af1f172d1a170cbb4cfc7" />
<rom name="disc (Track 69).bin" size="1415904" crc="ae7b868a" md5="3b663b5dec09e83a73734a7a707d9a2c" sha1="a3e4db834b267486fc0308489d14078511164af8" />
<rom name="disc (Track 70).bin" size="1415904" crc="b3aa131d" md5="5986e95d31c4a3f6d4b0ea9766e38fa3" sha1="aba1a9b8304eb6bb2de79fb59e2872a25a08bdb8" />
<rom name="disc (Track 71).bin" size="1415904" crc="b1cb8dd1" md5="a010df57d708a8272a9923ce06f6add6" sha1="9a390c6ff4040b46dfa89a1a2b4adc1a843f5f95" />
<rom name="disc (Track 72).bin" size="1415904" crc="a7b96bf5" md5="df5b2c106c10c6319b81da1b34731fd0" sha1="5d8bef795b30abc6273636e181034f2491d3f0b3" />
<rom name="disc (Track 73).bin" size="1063104" crc="4f9d7dcc" md5="54bce6d2afa30e301724c6b86d782dbc" sha1="9f7982c935600c8adb90e54f83534254a91162e1" />