First submission, it would've been fun to submit a ton at the same time but I'm just doing the one right now for feedback.

Game was dumped from 2 discs with seemingly identical output.

Dump 1: https://mega.nz/#!byYAwCrT!XUobsxmcPCQ1 … m_AvH4SN8w
Dump 2: https://mega.nz/#!HqA0nQ7I!S85gQ6mhZoga … 48d9BZ3k6Q

Worlds of Billy, The (USA) (En, Eo)
System: IBM PC compatible
Media: CD
Category: Games
Region: USA
Languages: English, Esperanto
Edition: V1.25

Ringcode Information:
    Mastering Code: #980809MM GLS99250 L382 MFG BY CINRAM
    Mould SID Code: IFPI 8000
Barcode: 7 78399 99250 2

Primary Volume Descriptor (PVD):

0320 : 20 20 20 20 20 20 20 20  20 20 20 20 20 31 39 30                190
0330 : 34 30 31 30 31 30 30 30  30 30 30 30 30 00 31 39   4010100000000.19
0340 : 30 34 30 31 30 31 30 30  30 30 30 30 30 30 00 00   04010100000000..
0350 : 00 00 00 00 00 00 00 00  00 00 00 00 00 00 00 00   ................
0360 : 00 00 00 00 00 00 00 00  00 00 00 00 00 00 00 00   ................
0370 : 00 01 00 00 00 00 00 00  00 00 00 00 00 00 00 00   ................

Copy Protection: None found

Cuesheet:

FILE "Worlds of Billy, The (USA) (Track 01).bin" BINARY
  TRACK 01 MODE1/2352
    INDEX 01 00:00:00
FILE "Worlds of Billy, The (USA) (Track 02).bin" BINARY
  TRACK 02 AUDIO
    INDEX 00 00:00:00
    INDEX 01 00:02:00
FILE "Worlds of Billy, The (USA) (Track 03).bin" BINARY
  TRACK 03 AUDIO
    INDEX 00 00:00:00
    INDEX 01 00:02:00
FILE "Worlds of Billy, The (USA) (Track 04).bin" BINARY
  TRACK 04 AUDIO
    INDEX 00 00:00:00
    INDEX 01 00:02:00
FILE "Worlds of Billy, The (USA) (Track 05).bin" BINARY
  TRACK 05 AUDIO
    INDEX 00 00:00:00
    INDEX 01 00:02:00
FILE "Worlds of Billy, The (USA) (Track 06).bin" BINARY
  TRACK 06 AUDIO
    INDEX 00 00:00:00
    INDEX 01 00:02:00
FILE "Worlds of Billy, The (USA) (Track 07).bin" BINARY
  TRACK 07 AUDIO
    INDEX 00 00:00:00
    INDEX 01 00:02:00
FILE "Worlds of Billy, The (USA) (Track 08).bin" BINARY
  TRACK 08 AUDIO
    INDEX 00 00:00:00
    INDEX 01 00:02:00
FILE "Worlds of Billy, The (USA) (Track 09).bin" BINARY
  TRACK 09 AUDIO
    INDEX 00 00:00:00
    INDEX 01 00:02:00
FILE "Worlds of Billy, The (USA) (Track 10).bin" BINARY
  TRACK 10 AUDIO
    INDEX 00 00:00:00
    INDEX 01 00:01:73
FILE "Worlds of Billy, The (USA) (Track 11).bin" BINARY
  TRACK 11 AUDIO
    INDEX 00 00:00:00
    INDEX 01 00:02:00
FILE "Worlds of Billy, The (USA) (Track 12).bin" BINARY
  TRACK 12 AUDIO
    INDEX 00 00:00:00
    INDEX 01 00:02:00
FILE "Worlds of Billy, The (USA) (Track 13).bin" BINARY
  TRACK 13 AUDIO
    INDEX 00 00:00:00
    INDEX 01 00:02:00
FILE "Worlds of Billy, The (USA) (Track 14).bin" BINARY
  TRACK 14 AUDIO
    INDEX 00 00:00:00
    INDEX 01 00:02:00

Media image: https://i.imgur.com/reiy7A7.jpg

Are the ringcodes the same across both discs? Both have a different Track 3.