1 (edited by maxoojc 2018-08-04 08:10:03)

Topic: [MEGA CD PAL] Verification: The Amazing Spider-Man vs. The Kingpin

Hello !
This is a verification of this game as I don't have the exact datas.

Title: The Amazing Spider-Man vs. The Kingpin
System: Sega CD / Mega CD
Media Type: CD-ROM
Category: Games
Region: Europe
Languages: English
Disc Serial: 4412  670-3451-50
Ringcode Information:
    Mastering Ring: MK-4412P-00154   1
    Additional Mould: SMJ (On the transparent ring)
Barcode: 4 974365 644123
Serial: 4412  670-3454-50
Error Count: 0
Edition/Release: Original
Primary Volume Descriptor (PVD):

0320 : 20 20 20 20 20 20 20 20  20 20 20 20 20 31 39 39                199
0330 : 33 31 31 31 36 30 39 31  35 30 32 30 30 00 31 39   3111609150200.19
0340 : 39 33 31 31 31 36 30 39  31 35 30 32 30 30 00 30   93111609150200.0
0350 : 30 30 30 30 30 30 30 30  30 30 30 30 30 30 30 00   000000000000000.
0360 : 30 30 30 30 30 30 30 30  30 30 30 30 30 30 30 30   0000000000000000
0370 : 00 01 00 00 00 00 00 00  00 00 00 00 00 00 00 00   ................

Header:

0100 : 53 45 47 41 20 4D 45 47  41 20 44 52 49 56 45 20   SEGA MEGA DRIVE 
0110 : 28 43 29 53 45 47 41 20  31 39 39 33 2E 4E 4F 56   (C)SEGA 1993.NOV
0120 : 53 50 49 44 45 52 4D 41  4E 20 56 53 20 54 48 45   SPIDERMAN VS THE
0130 : 20 4B 49 4E 47 50 49 4E  20 43 44 20 20 20 20 20    KINGPIN CD     
0140 : 20 20 20 20 20 20 20 20  20 20 20 20 20 20 20 20                   
0150 : 53 50 49 44 45 52 4D 41  4E 20 56 53 20 54 48 45   SPIDERMAN VS THE
0160 : 20 4B 49 4E 47 50 49 4E  20 43 44 20 20 20 20 20    KINGPIN CD     
0170 : 20 20 20 20 20 20 20 20  20 20 20 20 20 20 20 20                   
0180 : 47 4D 20 4D 4B 2D 34 34  31 32 20 2D 30 30 20 20   GM MK-4412 -00  
0190 : 4A 20 20 20 20 20 20 20  20 20 20 20 20 20 20 20   J               
01A0 : 20 20 20 20 20 20 20 20  20 20 20 20 20 20 20 20                   
01B0 : 20 20 20 20 20 20 20 20  20 20 20 20 20 20 20 20                   
01C0 : 20 20 20 20 20 20 20 20  20 20 20 20 20 20 20 20                   
01D0 : 20 20 20 20 20 20 20 20  20 20 20 20 20 20 20 20                   
01E0 : 20 20 20 20 20 20 20 20  20 20 20 20 20 20 20 20                   
01F0 : 45 20 20 20 20 20 20 20  20 20 20 20 20 20 20 20   E               

Cuesheet:

FILE "amazingspider (Track 01).bin" BINARY
  TRACK 01 MODE1/2352
    INDEX 01 00:00:00
FILE "amazingspider (Track 02).bin" BINARY
  TRACK 02 AUDIO
    INDEX 00 00:00:00
    INDEX 01 00:02:00
FILE "amazingspider (Track 03).bin" BINARY
  TRACK 03 AUDIO
    INDEX 00 00:00:00
    INDEX 01 00:02:00
FILE "amazingspider (Track 04).bin" BINARY
  TRACK 04 AUDIO
    INDEX 00 00:00:00
    INDEX 01 00:02:00
FILE "amazingspider (Track 05).bin" BINARY
  TRACK 05 AUDIO
    INDEX 00 00:00:00
    INDEX 01 00:02:00
FILE "amazingspider (Track 06).bin" BINARY
  TRACK 06 AUDIO
    INDEX 00 00:00:00
    INDEX 01 00:02:00
FILE "amazingspider (Track 07).bin" BINARY
  TRACK 07 AUDIO
    INDEX 00 00:00:00
    INDEX 01 00:02:00
FILE "amazingspider (Track 08).bin" BINARY
  TRACK 08 AUDIO
    INDEX 00 00:00:00
    INDEX 01 00:02:00
FILE "amazingspider (Track 09).bin" BINARY
  TRACK 09 AUDIO
    INDEX 00 00:00:00
    INDEX 01 00:02:00
FILE "amazingspider (Track 10).bin" BINARY
  TRACK 10 AUDIO
    INDEX 00 00:00:00
    INDEX 01 00:02:00
    INDEX 02 03:17:06
FILE "amazingspider (Track 11).bin" BINARY
  TRACK 11 AUDIO
    INDEX 00 00:00:00
    INDEX 01 00:02:00
FILE "amazingspider (Track 12).bin" BINARY
  TRACK 12 AUDIO
    INDEX 00 00:00:00
    INDEX 01 00:02:00
FILE "amazingspider (Track 13).bin" BINARY
  TRACK 13 AUDIO
    INDEX 00 00:00:00
    INDEX 01 00:02:00

Write Offset: 2

DAT:

<rom name="amazingspider (Track 01).bin" size="155330784" crc="61d60f64" md5="10ceaf0ed9b1899cda907d61a30dd5b4" sha1="b5d67e08f5b71e766ab9bc07bf459eb461a31f5e" />
<rom name="amazingspider (Track 02).bin" size="44462208" crc="3e9fb470" md5="2246c98c486f5175023b2d18ce6d25fb" sha1="5cac31c475c3dc6d86587c561f4aadb4e867412d" />
<rom name="amazingspider (Track 03).bin" size="35446992" crc="43c1f1f4" md5="385ec8fe56f2bfb25be9e1c7958d336a" sha1="cdb910f2fd08d7f3b2169aac7e17530afd493ee2" />
<rom name="amazingspider (Track 04).bin" size="33254928" crc="040754df" md5="3ed4061fed873695475b795d585b4c15" sha1="c8755c0c04b7612acf2abeebc5cbd7998ec60eec" />
<rom name="amazingspider (Track 05).bin" size="41350512" crc="45a0da9e" md5="6fb638d9eb306bdd5acceecb8ec16506" sha1="897f64eed99891e718326ed353173e970f32b105" />
<rom name="amazingspider (Track 06).bin" size="32514048" crc="0969042f" md5="475eb659ace060c521fc3fd417967db3" sha1="3986632fd81feb17685e3234383111f875b8b598" />
<rom name="amazingspider (Track 07).bin" size="34009920" crc="56c26da9" md5="b37ba1690736ed44f2dd08a90a34c1e4" sha1="16f6099ec756257fe8b46c152997465a3bf846d2" />
<rom name="amazingspider (Track 08).bin" size="32888016" crc="f1faa544" md5="c41a07b712dda22a32bf2954f3ecac2f" sha1="6f9261664d737aa3b29f8400093ff58fd8816085" />
<rom name="amazingspider (Track 09).bin" size="31862544" crc="f61a5116" md5="a8ddb84cf484165863f6bd83ea681586" sha1="671fc6825cf00ceafa3ec9aa2966aa300b779e5d" />
<rom name="amazingspider (Track 10).bin" size="52014480" crc="ce99409f" md5="fc48bfa7ecab668cc5743fab7d763e80" sha1="0d36b6fc4633ecd04f3f35e38cd79aafc58a22cc" />
<rom name="amazingspider (Track 11).bin" size="30234960" crc="4ff7dcff" md5="126d903ccbf3569d8f392a10c4933e7f" sha1="08044e2f234f99e088f2784b90fa2230df61041f" />
<rom name="amazingspider (Track 12).bin" size="28717920" crc="e6bf1188" md5="248970f24f45a85657be1e2d36bba42c" sha1="a4033e81dcfa755a9339ef9ac43a70a1212eac40" />
<rom name="amazingspider (Track 13).bin" size="7949760" crc="43a5fee0" md5="1a0033435cdc0d4513afb9f202a18019" sha1="d0fa7ae73752d14502451f9f4c5382a59680e04c" />

Logs: https://mega.nz/#!owxkkALb!Fzkk4KuKV3g3 … gDUcuh8Dmk

Re: [MEGA CD PAL] Verification: The Amazing Spider-Man vs. The Kingpin

There's something strange with the 10th track in this game.
http://forum.redump.org/post/30885/#p30885 -- EAC gives 0x55d53fe3, PerfectRip gives 0x62e32722, now you submit the DIC dump with 0xce99409f. Weird.

Re: [MEGA CD PAL] Verification: The Amazing Spider-Man vs. The Kingpin

Apparently, the sub-channel of 202328-202332 is broken, so perhaps main-channel is also broken. If the hash differ every time, it looks like puzzle bobble 4 of DreamCast. http://forum.redump.org/post/59656/#p59656

Or it's maybe a bug of drive. (maxoojc and painday1 uses PX-712A)

4 (edited by maxoojc 2018-08-06 17:03:50)

Re: [MEGA CD PAL] Verification: The Amazing Spider-Man vs. The Kingpin

I try anothers drive.

48/24/48A : size="52014480" crc="20da7cd2" md5="b654c0e0332fffacd751146b126957c2" sha1="4db2d7112d14f319a679b3a1e5c93fee99ea536b"

I get different CRC with random drive and EAC / Isobuster (0x4958cde1).

Is there a way to dump it properly ?

EDIT:

This is what I get when I try to make further tests. Isos are from isobuster with different drive, wav are bin from EAC wav with different gap positionning.

https://nsa39.casimages.com/img/2018/08/06/18080606280926560.png

Re: [MEGA CD PAL] Verification: The Amazing Spider-Man vs. The Kingpin

Try this tool also:
http://forum.redump.org/post/44246/#p44246 - http://www.mediafire.com/download/9b31r … dtoimg.rar

"cdtoimg.exe h: new.bin 4", where h: is the drive's letter, new.bin is the dump filename, 4 is the reading speed. Dump it 2x times and compare the checksums, then extract the track, if checksums matched.