1 (edited by oezr 2018-07-07 19:01:32)

Topic: [IBM PC] 3x New - Rome: Total War

Picture of box barcode



Media: CD
Title: Rome: Total War
Foreign title:
Disc number/letter: 1
Disc title:
Category: Games
Region: USA
Languages: English
Serial number: 32599.101.US

Mastering Code: 32599101US R4N    E
Mastering SID Code: IFPI L250
Toolstamp: 11
Mould SID Code: IFPI 4159

Barcode: 0 47875 32779 5
Errors count: 582
Comments:
    ISBN: 1-58416-780-7
Contents:
    DirectX 9.0
    GameSpy Arcade 1.4d
    Windows Media Format 9 Series SDK
    Windows Installer 2.0
    ISScript 9
Version: 1.0
Edition: Original

Primary Volume Descriptor:

0320 : 20 20 20 20 20 20 20 20  20 20 20 20 20 32 30 30                200
0330 : 34 30 39 30 37 31 32 32  30 35 31 30 30 00 32 30   4090712205100.20
0340 : 30 34 30 39 30 37 31 32  32 30 35 31 30 30 00 30   04090712205100.0
0350 : 30 30 30 30 30 30 30 30  30 30 30 30 30 30 30 00   000000000000000.
0360 : 30 30 30 30 30 30 30 30  30 30 30 30 30 30 30 30   0000000000000000
0370 : 00 01 00 00 00 00 00 00  00 00 00 00 00 00 00 00   ................

Copy Protection:
    A-Ray Scanner: SafeDisc 3.20.022
    BurnOut: SafeDisc 3.20.022
    ProtectionId: Safedisc 3.20.022

Dat:

<?xml version="1.0" encoding="UTF-8"?>
<!DOCTYPE datafile PUBLIC "-//Logiqx//DTD ROM Management Datafile//EN" "http://www.logiqx.com/Dats/datafile.dtd">
<datafile>
  <header>
    <name>-insert name-</name>
    <description>-insert description-</description>
    <version>-insert version-</version>
    <date>-insert date-</date>
    <author>-insert author-</author>
    <homepage>-insert homepage-</homepage>
    <url>-insert url-</url>
  </header>
  <game name="1">
    <category>Games</category>
    <description>1</description>
    <rom name="Rome_Total_War_Disc1.bin" size="681270912" crc="e0c47421" md5="ee1c739c2367b9ba2e5c12f49d9b7f77" sha1="cf6db9848409043f217b5bceebc23e7d856d53f6" />
  </game>
</datafile>

Cuesheet:

FILE "Rome_Total_War_Disc1.bin" BINARY
  TRACK 01 MODE1/2352
    INDEX 01 00:00:00

Write offsets: 0

Logs:
https://mega.nz/#!LfAF1QIR!WdwMcDAEAwmR … zoB-Pppr6E

----------------------------------------------------------------------

Media: CD
Title: Rome: Total War
Foreign title:
Disc number/letter: 2
Disc title:
Category: Games
Region: USA
Languages: English
Serial number: 32599.102.US

Mastering Code: 32599102US R1R
Mastering SID Code: IFPI L241
Toolstamp: 21
Mould SID Code: IFPI 4121

Barcode: 0 47875 32779 5
Errors count: 0
Comments:
    ISBN: 1-58416-780-7
Contents:
Version: 1.0
Edition: Original

Primary Volume Descriptor:

0320 : 20 20 20 20 20 20 20 20  20 20 20 20 20 32 30 30                200
0330 : 34 30 39 30 35 31 38 31  37 32 36 30 30 36 32 30   4090518172600620
0340 : 30 34 30 39 30 35 31 38  31 37 32 36 30 30 36 31   0409051817260061
0350 : 36 30 31 30 31 30 31 30  30 30 30 30 30 30 30 30   6010101000000000
0360 : 31 36 30 31 30 31 30 31  30 30 30 30 30 30 30 30   1601010100000000
0370 : 30 01 00 00 00 00 00 00  00 00 00 00 00 00 00 00   0...............

Copy Protection:
    A-Ray Scanner:
    BurnOut: could be CD/DVD-Check
    ProtectionId:

Dat:

<?xml version="1.0" encoding="UTF-8"?>
<!DOCTYPE datafile PUBLIC "-//Logiqx//DTD ROM Management Datafile//EN" "http://www.logiqx.com/Dats/datafile.dtd">
<datafile>
  <header>
    <name>-insert name-</name>
    <description>-insert description-</description>
    <version>-insert version-</version>
    <date>-insert date-</date>
    <author>-insert author-</author>
    <homepage>-insert homepage-</homepage>
    <url>-insert url-</url>
  </header>
  <game name="2">
    <category>Games</category>
    <description>2</description>
    <rom name="Rome_Total_War_Disc2.bin" size="609450240" crc="e5c21c92" md5="588b4e253bb8f19e8f1b6b71b63ff321" sha1="da691c24eef5fc8f7adba0d37d9abcd60d023a75" />
  </game>
</datafile>

Cuesheet:

FILE "Rome_Total_War_Disc2.bin" BINARY
  TRACK 01 MODE1/2352
    INDEX 01 00:00:00

Write offsets: -12

Logs:
https://mega.nz/#!7CYzHARB!U5EP8orP2yEs … nZBuemPuxw

----------------------------------------------------------------------

Media: CD
Title: Rome: Total War
Foreign title:
Disc number/letter: 3
Disc title:
Category: Games
Region: USA
Languages: English
Serial number: 32599.103.US

Mastering Code: 32599103US R1R
Mastering SID Code: IFPI L241
Toolstamp: 24
Mould SID Code: IFPI 4121

Barcode: 0 47875 32779 5
Errors count: 0
Comments:
    ISBN: 1-58416-780-7
Contents:
Version: 1.0
Edition: Original

Primary Volume Descriptor:

0320 : 20 20 20 20 20 20 20 20  20 20 20 20 20 32 30 30                200
0330 : 34 30 39 30 35 31 38 32  31 35 37 30 30 36 32 30   4090518215700620
0340 : 30 34 30 39 30 35 31 38  32 31 35 37 30 30 36 31   0409051821570061
0350 : 36 30 31 30 31 30 31 30  30 30 30 30 30 30 30 30   6010101000000000
0360 : 31 36 30 31 30 31 30 31  30 30 30 30 30 30 30 30   1601010100000000
0370 : 30 01 00 00 00 00 00 00  00 00 00 00 00 00 00 00   0...............

Copy Protection:
    A-Ray Scanner:
    BurnOut: could be CD/DVD-Check
    ProtectionId:

Dat:

<?xml version="1.0" encoding="UTF-8"?>
<!DOCTYPE datafile PUBLIC "-//Logiqx//DTD ROM Management Datafile//EN" "http://www.logiqx.com/Dats/datafile.dtd">
<datafile>
  <header>
    <name>-insert name-</name>
    <description>-insert description-</description>
    <version>-insert version-</version>
    <date>-insert date-</date>
    <author>-insert author-</author>
    <homepage>-insert homepage-</homepage>
    <url>-insert url-</url>
  </header>
  <game name="3">
    <category>Games</category>
    <description>3</description>
    <rom name="Rome_Total_War_Disc3.bin" size="740673024" crc="123718c0" md5="bd2cbfe363d1073fe314af2411dc6b55" sha1="7a0aba7dea0134bd5e90eaa7c9ef17aaacaa2143" />
  </game>
</datafile>

Cuesheet:

FILE "Rome_Total_War_Disc3.bin" BINARY
  TRACK 01 MODE1/2352
    INDEX 01 00:00:00

Write offsets: -12

Logs:
https://mega.nz/#!bbJ1EarA!kvRKtpXsab3_ … OBKk8oz1Jw