Topic: [Audio-CD] Verify Revolution: 25th Anniversary Collection (Disc 4)

Verified http://redump.org/disc/44348/ by redumping from original disc.

Mastering Code: 769.608.B 1013404    #1    manufactured by kdg
Mastering SID: IFPI LP57
Mould SID: NULL? (I was unable to find it on my disc...)

DAT:

  <game name="Revolution - 25th Anniversary Collection (Germany) (Disc 4) (Soundtrack Compilation)">
    <category>Games</category>
    <description>Revolution - 25th Anniversary Collection (Germany) (Disc 4) (Soundtrack Compilation)</description>
    <rom name="Revolution - 25th Anniversary Collection (Germany) (Disc 4) (Soundtrack Compilation) (Track 01).bin" size="15499680" crc="c11e57b3" md5="6a97999bb7c7263f75abca7112c00bb8" sha1="38daa8000d0def90306fc6e3405584ddabeb5796" />
    <rom name="Revolution - 25th Anniversary Collection (Germany) (Disc 4) (Soundtrack Compilation) (Track 02).bin" size="9177504" crc="c1824b1c" md5="30c87fded740c88e9aeab6df67822071" sha1="902b57a52b2d0fdd47009aa5257a6e8299a2f205" />
    <rom name="Revolution - 25th Anniversary Collection (Germany) (Disc 4) (Soundtrack Compilation) (Track 03).bin" size="18032784" crc="52ad34dc" md5="081be4e604a0d2d98e251a5f955a9017" sha1="88b3b438373bcc564cd81c7fde419fc0c5ff3cbd" />
    <rom name="Revolution - 25th Anniversary Collection (Germany) (Disc 4) (Soundtrack Compilation) (Track 04).bin" size="13258224" crc="86fda83f" md5="653f6f89b028093e008ce2aaabbcdecc" sha1="91582430ab78ece24511c155f8c66dfa16644c56" />
    <rom name="Revolution - 25th Anniversary Collection (Germany) (Disc 4) (Soundtrack Compilation) (Track 05).bin" size="21410256" crc="534e52a5" md5="4c4b49508e8d51f3ea1bcabaabb0f43f" sha1="f9cb652d70b7786bd35afc2aa39f103c36215de2" />
    <rom name="Revolution - 25th Anniversary Collection (Germany) (Disc 4) (Soundtrack Compilation) (Track 06).bin" size="32960928" crc="c5e203d6" md5="3f24dc3097c3946a9c198be1449690f8" sha1="19ed9e9f38e512b3bbd699e6377ebbf5d3396f70" />
    <rom name="Revolution - 25th Anniversary Collection (Germany) (Disc 4) (Soundtrack Compilation) (Track 07).bin" size="21033936" crc="21b31763" md5="d8a542e4986ffc7a05cf1fc732a110cc" sha1="112c6e2c6996d8f92577965af7c813956bcaf3d9" />
    <rom name="Revolution - 25th Anniversary Collection (Germany) (Disc 4) (Soundtrack Compilation) (Track 08).bin" size="19686240" crc="fd4c4c1b" md5="337050e350c538183158eda01e523d8d" sha1="25b8b78d542c29b0527b78945d0f7caf67994af0" />
    <rom name="Revolution - 25th Anniversary Collection (Germany) (Disc 4) (Soundtrack Compilation) (Track 09).bin" size="28597968" crc="1738b1a0" md5="610fc3dfc397d51eece60298c5b0b07d" sha1="2e00aea2be5f54c3508721d2061bd00619114f4d" />
    <rom name="Revolution - 25th Anniversary Collection (Germany) (Disc 4) (Soundtrack Compilation) (Track 10).bin" size="13853280" crc="340b6dd6" md5="d06b9cb1b406951f00b8ad5767cbcd35" sha1="92d7583c0a795aac8cf886d0d241dfa30f32eadd" />
    <rom name="Revolution - 25th Anniversary Collection (Germany) (Disc 4) (Soundtrack Compilation) (Track 11).bin" size="6830208" crc="b5bbd70d" md5="f74471c951be2f4b648fff7c90116b92" sha1="b07f34049f8a4809f22bc8e106f192dace065cf0" />
    <rom name="Revolution - 25th Anniversary Collection (Germany) (Disc 4) (Soundtrack Compilation) (Track 12).bin" size="27029184" crc="ea476f78" md5="9aeded43a82d9cb4f5cb3864289fd250" sha1="ce7dbaf1b7ff690e16ec4a21f746b2a036e29d43" />
    <rom name="Revolution - 25th Anniversary Collection (Germany) (Disc 4) (Soundtrack Compilation) (Track 13).bin" size="13705104" crc="8b72777b" md5="32018e1083bd7e5b8a9697b6df52b427" sha1="e411ea934b96e13349c877c30b27abd404d82ed8" />
    <rom name="Revolution - 25th Anniversary Collection (Germany) (Disc 4) (Soundtrack Compilation) (Track 14).bin" size="28534464" crc="3ea723e1" md5="3b4e2d786febbb6604e989130cb51f5d" sha1="deec6c80a3a35cb376233147be35ec70ce1a8235" />
    <rom name="Revolution - 25th Anniversary Collection (Germany) (Disc 4) (Soundtrack Compilation) (Track 15).bin" size="25342800" crc="c4e8debf" md5="67cb4d5d1a3509ffa55eeead6f64eb2f" sha1="0907bd6db4764433b8dbfc6bea914186acd32449" />
    <rom name="Revolution - 25th Anniversary Collection (Germany) (Disc 4) (Soundtrack Compilation) (Track 16).bin" size="10929744" crc="44757d32" md5="87f95b8681c728db20556bb942f165d4" sha1="7d212f96cc87a24555834b374c4c842e1152128e" />
    <rom name="Revolution - 25th Anniversary Collection (Germany) (Disc 4) (Soundtrack Compilation) (Track 17).bin" size="28682640" crc="ad7605d3" md5="0287e2ae67c5d18d2782272d68251999" sha1="8b2033ec34d6635efce1045418089f70665915fb" />
    <rom name="Revolution - 25th Anniversary Collection (Germany) (Disc 4) (Soundtrack Compilation) (Track 18).bin" size="18110400" crc="806396e0" md5="18b6a7b038cf82a7ef5c68376134a9c9" sha1="2e0b1c7fbe1fe043ca60ec45fc458753e292b75f" />
    <rom name="Revolution - 25th Anniversary Collection (Germany) (Disc 4) (Soundtrack Compilation) (Track 19).bin" size="8883504" crc="da290af0" md5="98e931783bc6ea976e7b721ba31b4de6" sha1="ef7e7d94742dca64928f3b4eaf44c77e4da74300" />
    <rom name="Revolution - 25th Anniversary Collection (Germany) (Disc 4) (Soundtrack Compilation) (Track 20).bin" size="41985552" crc="f3a03813" md5="7db6b1ecbcb43321c29920767589eddd" sha1="c0fe0bf2b3ff5394471a2c369bf6aaf820e5d830" />
    <rom name="Revolution - 25th Anniversary Collection (Germany) (Disc 4) (Soundtrack Compilation) (Track 21).bin" size="11139072" crc="3e9759c9" md5="c0a358fc1b13344e4181a6a17085f6a8" sha1="5de5ef2eac5c2653858048fd3a941be498b41b92" />
    <rom name="Revolution - 25th Anniversary Collection (Germany) (Disc 4) (Soundtrack Compilation) (Track 22).bin" size="60519312" crc="aff72109" md5="2891438408ba8853b4cf07f588a86d9f" sha1="be9248542dd7933ee6a5f4f4ac39cf2d80ce9199" />
  </game>

CUE:

TITLE "Revolution 25th Anniversary Soundtrack Compilation"
PERFORMER "Various Artists"
FILE "Revolution - 25th Anniversary Collection (Germany) (Disc 4) (Soundtrack Compilation) (Track 01).bin" BINARY
  TRACK 01 AUDIO
    TITLE "Lure of the Temptress - Intro"
    PERFORMER "Richard Joseph"
    INDEX 01 00:00:00
FILE "Revolution - 25th Anniversary Collection (Germany) (Disc 4) (Soundtrack Compilation) (Track 02).bin" BINARY
  TRACK 02 AUDIO
    TITLE "Lure of the Temptress - Skorl"
    PERFORMER "Richard Joseph"
    INDEX 01 00:00:00
FILE "Revolution - 25th Anniversary Collection (Germany) (Disc 4) (Soundtrack Compilation) (Track 03).bin" BINARY
  TRACK 03 AUDIO
    TITLE "Beneath a Steel Sky - Intro"
    PERFORMER "David Lowe"
    INDEX 01 00:00:00
FILE "Revolution - 25th Anniversary Collection (Germany) (Disc 4) (Soundtrack Compilation) (Track 04).bin" BINARY
  TRACK 04 AUDIO
    TITLE "Beneath a Steel Sky - Hobbins' Theme"
    PERFORMER "Dave Cummins"
    INDEX 01 00:00:00
FILE "Revolution - 25th Anniversary Collection (Germany) (Disc 4) (Soundtrack Compilation) (Track 05).bin" BINARY
  TRACK 05 AUDIO
    TITLE "Beneath a Steel Sky - Bellevue Theme"
    PERFORMER "Dave Cummins"
    INDEX 01 00:00:00
FILE "Revolution - 25th Anniversary Collection (Germany) (Disc 4) (Soundtrack Compilation) (Track 06).bin" BINARY
  TRACK 06 AUDIO
    TITLE "Broken Sword 1 - Intro"
    PERFORMER "Barrington Pheloung"
    INDEX 01 00:00:00
FILE "Revolution - 25th Anniversary Collection (Germany) (Disc 4) (Soundtrack Compilation) (Track 07).bin" BINARY
  TRACK 07 AUDIO
    TITLE "Broken Sword 1 - Pub in Ireland"
    PERFORMER "Barrington Pheloung"
    INDEX 01 00:00:00
FILE "Revolution - 25th Anniversary Collection (Germany) (Disc 4) (Soundtrack Compilation) (Track 08).bin" BINARY
  TRACK 08 AUDIO
    TITLE "Broken Sword 1 - Templar History Lesson"
    PERFORMER "Barrington Pheloung"
    INDEX 01 00:00:00
FILE "Revolution - 25th Anniversary Collection (Germany) (Disc 4) (Soundtrack Compilation) (Track 09).bin" BINARY
  TRACK 09 AUDIO
    TITLE "Broken Sword 2 - Intro"
    PERFORMER "Barrington Pheloung"
    INDEX 01 00:00:00
FILE "Revolution - 25th Anniversary Collection (Germany) (Disc 4) (Soundtrack Compilation) (Track 10).bin" BINARY
  TRACK 10 AUDIO
    TITLE "Broken Sword 2 - Quaramonte"
    PERFORMER "Barrington Pheloung"
    INDEX 01 00:00:00
FILE "Revolution - 25th Anniversary Collection (Germany) (Disc 4) (Soundtrack Compilation) (Track 11).bin" BINARY
  TRACK 11 AUDIO
    TITLE "Broken Sword 2 - Marseilles"
    PERFORMER "Barrington Pheloung"
    INDEX 01 00:00:00
FILE "Revolution - 25th Anniversary Collection (Germany) (Disc 4) (Soundtrack Compilation) (Track 12).bin" BINARY
  TRACK 12 AUDIO
    TITLE "In Cold Blood - Intro"
    PERFORMER "Barrington Pheloung"
    INDEX 01 00:00:00
FILE "Revolution - 25th Anniversary Collection (Germany) (Disc 4) (Soundtrack Compilation) (Track 13).bin" BINARY
  TRACK 13 AUDIO
    TITLE "In Cold Blood - Explosion"
    PERFORMER "Barrington Pheloung"
    INDEX 01 00:00:00
FILE "Revolution - 25th Anniversary Collection (Germany) (Disc 4) (Soundtrack Compilation) (Track 14).bin" BINARY
  TRACK 14 AUDIO
    TITLE "Broken Sword 3 - On The Edge"
    PERFORMER "Ben McCullough"
    INDEX 01 00:00:00
FILE "Revolution - 25th Anniversary Collection (Germany) (Disc 4) (Soundtrack Compilation) (Track 15).bin" BINARY
  TRACK 15 AUDIO
    TITLE "Broken Sword 3 - Big Box Puzzle"
    PERFORMER "Ben McCullough"
    INDEX 01 00:00:00
FILE "Revolution - 25th Anniversary Collection (Germany) (Disc 4) (Soundtrack Compilation) (Track 16).bin" BINARY
  TRACK 16 AUDIO
    TITLE "Broken Sword 3 - Petra Arrival"
    PERFORMER "Ben McCullough"
    INDEX 01 00:00:00
FILE "Revolution - 25th Anniversary Collection (Germany) (Disc 4) (Soundtrack Compilation) (Track 17).bin" BINARY
  TRACK 17 AUDIO
    TITLE "Broken Sword 4 - Egypt Introduction"
    PERFORMER "Ben McCullough"
    INDEX 01 00:00:00
FILE "Revolution - 25th Anniversary Collection (Germany) (Disc 4) (Soundtrack Compilation) (Track 18).bin" BINARY
  TRACK 18 AUDIO
    TITLE "Broken Sword 4 - Phoenix"
    PERFORMER "Ben McCullough"
    INDEX 01 00:00:00
FILE "Revolution - 25th Anniversary Collection (Germany) (Disc 4) (Soundtrack Compilation) (Track 19).bin" BINARY
  TRACK 19 AUDIO
    TITLE "Broken Sword 4 - Mysteries Uncovered"
    PERFORMER "Ben McCullough"
    INDEX 01 00:00:00
FILE "Revolution - 25th Anniversary Collection (Germany) (Disc 4) (Soundtrack Compilation) (Track 20).bin" BINARY
  TRACK 20 AUDIO
    TITLE "Broken Sword 5 - Intro"
    PERFORMER "Barrington Pheloung"
    INDEX 01 00:00:00
FILE "Revolution - 25th Anniversary Collection (Germany) (Disc 4) (Soundtrack Compilation) (Track 21).bin" BINARY
  TRACK 21 AUDIO
    TITLE "Broken Sword 5 - Someone's Coming"
    PERFORMER "Barrington Pheloung"
    INDEX 01 00:00:00
FILE "Revolution - 25th Anniversary Collection (Germany) (Disc 4) (Soundtrack Compilation) (Track 22).bin" BINARY
  TRACK 22 AUDIO
    TITLE "Broken Sword 5 - Jasmine"
    PERFORMER "The Hairy Lobsters"
    INDEX 01 00:00:00

PVD: empty.

Re: [Audio-CD] Verify Revolution: 25th Anniversary Collection (Disc 4)

Bump...