1 (edited by tossEAC 2018-02-10 23:58:58)

Topic: [ADDED][PSX] 1 Demo, and 3 Blaze Discs

Hope I have done everything ok.

Some of the Blaze discs that had Audio, had no error on the last sector of the data track, unlike psx with audio.

The official demo disc had 2 errors, and the uncounted one at the last sector of the data track.

Some discs had rings other did not.

DSP Music Revelation (Europe)

Barcode: 7 09458 01505 4

Edition: Original

Toolstamp or Mastering Code (engraved/stamped): SXMR-UK

EXE date: 2002-09-19
EDC: No
LibCrypt: Yes
Errors count: 0
Factory write offset: -12

FILE "DSP Music Revelation (Europe) (Track 1).bin" BINARY
  TRACK 01 MODE2/2352
    INDEX 01 00:00:00
FILE "DSP Music Revelation (Europe) (Track 2).bin" BINARY
  TRACK 02 AUDIO
    INDEX 00 00:00:00
    INDEX 01 00:02:00

    <rom name="DSP Music Revelation (Europe) (Track 1).bin" size="9770208" crc="ba610145" md5="1f09386c95edc6730a4424a3ec59cad1" sha1="a1c1fdeb124ecebc993314d4c5088d4371c535eb" />
    <rom name="DSP Music Revelation (Europe) (Track 2).bin" size="32356464" crc="bb550936" md5="952d15640b57c777f98881d396c811b9" sha1="17eb815534b854c7476ed098571ee8d74c6554a5" />

0320 : 20 20 20 20 20 20 20 20  20 20 20 20 20 32 30 30                200
0330 : 32 30 39 31 39 31 33 33  36 34 35 32 33 00 32 30   2091913364523.20
0340 : 30 32 30 39 31 39 31 33  33 36 34 35 32 33 00 30   02091913364523.0
0350 : 30 30 30 30 30 30 30 30  30 30 30 30 30 30 30 00   000000000000000.
0360 : 30 30 30 30 30 30 30 30  30 30 30 30 30 30 30 30   0000000000000000
0370 : 00 01 00 00 00 00 00 00  00 00 00 00 00 00 00 00   ................

MSF: 03:08:05 Q-Data: 01 02 01 02 08 51 00 03 08 05 43 90
MSF: 03:08:10 Q-Data: 01 02 01 02 08 56 00 03 08 10 66 d0
MSF: 03:09:56 Q-Data: 01 02 01 02 10 27 00 03 09 56 dd f2
MSF: 03:09:61 Q-Data: 01 02 01 02 10 32 00 03 09 61 bc 4b
MSF: 03:13:10 Q-Data: 01 02 01 02 13 56 00 03 13 10 60 7f
MSF: 03:13:15 Q-Data: 01 02 01 02 13 61 00 03 13 15 5b e0
MSF: 03:14:29 Q-Data: 01 02 01 02 15 00 00 03 14 29 0b c4
MSF: 03:14:34 Q-Data: 01 02 01 02 15 05 00 03 14 34 eb 0f
MSF: 03:15:24 Q-Data: 01 02 01 02 15 70 00 03 15 24 f4 de
MSF: 03:15:29 Q-Data: 01 02 01 02 16 00 00 03 15 29 f6 15
MSF: 03:18:49 Q-Data: 01 02 01 02 19 20 00 03 18 49 21 58
MSF: 03:18:54 Q-Data: 01 02 01 02 19 25 00 03 18 54 c1 93
MSF: 03:20:56 Q-Data: 01 02 01 02 21 27 00 03 20 56 0b a0
MSF: 03:20:61 Q-Data: 01 02 01 02 21 32 00 03 20 61 6a 19
MSF: 03:21:55 Q-Data: 01 02 01 02 22 26 00 03 21 55 6c 43
MSF: 03:21:60 Q-Data: 01 02 01 02 22 31 00 03 21 60 69 3b
MSF: 03:23:17 Q-Data: 01 02 01 02 23 63 00 03 23 17 15 38
MSF: 03:23:22 Q-Data: 01 02 01 02 23 68 00 03 23 22 9f 31
MSF: 03:24:12 Q-Data: 01 02 01 02 24 58 00 03 24 12 f4 5a
MSF: 03:24:17 Q-Data: 01 02 01 02 24 63 00 03 24 17 44 ee
MSF: 03:25:03 Q-Data: 01 02 01 02 25 49 00 03 25 03 2e d0
MSF: 03:25:08 Q-Data: 01 02 01 02 25 54 00 03 25 08 ba 9b
MSF: 03:28:28 Q-Data: 01 02 01 02 28 74 00 03 28 28 ae 52
MSF: 03:28:33 Q-Data: 01 02 01 02 29 04 00 03 28 33 55 2e
MSF: 03:32:19 Q-Data: 01 02 01 02 32 65 00 03 32 19 56 15
MSF: 03:32:24 Q-Data: 01 02 01 02 32 70 00 03 32 24 96 e6
MSF: 03:33:56 Q-Data: 01 02 01 02 34 27 00 03 33 56 04 05
MSF: 03:33:61 Q-Data: 01 02 01 02 34 32 00 03 33 61 65 bc
MSF: 03:34:51 Q-Data: 01 02 01 02 35 22 00 03 34 51 8b 82
MSF: 03:34:56 Q-Data: 01 02 01 02 35 27 00 03 34 56 d8 32
MSF: 03:35:42 Q-Data: 01 02 01 02 36 13 00 03 35 42 f2 be
MSF: 03:35:47 Q-Data: 01 02 01 02 36 18 00 03 35 47 4e e4
MSF: 09:20:45 Q-Data: 00 72 01 02 36 18 00 03 35 47 4e e4
MSF: 09:20:50 Q-Data: 40 72 01 02 36 18 00 03 35 47 4e e4
MSF: 09:22:16 Q-Data: c0 72 01 02 36 18 00 03 35 47 4e e4
MSF: 09:22:21 Q-Data: c0 72 01 02 36 18 00 03 35 47 4e e4
MSF: 09:25:57 Q-Data: c0 72 01 02 36 18 00 03 35 47 4e e4
MSF: 09:25:62 Q-Data: c0 72 01 02 36 18 00 03 35 47 4e e4
MSF: 09:27:55 Q-Data: c0 72 01 02 36 18 00 03 35 47 4e e4
MSF: 09:27:60 Q-Data: c0 72 01 02 36 18 00 03 35 47 4e e4
MSF: 09:28:71 Q-Data: c0 72 01 02 36 18 00 03 35 47 4e e4
MSF: 09:29:01 Q-Data: c0 72 01 02 36 18 00 03 35 47 4e e4
MSF: 09:30:63 Q-Data: c0 72 01 02 36 18 00 03 35 47 4e e4
MSF: 09:30:68 Q-Data: c0 72 01 02 36 18 00 03 35 47 4e e4
MSF: 09:33:37 Q-Data: c0 72 01 02 36 18 00 03 35 47 4e e4
MSF: 09:33:42 Q-Data: c0 72 01 02 36 18 00 03 35 47 4e e4
MSF: 09:35:52 Q-Data: c0 72 01 02 36 18 00 03 35 47 4e e4
MSF: 09:35:57 Q-Data: c0 72 01 02 36 18 00 03 35 47 4e e4
MSF: 09:37:14 Q-Data: c0 72 01 02 36 18 00 03 35 47 4e e4
MSF: 09:37:19 Q-Data: c0 72 01 02 36 18 00 03 35 47 4e e4
MSF: 09:38:04 Q-Data: c0 72 01 02 36 18 00 03 35 47 4e e4
MSF: 09:38:09 Q-Data: c0 72 01 02 36 18 00 03 35 47 4e e4
MSF: 09:38:58 Q-Data: c0 72 01 02 36 18 00 03 35 47 4e e4
MSF: 09:38:63 Q-Data: c0 72 01 02 36 18 00 03 35 47 4e e4
MSF: 09:41:59 Q-Data: c0 72 01 02 36 18 00 03 35 47 4e e4
MSF: 09:41:64 Q-Data: c0 72 01 02 36 18 00 03 35 47 4e e4
MSF: 09:46:13 Q-Data: c0 72 01 02 36 18 00 03 35 47 4e e4
MSF: 09:46:18 Q-Data: c0 72 01 02 36 18 00 03 35 47 4e e4
MSF: 09:47:29 Q-Data: c0 72 01 02 36 18 00 03 35 47 4e e4
MSF: 09:47:34 Q-Data: c0 72 01 02 36 18 00 03 35 47 4e e4
MSF: 09:48:59 Q-Data: c0 72 01 02 36 18 00 03 35 47 4e e4
MSF: 09:48:64 Q-Data: c0 72 01 02 36 18 00 03 35 47 4e e4
MSF: 09:50:62 Q-Data: c0 72 01 02 36 18 00 03 35 47 4e e4
MSF: 09:50:67 Q-Data: c0 72 01 02 36 18 00 03 35 47 4e e4

Original sectors: 0
LC1 sectors:      0
LC2 sectors:      0
Other sectors:    64

__________________________________________________________________________

Fun + Learning 2 (Europe)

Barcode: 7 09458 01538 2

Edition: Original

EXE date: 2003-01-27
EDC: No
LibCrypt: Yes
Errors count: 0
Factory write offset: -12

FILE "Fun + Learning 2 (Europe) (Track 01).bin" BINARY
  TRACK 01 MODE2/2352
    INDEX 01 00:00:00
FILE "Fun + Learning 2 (Europe) (Track 02).bin" BINARY
  TRACK 02 AUDIO
    INDEX 00 00:00:00
    INDEX 01 00:02:00
FILE "Fun + Learning 2 (Europe) (Track 03).bin" BINARY
  TRACK 03 AUDIO
    INDEX 00 00:00:00
    INDEX 01 00:02:00
FILE "Fun + Learning 2 (Europe) (Track 04).bin" BINARY
  TRACK 04 AUDIO
    INDEX 00 00:00:00
    INDEX 01 00:02:00
FILE "Fun + Learning 2 (Europe) (Track 05).bin" BINARY
  TRACK 05 AUDIO
    INDEX 00 00:00:00
    INDEX 01 00:02:00
FILE "Fun + Learning 2 (Europe) (Track 06).bin" BINARY
  TRACK 06 AUDIO
    INDEX 00 00:00:00
    INDEX 01 00:02:00
FILE "Fun + Learning 2 (Europe) (Track 07).bin" BINARY
  TRACK 07 AUDIO
    INDEX 00 00:00:00
    INDEX 01 00:02:00
FILE "Fun + Learning 2 (Europe) (Track 08).bin" BINARY
  TRACK 08 AUDIO
    INDEX 00 00:00:00
    INDEX 01 00:02:00
FILE "Fun + Learning 2 (Europe) (Track 09).bin" BINARY
  TRACK 09 AUDIO
    INDEX 00 00:00:00
    INDEX 01 00:02:00
FILE "Fun + Learning 2 (Europe) (Track 10).bin" BINARY
  TRACK 10 AUDIO
    INDEX 00 00:00:00
    INDEX 01 00:02:00

    <rom name="Fun + Learning 2 (Europe) (Track 01).bin" size="10155936" crc="83c06f67" md5="44f0b96e25ad46c20ef011f8de824f6e" sha1="71ba8c072da3dc6563ef8fb25f11632118996c32" />
    <rom name="Fun + Learning 2 (Europe) (Track 02).bin" size="10501680" crc="1856f8c0" md5="460b53bbdd30a51a6e2b3bdea8de2aa1" sha1="00aa8b4a1a2e5d3d4f4d823cc805ca450b92bd34" />
    <rom name="Fun + Learning 2 (Europe) (Track 03).bin" size="10210032" crc="1a4c5138" md5="669eb40a49e08b487eac54210c3276ec" sha1="74c1ed376d3ee13ce115176d9898af51387bec92" />
    <rom name="Fun + Learning 2 (Europe) (Track 04).bin" size="10790976" crc="017f70d0" md5="f28a5027856ff945b72f51eeb1831c8b" sha1="bdd7f1555b3042475f2b79fe6b8fce440fe9cb7e" />
    <rom name="Fun + Learning 2 (Europe) (Track 05).bin" size="10790976" crc="50779114" md5="ad8fd9c1c2d4d2587b79bf32c8762673" sha1="7d3d891b699c698d2b8c8de16b844d1e1aeff0cc" />
    <rom name="Fun + Learning 2 (Europe) (Track 06).bin" size="10790976" crc="b15604b6" md5="30efa0f9aefa20c6ec1e8244e359db90" sha1="fb5461fe504249ef6ab0c4e2fee992b8e929dd2b" />
    <rom name="Fun + Learning 2 (Europe) (Track 07).bin" size="10790976" crc="cef16479" md5="af2c69448518de6a40f9846406ebe494" sha1="9f2dc8f39c27ddb8ec5d7db40e9cd613085586f1" />
    <rom name="Fun + Learning 2 (Europe) (Track 08).bin" size="10790976" crc="895e5c3f" md5="6bb33cb0a2d603df260bf7a5448800eb" sha1="b11da29940166fcc38a0fd8587b69e5b443c87c8" />
    <rom name="Fun + Learning 2 (Europe) (Track 09).bin" size="10790976" crc="7db64bd1" md5="5ffe2096b6d349472824bb2008d127f3" sha1="07127f8ff38eda30d880e42a9b4fd6d005706954" />
    <rom name="Fun + Learning 2 (Europe) (Track 10).bin" size="11237856" crc="1d41e00f" md5="f4ac3ad1031213a5a218c6d6def2407e" sha1="49dd11d60a2f628d00b0e1beeebc32807613bfed" />

0320 : 20 20 20 20 20 20 20 20  20 20 20 20 20 32 30 30                200
0330 : 33 30 31 32 37 31 31 31  32 35 32 32 36 00 32 30   3012711125226.20
0340 : 30 33 30 31 32 37 31 31  31 32 35 32 32 36 00 30   03012711125226.0
0350 : 30 30 30 30 30 30 30 30  30 30 30 30 30 30 30 00   000000000000000.
0360 : 30 30 30 30 30 30 30 30  30 30 30 30 30 30 30 30   0000000000000000
0370 : 00 01 00 00 00 00 00 00  00 00 00 00 00 00 00 00   ................

MSF: 03:08:05 Q-Data: 01 04 01 00 09 06 00 03 08 05 4e bd
MSF: 03:08:10 Q-Data: 01 04 01 00 09 11 00 03 08 10 6f a7
MSF: 03:09:56 Q-Data: 01 04 01 00 10 57 00 03 09 56 fa 1f
MSF: 03:09:61 Q-Data: 01 04 01 00 10 62 00 03 09 61 93 12
MSF: 03:13:10 Q-Data: 01 04 01 00 14 11 00 03 13 10 e4 e9
MSF: 03:13:15 Q-Data: 01 04 01 00 14 16 00 03 13 15 d3 98
MSF: 03:14:29 Q-Data: 01 04 01 00 15 30 00 03 14 29 3d 41
MSF: 03:14:34 Q-Data: 01 04 01 00 15 35 00 03 14 34 dd 8a
MSF: 03:15:24 Q-Data: 01 04 01 00 16 25 00 03 15 24 36 30
MSF: 03:15:29 Q-Data: 01 04 01 00 16 30 00 03 15 29 c0 90
MSF: 03:18:49 Q-Data: 01 04 01 00 19 50 00 03 18 49 06 b5
MSF: 03:18:54 Q-Data: 01 04 01 00 19 55 00 03 18 54 e6 7e
MSF: 03:20:56 Q-Data: 01 04 01 00 21 57 00 03 20 56 2c 4d
MSF: 03:20:61 Q-Data: 01 04 01 00 21 62 00 03 20 61 45 40
MSF: 03:21:55 Q-Data: 01 04 01 00 22 56 00 03 21 55 4b ae
MSF: 03:21:60 Q-Data: 01 04 01 00 22 61 00 03 21 60 46 62
MSF: 03:23:17 Q-Data: 01 04 01 00 24 18 00 03 23 17 16 6b
MSF: 03:23:22 Q-Data: 01 04 01 00 24 23 00 03 23 22 90 8c
MSF: 03:24:12 Q-Data: 01 04 01 00 25 13 00 03 24 12 76 06
MSF: 03:24:17 Q-Data: 01 04 01 00 25 18 00 03 24 17 ca 5c
MSF: 03:25:03 Q-Data: 01 04 01 00 26 04 00 03 25 03 ea 49
MSF: 03:25:08 Q-Data: 01 04 01 00 26 09 00 03 25 08 7a 58
MSF: 03:28:28 Q-Data: 01 04 01 00 29 29 00 03 28 28 e5 d1
MSF: 03:28:33 Q-Data: 01 04 01 00 29 34 00 03 28 33 63 ab
MSF: 03:32:19 Q-Data: 01 04 01 00 33 20 00 03 32 19 1b e1
MSF: 03:32:24 Q-Data: 01 04 01 00 33 25 00 03 32 24 df 48
MSF: 03:33:56 Q-Data: 01 04 01 00 34 57 00 03 33 56 23 e8
MSF: 03:33:61 Q-Data: 01 04 01 00 34 62 00 03 33 61 4a e5
MSF: 03:34:51 Q-Data: 01 04 01 00 35 52 00 03 34 51 ac 6f
MSF: 03:34:56 Q-Data: 01 04 01 00 35 57 00 03 34 56 ff df
MSF: 03:35:42 Q-Data: 01 04 01 00 36 43 00 03 35 42 dd e7
MSF: 03:35:47 Q-Data: 01 04 01 00 36 48 00 03 35 47 61 bd
MSF: 09:20:45 Q-Data: 01 10 01 00 14 43 00 09 20 45 e7 1e
MSF: 09:20:50 Q-Data: 01 10 01 00 14 48 00 09 20 50 49 75
MSF: 09:22:16 Q-Data: 01 10 01 00 16 14 00 09 22 16 12 4c
MSF: 09:22:21 Q-Data: 01 10 01 00 16 19 00 09 22 21 75 82
MSF: 09:25:57 Q-Data: 01 10 01 00 19 55 00 09 25 57 ad 04
MSF: 09:25:62 Q-Data: 01 10 01 00 19 60 00 09 25 62 e4 4b
MSF: 09:27:55 Q-Data: 01 10 01 00 21 53 00 09 27 55 04 6f
MSF: 09:27:60 Q-Data: 01 10 01 00 21 58 00 09 27 60 8e 66
MSF: 09:28:71 Q-Data: 01 10 01 00 22 69 00 09 28 71 f4 17
MSF: 09:29:01 Q-Data: 01 10 01 00 22 74 00 09 29 01 9c 91
MSF: 09:30:63 Q-Data: 01 10 01 00 24 61 00 09 30 63 c3 72
MSF: 09:30:68 Q-Data: 01 10 01 00 24 66 00 09 30 68 15 cd
MSF: 09:33:37 Q-Data: 01 10 01 00 27 35 00 09 33 37 de 84
MSF: 09:33:42 Q-Data: 01 10 01 00 27 40 00 09 33 42 ce 67
MSF: 09:35:52 Q-Data: 01 10 01 00 29 50 00 09 35 52 f2 09
MSF: 09:35:57 Q-Data: 01 10 01 00 29 55 00 09 35 57 81 fb
MSF: 09:37:14 Q-Data: 01 10 01 00 31 12 00 09 37 14 fe 44
MSF: 09:37:19 Q-Data: 01 10 01 00 31 17 00 09 37 19 0c be
MSF: 09:38:04 Q-Data: 01 10 01 00 32 02 00 09 38 04 36 f1
MSF: 09:38:09 Q-Data: 01 10 01 00 32 07 00 09 38 09 c4 0b
MSF: 09:38:58 Q-Data: 01 10 01 00 32 56 00 09 38 58 31 bc
MSF: 09:38:63 Q-Data: 01 10 01 00 32 61 00 09 38 63 dd be
MSF: 09:41:59 Q-Data: 01 10 01 00 35 57 00 09 41 59 f1 4c
MSF: 09:41:64 Q-Data: 01 10 01 00 35 62 00 09 41 64 39 0b
MSF: 09:46:13 Q-Data: 01 10 01 00 40 11 00 09 46 13 5b 25
MSF: 09:46:18 Q-Data: 01 10 01 00 40 16 00 09 46 18 8d 9a
MSF: 09:47:29 Q-Data: 01 10 01 00 41 27 00 09 47 29 7b c6
MSF: 09:47:34 Q-Data: 01 10 01 00 41 32 00 09 47 34 9f 57
MSF: 09:48:59 Q-Data: 01 10 01 00 42 57 00 09 48 59 c6 09
MSF: 09:48:64 Q-Data: 01 10 01 00 42 62 00 09 48 64 0e 4e
MSF: 09:50:62 Q-Data: 01 10 01 00 44 60 00 09 50 62 2d 30
MSF: 09:50:67 Q-Data: 01 10 01 00 44 65 00 09 50 67 5e c2

Original sectors: 0
LC1 sectors:      0
LC2 sectors:      0
Other sectors:    64

__________________________________________________________________________

Official UK PlayStation Magazine CD 2 (UK)

Barcode: No Cover

Edition: Original

Mastering Code (laser branded/etched): DADC Austria    A0100178654-0101    35
Mastering SID Code: IFPI L555
Toolstamp or Mastering Code (engraved/stamped): A3
Mould SID Code: IFPI 94E1

Serial: SLES-00150
EXE date: 1995-11-07
EDC: NoEDC
LibCrypt: No
Errors count: 2 + 1 (@ 93506)
Factory write offset: +2

FILE "Official UK PlayStation Magazine CD 2 (UK) (Track 1).bin" BINARY
  TRACK 01 MODE2/2352
    INDEX 01 00:00:00
FILE "Official UK PlayStation Magazine CD 2 (UK) (Track 2).bin" BINARY
  TRACK 02 AUDIO
    INDEX 00 00:00:00
    INDEX 01 00:02:00
FILE "Official UK PlayStation Magazine CD 2 (UK) (Track 3).bin" BINARY
  TRACK 03 AUDIO
    INDEX 00 00:00:00
    INDEX 01 00:02:00
FILE "Official UK PlayStation Magazine CD 2 (UK) (Track 4).bin" BINARY
  TRACK 04 AUDIO
    INDEX 00 00:00:00
    INDEX 01 00:02:00
FILE "Official UK PlayStation Magazine CD 2 (UK) (Track 5).bin" BINARY
  TRACK 05 AUDIO
    INDEX 00 00:00:00
    INDEX 01 00:02:00
FILE "Official UK PlayStation Magazine CD 2 (UK) (Track 6).bin" BINARY
  TRACK 06 AUDIO
    INDEX 00 00:00:00
    INDEX 01 00:02:00

    <rom name="Official UK PlayStation Magazine CD 2 (UK) (Track 1).bin" size="219575664" crc="65b88a7c" md5="307de9101cd58a955be517f2ac8c3a3a" sha1="dbbf7c532a0a06a0d419c7946a777cb5147f1b52" />
    <rom name="Official UK PlayStation Magazine CD 2 (UK) (Track 2).bin" size="18841872" crc="5cd7c4a9" md5="9b6f3b35599b8596c3128331275e4e18" sha1="b2543c27fac214aa226ea141fcafe71cb40ee345" />
    <rom name="Official UK PlayStation Magazine CD 2 (UK) (Track 3).bin" size="10574592" crc="c2d11eac" md5="b85165213707d30a7f4094a6a523386f" sha1="69d0e8fc80c394266dee191429716b8904d24438" />
    <rom name="Official UK PlayStation Magazine CD 2 (UK) (Track 4).bin" size="12249216" crc="328250ee" md5="96fac342643c37820d7f1d585ac9794e" sha1="e6de643322e27c916353c27ff75d164bde1c3124" />
    <rom name="Official UK PlayStation Magazine CD 2 (UK) (Track 5).bin" size="11814096" crc="1bd466b9" md5="f31b9d79b04be81a31eab9e7e28e5991" sha1="f64fd47d519d2d02bf40b842c8dbd9fac4703cf9" />
    <rom name="Official UK PlayStation Magazine CD 2 (UK) (Track 6).bin" size="1281840" crc="bfa0a1c3" md5="b2ad1a4ef5a5cdb1ac7137316ce60234" sha1="793ed39d3762eada2fa89e18c225acfd12650601" />

0320 : 20 20 20 20 20 20 20 20  20 20 20 20 20 31 39 39                199
0330 : 35 31 30 33 31 30 39 30  35 32 38 30 30 24 31 39   5103109052800$19
0340 : 39 35 31 31 30 38 32 30  30 30 30 30 30 30 00 30   95110820000000.0
0350 : 30 30 30 30 30 30 30 30  30 30 30 30 30 30 30 00   000000000000000.
0360 : 30 30 30 30 30 30 30 30  30 30 30 30 30 30 30 30   0000000000000000
0370 : 00 01 00 00 00 00 00 00  00 00 00 00 00 00 00 00   ................

__________________________________________________________________________

Virtual Fireplace Screensaver (Europe)

Barcode: 7 09458 01536 8

Edition: Original

Mastering Code (laser branded/etched): SX FIRE SCREENSAVER (PAL)

EXE date: 2002-09-30
EDC: No
LibCrypt: No
Errors count: 0
Factory write offset: -12

FILE "Virtual Fireplace Screensaver (Europe).bin" BINARY
  TRACK 01 MODE2/2352
    INDEX 01 00:00:00

    <rom name="Virtual Fireplace Screensaver (Europe).bin" size="491464512" crc="98417381" md5="743dd588c3734d5890d0aa2ebad812ab" sha1="72de6100ab598491e8178f95882f012ad19ae5ec" />

0320 : 20 20 20 20 20 20 20 20  20 20 20 20 20 32 30 30                200
0330 : 32 31 32 30 33 31 33 33  39 32 34 31 33 00 32 30   2120313392413.20
0340 : 30 32 31 32 30 33 31 33  33 39 32 34 31 33 00 30   02120313392413.0
0350 : 30 30 30 30 30 30 30 30  30 30 30 30 30 30 30 00   000000000000000.
0360 : 30 30 30 30 30 30 30 30  30 30 30 30 30 30 30 30   0000000000000000
0370 : 00 01 00 00 00 00 00 00  00 00 00 00 00 00 00 00   ................

__________________________________________________________________________

Do I need to include something for the ones with LibCrypt, the sectors.txt?

He who controls the SPICE... controls the UNIVERSE!
The SPICE must flow.

Re: [ADDED][PSX] 1 Demo, and 3 Blaze Discs

Could use some scans of the disc front and box if possible.

Thanks for these!

Re: [ADDED][PSX] 1 Demo, and 3 Blaze Discs

Just what redump needed, a renovation with a Fireplace xD. Aquarium disc coming soon.

I wish I could find Fun + Learning (the first one). Does anyone have this, know where I can buy?

Also, a protip: the DSP disc contains a mini game if you want to play something different smile

Re: [ADDED][PSX] 1 Demo, and 3 Blaze Discs

ack2121 wrote:

Could use some scans of the disc front and box if possible.

Thanks for these!


No worries will do it all soon, I also have more of these, that I will get on with also soon.

He who controls the SPICE... controls the UNIVERSE!
The SPICE must flow.