Topic: [ADDED][PS2] Star Wars Verification's

Pictures & CD game DIC logs: https://mega.nz/#F!JSQVSBbS!WfnwpuJPx92O-RDk37lONQ

http://redump.org/disc/1083/
Game Name: Star Wars: Battlefront
Region: USA
Languages: English
Game ID: SLUS 20898GH
EXE: SLUS_208.98
EXE date: 2004-08-02
Version: 1.02
Edition: Greatest Hits
Barcode: 0 23272 32435 3

Comments:
LucasArts ID: 3243530GH

Mastering Code (Ringcode): PDSS-011645A1<TAB>2
Mastering SID Code: IFPI L331
Toolstamp: A01
Mould SID Code: IFPI QW4E

Mould SID Code: IFPI QW4F

Size: 4697260032
CRC-32: 12A56268
MD5: 3D8E481E3E78B9E2AF6B493857DB6E47
SHA-1: 99D1CFED9237EEE823D6595AFEFB7FAFA2EE9CB1

------------------------------------------------------------------

http://redump.org/disc/7944/
Game Name: Star Wars: Battlefront II
Region: USA
Languages: English
Game ID: SLUS 21240GH
EXE: SLUS_212.40
EXE date: 2005-09-02
Version: 2.01
Edition: Greatest Hits
Barcode: 0 23272 32835 1

Comments:
LucasArts ID: 3283530GH

Mastering Code (Ringcode): PDSS-019636A1<TAB>1
Mastering SID Code: IFPI L332
Toolstamp: A09
Mould SID Code: IFPI QWAE

Mould SID Code: IFPI QWAF

Size: 4665671680
CRC-32: AE403115
MD5: 6BDC85ACB6CD0D31912D61590005E4DB
SHA-1: B385EDC89D053CA8238B47C6549E78F45EB88CA4

------------------------------------------------------------------

http://redump.org/disc/10009/
Game Name: Star Wars: Bounty Hunter
Region: USA
Languages: English
Game ID: SLUS 20420GH
EXE: SLUS_204.20
EXE date: 2002-11-05
Version: 1.02
Edition: Greatest Hits
Barcode: 0 23272 65935 6

Comments:
LucasArts ID: 6593530R

Mastering Code (Ringcode): PDSS-003625A1<TAB>2
Mastering SID Code: IFPI L331
Toolstamp: A06
Mould SID Code: IFPI QWB2

Mould SID Code: IFPI QWB3

Size: 2471755776
CRC-32: C3B176B2
MD5: C73186196490F9A6FAC22C8410AF8E90
SHA-1: F00B92988BCE158FCD7E4511E5700E7A9405E9BC

------------------------------------------------------------------

http://redump.org/disc/8777/
Game Name: Star Wars: Episode III: Revenge of the Sith
Region: USA
Languages: English
Version: 1.03
EXE: SLUS_211.43
EXE date: 2005-03-17
Barcode: 0 23272 32735 4

Size: 2721316864
CRC-32: 0AAF301D
MD5: B73176557879B02B675B1AC87B7AA9BB
SHA-1: 900E9FBF5ECC6038680D56927F4B141D3810A078

Disc #1
Edition: Original
Game ID: SLUS 21143

Comments:
LucasArts ID: 3273530

Mastering Code (Ringcode): PDSS-017375A1<TAB>1
Mastering SID Code: IFPI L332
Toolstamp: A02
Mould SID Code: IFPI QW48

Mould SID Code: IFPI QW49

Disc #2
Edition: Greatest Hits
Game ID: SLUS 21143GH

Comments:
LucasArts ID: 3273530GH

Mastering Code (Ringcode): PDSS-017375A1<TAB>1
Mastering SID Code: IFPI L332
Toolstamp: A03
Mould SID Code: IFPI QWA0

Mould SID Code: IFPI QWA1

----------------------------------------------------------------

http://redump.org/disc/12174/
Game Name: Star Wars: Jedi Starfighter
Region: USA
Languages: English
Game ID: SLUS 20293
EXE: SLUS_202.93
EXE date: 2002-02-11
Version: 2.10
Edition: Original
Barcode: 0 23272 65835 9

Comments:
LucasArts ID: 6583530

Mastering Code (Ringcode): PDSS-001915A1<TAB>3
Mastering SID Code: IFPI L332
Toolstamp: B05
Mould SID Code: IFPI QW42

Mould SID Code: IFPI QW43

Size: 1981087744
CRC-32: 90BE6AA4
MD5: 94B958AFF6047A9F4CB5B7E85EEC8B52
SHA-1: 5182D7F83F186A6E04C1AB978C8A6DE93F6E0D15

------------------------------------------------------------------

http://redump.org/disc/26541/
Game Title: Star Wars: Racer Revenge
Media: CD
Region: USA
Languages: English
Edition: Original
Serial: SLUS 20268
EXE: SLUS_202.68
EXE date: 2002-01-17
Version: 1.10
Errors count: 0
Number of tracks: 1
Write offset: -12
Barcode: 0 23272 65735 2

Comments:
LucasArts ID: 6573530

Track(s):

<game name="Star Wars - Racer Revenge (USA)">
  <category>Games</category>
  <description>Star Wars - Racer Revenge (USA)</description>
  <rom name="Star Wars - Racer Revenge (USA).bin" size="577312512" crc="bb2044f1" md5="4bb63eb11293364fb2f8b00d73d86a83" sha1="e3aa1127f49fb49db2e3d6cb59c02c0aff4d368c" />
</game>

cuesheet:

FILE "Star Wars - Racer Revenge (USA).bin" BINARY
  TRACK 01 MODE2/2352
    INDEX 01 00:00:00

Mastering Code (laser branded/etched): PTRM-003335<TAB>1
Mastering SID Code: IFPI L327
Toolstamp or Mastering Code (engraved/stamped): B03
Mould SID Code: IFPI 50DE

-----------------------------------------------------------------------
http://redump.org/disc/5189/
Game Title: Star Wars: Starfighter
Media: CD
Region: USA
Languages: English
Edition: Greatest Hits
Serial: SLUS 20044GH
EXE: SLUS_200.44
EXE date: 2001-01-24
Version: 1.00
Errors count: 0
Number of tracks: 1
Write offset: -12
Barcode: 0 23272 65535 8

Comments:
LucasArts ID: 6553530R

Track(s):

<game name="Star Wars - Starfighter (USA) (Rev 1)">
  <category>Games</category>
  <description>Star Wars - Starfighter (USA) (Rev 1)</description>
  <rom name="Star Wars - Starfighter (USA) (Rev 1).bin" size="751964976" crc="91b3ce78" md5="589cb48e28f9078f9ac34482514a2ee2" sha1="dde31c2bce6c079581cfd14ce8c436d8a5463be9" />
</game>

cuesheet:

FILE "Star Wars - Starfighter (USA) (Rev 1).bin" BINARY
  TRACK 01 MODE2/2352
    INDEX 01 00:00:00

Mastering Code (laser branded/etched): PTRM-000715<TAB>9
Mastering SID Code: IFPI L327
Toolstamp or Mastering Code (engraved/stamped): A19
Mould SID Code: IFPI 50F3

-----------------------------------------------------------------------

http://redump.org/disc/26542/
Game Title: Star Wars: Super Bombad Racing
Media: CD
Region: USA
Languages: English, French, German, Spanish, Italian
Edition: Original
Serial: SLUS 20043
EXE: SLUS_200.43
EXE date: 2001-03-21
Version: 1.03
Errors count: 0
Number of tracks: 1
Write offset: -647
Barcode: 6 51952 35298 5

Comments:
English: [Select], [Select], [Select], [Circle]
French: [Select], [Select], [Select], [R2]
German: [Select], [Select], [Select], [L1]
Spanish: [Select], [Select], [Select], [R1]
Italian: [Select], [Select], [Select], [L2]
Jawa: [Select], [Select], [Select], [Square]  big_smile

Track(s):

<game name="Star Wars - Super Bombad Racing (USA) (En,Fr,De,Es,It)">
  <category>Games</category>
  <description>Star Wars - Super Bombad Racing (USA) (En,Fr,De,Es,It)</description>
  <rom name="Star Wars - Super Bombad Racing (USA) (En,Fr,De,Es,It).bin" size="242693472" crc="30c9db2f" md5="32135262eb74797472d675b813db9340" sha1="989b7010b8255bd063e35d97bdcfb134e0809610" />
</game>

cuesheet:

FILE "Star Wars - Super Bombad Racing (USA) (En,Fr,De,Es,It).bin" BINARY
  TRACK 01 MODE2/2352
    INDEX 01 00:00:00

Mastering Code (laser branded/etched): PTRM-000705<TAB>1
Mastering SID Code: IFPI L330
Toolstamp or Mastering Code (engraved/stamped): B06
Mould SID Code: IFPI 50DE

-------------------------------------------------------------------------

http://redump.org/disc/32940/
Game Name: Star Wars: The Clone Wars: Republic Heroes
Region: USA
Languages: English
Game ID: SLUS 21913
EXE: SLUS_219.13
EXE date: 2009-08-07
Version: 1.00
Edition: Original
Barcode: 0 23272 33835 0

Comments:
LucasArts ID: 3383530

Mastering Code (Ringcode): PDSS-035055A1<TAB>1
Mastering SID Code: IFPI L331
Toolstamp: A03
Mould SID Code: IFPI QW9E

Mould SID Code: IFPI QW9F

Size: 2953871360
CRC-32: F96DD3F3
MD5: 2D0D718A85053F22FC4DEE189C811137
SHA-1: EDA08A746CAA1D0A3A25449E51842BB02901C96E

---------------------------------------------------------------------

http://redump.org/disc/32847/
Game Name: Star Wars: The Clone Wars
Region: USA
Languages: English
Game ID: SLUS 20510
EXE: SLUS_205.10
EXE date: 2002-11-19
Version: 1.03
Edition: Original
Barcode: 0 23272 32035 5

Comments:
LucasArts ID: 3203530

Mastering Code (Ringcode): PDSS-004325A1<TAB>2
Mastering SID Code: IFPI L332
Toolstamp: A03
Mould SID Code: IFPI QW5A

Mould SID Code: IFPI QW5B

Size: 1235058688
CRC-32: C3CB3FD2
MD5: D2D20F13D9FC9551F852B1121D18446E
SHA-1: D0423C68C8CA325F01A8CA97BFA83EB2F8AC172E

------------------------------------------------------------------

http://redump.org/disc/22865/
Game Name: Star Wars: The Force Unleashed
Region: USA
Languages: English, French
Game ID: SLUS 21614GH
EXE: SLUS_216.14
EXE date: 2008-03-26
Version: 1.02
Edition: Greatest Hits
Barcode: 0 23272 33235 8

Comments:
LucasArts ID: 3323530GH

Mastering Code (Ringcode): PDSS-026925A1<TAB>2
Mastering SID Code: IFPI L331
Toolstamp: C04
Mould SID Code: IFPI QW60

Mould SID Code: IFPI QW61

Size: 3778478080
CRC-32: D26ED695
MD5: 8C2BAD08CCF9A7DB1AC1C37F08ED845A
SHA-1: 15B6BAA583BBE5E63D857991E3AC67DF32B6094D