1 (edited by idlord 2017-07-25 00:28:02)

Topic: [FIXED][IBM PC] Quake (USA) (v1.06)

A redump of Quake v1.06, Track 2 differs from the previous dump but all other tracks are a match. The old cue sheet is missing the PRE flags as well. In time it's best to revisit many of the old PC dumps and redump them with more modern dumping standards.

Quake (USA) (v1.06)

Version: 1.06
Languages: English
CD Serial: 04-12100CD
Edition: Rerelease
Barcode: 6 11350 22666 0

Mastering Code: CD-ROM BY GOOD TIMES ENT . 0VXN1<1376>0412100CD
Mould SID: IFPI8127
Error Count: 0
Write Offset: 222

CUE:

CATALOG 0000000000000
FILE "Quake (USA) (v1.06) (Track 01).bin" BINARY
  TRACK 01 MODE1/2352
    INDEX 01 00:00:00
FILE "Quake (USA) (v1.06) (Track 02).bin" BINARY
  TRACK 02 AUDIO
    FLAGS PRE
    INDEX 00 00:00:00
    INDEX 01 00:02:01
FILE "Quake (USA) (v1.06) (Track 03).bin" BINARY
  TRACK 03 AUDIO
    FLAGS PRE
    INDEX 00 00:00:00
    INDEX 01 00:01:74
FILE "Quake (USA) (v1.06) (Track 04).bin" BINARY
  TRACK 04 AUDIO
    FLAGS PRE
    INDEX 00 00:00:00
    INDEX 01 00:01:74
FILE "Quake (USA) (v1.06) (Track 05).bin" BINARY
  TRACK 05 AUDIO
    FLAGS PRE
    INDEX 00 00:00:00
    INDEX 01 00:01:74
FILE "Quake (USA) (v1.06) (Track 06).bin" BINARY
  TRACK 06 AUDIO
    FLAGS PRE
    INDEX 00 00:00:00
    INDEX 01 00:01:74
FILE "Quake (USA) (v1.06) (Track 07).bin" BINARY
  TRACK 07 AUDIO
    FLAGS PRE
    INDEX 00 00:00:00
    INDEX 01 00:01:74
FILE "Quake (USA) (v1.06) (Track 08).bin" BINARY
  TRACK 08 AUDIO
    FLAGS PRE
    INDEX 00 00:00:00
    INDEX 01 00:01:74
FILE "Quake (USA) (v1.06) (Track 09).bin" BINARY
  TRACK 09 AUDIO
    FLAGS PRE
    INDEX 00 00:00:00
    INDEX 01 00:01:74
FILE "Quake (USA) (v1.06) (Track 10).bin" BINARY
  TRACK 10 AUDIO
    FLAGS PRE
    INDEX 00 00:00:00
    INDEX 01 00:01:74
FILE "Quake (USA) (v1.06) (Track 11).bin" BINARY
  TRACK 11 AUDIO
    FLAGS PRE
    INDEX 00 00:00:00
    INDEX 01 00:01:74

DAT:

    <rom name="Quake (USA) (v1.06) (Track 01).bin" size="29503488" crc="2cb6c9bb" md5="a0ad7ec785b34b93e9c51eaeedcb6612" sha1="72c3727e04d5e65ec783311969c4a341f2066a60" />
    <rom name="Quake (USA) (v1.06) (Track 02).bin" size="54441744" crc="02a58739" md5="fb0e67c0bb44922d2725f6b098ea00b1" sha1="a1e3ebc4b0fb257d7eacc66299e6d3663072eacb" />
    <rom name="Quake (USA) (v1.06) (Track 03).bin" size="25756752" crc="2553aafc" md5="7d5459bcd589ee1b0e87882858d182dd" sha1="ee038a76720ba5c1f24aa1fb6d614144406ca4c9" />
    <rom name="Quake (USA) (v1.06) (Track 04).bin" size="88244688" crc="4ad8d4a5" md5="401189c19983ea6e84ec04983474cb89" sha1="e86a97bd6993266afc022b24a06c6b7440961623" />
    <rom name="Quake (USA) (v1.06) (Track 05).bin" size="64454208" crc="ba0b434a" md5="b80dcc44460d9b19003990b068ad2b9b" sha1="72b6e3d9f44446a1706ac0745af1ed6b75fab0fb" />
    <rom name="Quake (USA) (v1.06) (Track 06).bin" size="78425088" crc="41f77b44" md5="83f51d6e0a3cd2de869a7a965f119761" sha1="39993bff20234e9446554bf62784aa87b077d59f" />
    <rom name="Quake (USA) (v1.06) (Track 07).bin" size="91415184" crc="831396b4" md5="8397c8cc242549655c531f02358c099a" sha1="7f0ebcf517949505f992aeb3166ebf3ba3f15b3d" />
    <rom name="Quake (USA) (v1.06) (Track 08).bin" size="59256288" crc="2f846612" md5="da210c7ff114549717be18edd54cff7b" sha1="e1a6c212b8ce6bdc375b7d382ac96084f90ad119" />
    <rom name="Quake (USA) (v1.06) (Track 09).bin" size="68605488" crc="81993420" md5="2c719dc66ed833e45a7de834ab6559eb" sha1="7cf6895ea81a61fd83bea2cce6512613f4203aa2" />
    <rom name="Quake (USA) (v1.06) (Track 10).bin" size="37495584" crc="b9cc0d4e" md5="10b941cc69de81936a5ac56614a0963f" sha1="92fbe3bb5be99d65b9af45b9d5bc28c06c304e05" />
    <rom name="Quake (USA) (v1.06) (Track 11).bin" size="56342160" crc="5e0ebec6" md5="60d1b432bb62ea896b9b3be8cb1d1a84" sha1="a8892fff65ac73cc939cfcea366b419e3da6e4e4" />

PVD:

0320 : 20 20 20 20 20 20 20 20  20 20 20 20 20 31 39 39                199
0330 : 36 31 31 30 35 31 36 30  34 30 39 30 30 30 31 39   6110516040900019
0340 : 39 36 31 31 30 35 31 36  30 34 30 39 30 30 30 30   9611051604090000
0350 : 30 30 30 30 30 30 30 30  30 30 30 30 30 30 30 30   0000000000000000
0360 : 31 39 39 36 31 31 30 35  31 36 30 34 30 39 30 30   1996110516040900
0370 : 30 01 00 00 00 00 00 00  00 00 00 00 00 00 00 00   0...............