1 (edited by Slipnut 2014-06-07 20:46:24)

Topic: [IBM PC compatible] 5 New Submissions

-=-=-=-=-=-=-=-=-=-=-=-=-=-=-=-=-=-=-=-=-=-=-=-=-=-=-=-=-=-=-=-=-=-=-=-=-=-=-=-=-=-=-=-=-=-
Game Name: Backyard Hockey
Media Type: CD
Platform: Windows 98/ME/XP/7
Version: 1.0
Edition: Origional
Protection: N/A (Could Be CD Checks)
Mastering Code (Ringcode): SONOPRESS USA   23526CD   ++   BG652-02
Mastering SID Code: IFPI LB48
Toolstamp: A11
Mould SID Code: N/A
Additional Mould Text: N/A
Languages: English
Error Count: 0
Track Count: 1
------------------------------------------------------
PxD8:
Your Offset: +30
Sector: 16
MSF: 00:02:16
Combined offset: +72 bytes / +18 samples
Write OffSet: -12
------------------------------------------------------
PVD:
0320 : 20 20 20 20 20 20 20 20  20 20 20 20 20 20 20 20                   
0330 : 20 20 20 20 20 20 20 20  20 20 20 20 20 32 30 30                200
0340 : 32 30 39 31 32 31 37 30  30 30 30 30 30 E4 30 30   2091217000000.00
0350 : 30 30 30 30 30 30 30 30  30 30 30 30 30 30 00 30   00000000000000.0
0360 : 30 30 30 30 30 30 30 30  30 30 30 30 30 30 30 00   000000000000000.
0370 : 30 30 30 30 30 30 30 30  30 30 30 30 30 30 30 30   0000000000000000
------------------------------------------------------
UPC (Barcode): 7  42725 23527  4
UPC Web: http://www.upcdatabase.com/item/742725235274
------------------------------------------------------
Dir2Dat:
<rom name="Backyard Hockey.img" size="678490848" crc="3bac54a5" md5="54939fe7acfb5b286d48d2e01d1a7130" sha1="120c8a388193eaa8d6699dca568afe8ddc294580"/>
------------------------------------------------------
CD TOC Information:
Session 1... (LBA: 0 / 00:02:00)
-> Track 01  (Mode 1, LBA: 0 / 00:02:00)
-> LeadOut  (LBA: 288474 / 64:08:24)

------------------------------------------------------
Sectors: 288,474 (Mode1/2352)
Time: 64:08:24
Cue:
FILE "Backyard Hockey.img" BINARY
  TRACK 01 MODE1/2352
    INDEX 01 00:00:00
-----------------------------------------------------------------------
NFO`s
Pics`s Scan Etc..
SubDump
-=-=-=-=-=-=-=-=-=-=-=-=-=-=-=-=-=-=-=-=-=-=-=-=-=-=-=-=-=-=-=-=-=-=-=-=-=-=-=-=-=-=-=-=-=-


-=-=-=-=-=-=-=-=-=-=-=-=-=-=-=-=-=-=-=-=-=-=-=-=-=-=-=-=-=-=-=-=-=-=-=-=-=-=-=-=-=-=-=-=-=-
Game Name: Backyeard Skateboarding
Media Type: CD
Platform: Windows 98/Me/2000/XP
Version: 1
Edition: Origional
Protection: N/A Could Be CD Checks
Mastering Code (Ringcode): ZOMAX-MN     C36468    1083816
Mastering SID Code:
Toolstamp:
Mould SID Code:
Additional Mould Text:
Languages: English
Error Count: 0
Track Count: 1
------------------------------------------------------
PxD8:
Your Offset: +30
Sector: 16
MSF: 00:02:16
Combined offset: +72 bytes / +18 samples
Write OffSet: -12
------------------------------------------------------
PVD:
0320 : 20 20 20 20 20 20 20 20  20 20 20 20 20 20 20 20                   
0330 : 20 20 20 20 20 20 20 20  20 20 20 20 20 32 30 30                200
0340 : 34 30 39 30 33 30 36 35  36 34 37 30 37 E0 32 30   4090306564707.20
0350 : 30 34 30 39 30 33 30 36  35 36 34 37 30 37 E0 32   04090306564707.2
0360 : 31 30 34 30 39 30 33 30  36 35 36 34 37 30 37 E0   104090306564707.
0370 : 32 30 30 34 30 39 30 33  30 36 35 36 34 37 30 37   2004090306564707
------------------------------------------------------
UPC (Barcode): 7  42725 25031 4
UPC Web:
------------------------------------------------------
Dir2Dat:
<rom name="Backyard Skateboarding.img" size="516329856" crc="a9b1810c" md5="cd75d5e8f7cd9bb002d8047bdd289cfd" sha1="da3ee9edff19b488aa663e10f22f4f87d756bfe1"/>
------------------------------------------------------
CD TOC Information:
Session 1... (LBA: 0 / 00:02:00)
-> Track 01  (Mode 1, LBA: 0 / 00:02:00)
-> LeadOut  (LBA: 219528 / 48:49:03)
------------------------------------------------------
Sectors: 219,528 (Mode1/2352)
Time: 48:49:03
Cue:
FILE "Backyard Skateboarding.img" BINARY
  TRACK 01 MODE1/2352
    INDEX 01 00:00:00
------------------------------------------------------
Notes: Between C36468 and 1083816 There Seems To Be A Value Soft Logo?..(Refer To Scan)
-------------------------------------------------------------------------------------------------------
NFO`s
Pic`s Scans Etc..
SubDump
-=-=-=-=-=-=-=-=-=-=-=-=-=-=-=-=-=-=-=-=-=-=-=-=-=-=-=-=-=-=-=-=-=-=-=-=-=-=-=-=-=-=-=-=-=-
Game Name: Battlefield Vietnam (Disc 1)
Media Type: CD
Platform: Windows 98, Windows ME,Windows XP,Windows 2000,Windows 7
Version: 1.0
Edition: Origional
Protection: SafeDisc 2.90 / Serial Check(Key)
Mastering Code (Ringcode): 1469507     ++  D278002
Mastering SID Code: IFPI LB41
Toolstamp: A08 (Located Between The + + in the Mastering Code)
Mould SID Code: N/A
Additional Mould Text: N/A
Languages: Chinese,English,French,German,Italian,Japanese,Korean,Spanish
Error Count: 591
Track Count: 1
------------------------------------------------------
PxD8:
Your Offset: +30
Sector: 16
MSF: 00:02:16
Combined offset: +72 bytes / +18 samples
Write OffSet: -12
------------------------------------------------------
PVD:
0320 : 20 20 20 20 20 20 20 20  20 20 20 20 20 20 20 20                   
0330 : 20 20 20 20 20 20 20 20  20 20 20 20 20 32 30 30                200
0340 : 34 30 32 32 37 31 37 32  32 31 31 30 30 00 32 30   4022717221100.20
0350 : 30 34 30 32 32 37 31 37  32 32 31 31 30 30 00 30   04022717221100.0
0360 : 30 30 30 30 30 30 30 30  30 30 30 30 30 30 30 00   000000000000000.
0370 : 30 30 30 30 30 30 30 30  30 30 30 30 30 30 30 30   0000000000000000
------------------------------------------------------
UPC (Barcode):
UPC Web:
------------------------------------------------------
Dir2Dat:
<rom name="Battlefield Vietnam (Disc 1).img" size="762725376" crc="3cf76669" md5="26a80c70a5523eab87279a6a0f36cb4a" sha1="b10566f52ba92928f427862d31a560ba70c8d1c4"/>
------------------------------------------------------
CD TOC Information:
Session 1... (LBA: 0 / 00:02:00)
-> Track 01  (Mode 1, LBA: 0 / 00:02:00)
-> LeadOut  (LBA: 324288 / 72:05:63)
------------------------------------------------------
Sectors: 324,288 (Mode1/2352)
Time: 72:05:63
Cue:
FILE "Battlefield Vietnam (Disc 1).img" BINARY
  TRACK 01 MODE1/2352
    INDEX 01 00:00:00
------------------------------------------------------
Notes: Between 1469507  And  ++ There Is A SonoPress Logo (See RingCode Pic)
(Dont Have The Origional Box,or cant find A.T.M,So it Seems No UPC #)
-------------------------------------------------------------------------------------
NFO`s
Pics Scans Etc...
SubDump
-=-=-=-=-=-=-=-=-=-=-=-=-=-=-=-=-=-=-=-=-=-=-=-=-=-=-=-=-=-=-=-=-=-=-=-=-=-=-=-=-=-=-=-=-=-

-=-=-=-=-=-=-=-=-=-=-=-=-=-=-=-=-=-=-=-=-=-=-=-=-=-=-=-=-=-=-=-=-=-=-=-=-=-=-=-=-=-=-=-=-=-
Game Name: Battlefield Vietnam (Disc 2)
Media Type: CD
Platform: Windows 98, Windows ME,Windows XP,Windows 2000,Windows 7
Version: 1.0
Edition: Origional
Protection: SafeDisc 2.90 / Serial Check(Key)
Mastering Code (Ringcode): 14695517     + +  D277701
Mastering SID Code: IFPI LB48
Toolstamp: N/A
Mould SID Code: IFPI 1455 (Have Hard Time Reading Or Scanning)
Additional Mould Text: N/A
Languages: Chinese,English,French,German,Italian,Japanese,Korean,Spanish
Error Count: 592
Track Count: 1
------------------------------------------------------
PxD8:
Your Offset: +30
Sector: 16
MSF: 00:02:16
Combined offset: +72 bytes / +18 samples
Write OffSet: -12
------------------------------------------------------
PVD:
0320 : 20 20 20 20 20 20 20 20  20 20 20 20 20 20 20 20                   
0330 : 20 20 20 20 20 20 20 20  20 20 20 20 20 32 30 30                200
0340 : 34 30 32 32 37 31 37 32  34 33 31 30 30 00 32 30   4022717243100.20
0350 : 30 34 30 32 32 37 31 37  32 34 33 31 30 30 00 30   04022717243100.0
0360 : 30 30 30 30 30 30 30 30  30 30 30 30 30 30 30 00   000000000000000.
0370 : 30 30 30 30 30 30 30 30  30 30 30 30 30 30 30 30   0000000000000000
------------------------------------------------------
UPC (Barcode):
UPC Web:
------------------------------------------------------
Dir2Dat:
<rom name="Battlefield Vietnam (Disc 2).img" size="760834368" crc="b73f619c" md5="2a88ba2ab803dd65b896da743b587d68" sha1="0229e944d8dfc820a04efb7e32899927ee84e7f9"/>
------------------------------------------------------
CD TOC Information:
Session 1... (LBA: 0 / 00:02:00)
-> Track 01  (Mode 1, LBA: 0 / 00:02:00)
-> LeadOut  (LBA: 323484 / 71:55:09)
------------------------------------------------------
Sectors: 323,484 (Mode1/2352)
Time: 71:55:09
Cue:
FILE "Battlefield Vietnam (Disc 2).img" BINARY
  TRACK 01 MODE1/2352
    INDEX 01 00:00:00
------------------------------------------------------
Notes: Between 14695517   And   + + Theres A SonoPress Logo (See Scan)
-------------------------------------------------------------------------------
NFO`s
Pics Scans Etc..
SubDump
-=-=-=-=-=-=-=-=-=-=-=-=-=-=-=-=-=-=-=-=-=-=-=-=-=-=-=-=-=-=-=-=-=-=-=-=-=-=-=-=-=-=-=-=-=-
Game Name: BattleField Vietnam (Disc 3)
Media Type: CD
Platform: Windows 98, Windows ME,Windows XP,Windows 2000,Windows 7
Version: 1.0
Edition: Origional
Protection: SafeDisc 2.90 / Serial Check(Key)
Mastering Code (Ringcode): 1469527      + +  D277902
Mastering SID Code: IFPI LB48
Toolstamp: A05
Mould SID Code: N/A
Additional Mould Text: N/A
Languages: Chinese,English,French,German,Italian,Japanese,Korean,Spanish
Error Count: 590
Track Count: 1
------------------------------------------------------
PxD8:
Your Offset: +30
Sector: 16
MSF: 00:02:16
Combined offset: +72 bytes / +18 samples
Write OffSet: -12
------------------------------------------------------
PVD:
0320 : 20 20 20 20 20 20 20 20  20 20 20 20 20 20 20 20                   
0330 : 20 20 20 20 20 20 20 20  20 20 20 20 20 32 30 30                200
0340 : 34 30 32 32 37 31 37 32  36 35 32 30 30 00 32 30   4022717265200.20
0350 : 30 34 30 32 32 37 31 37  32 36 35 32 30 30 00 30   04022717265200.0
0360 : 30 30 30 30 30 30 30 30  30 30 30 30 30 30 30 00   000000000000000.
0370 : 30 30 30 30 30 30 30 30  30 30 30 30 30 30 30 30   0000000000000000
------------------------------------------------------
UPC (Barcode):
UPC Web:
------------------------------------------------------
Dir2Dat:
<rom name="BattleField Vietnam (Disc 3).img" size="586174848" crc="5472bb49" md5="8d7135ebc28bd7a850b3eb59c8fce075" sha1="4ad2a7818ad94325d47ecaaca59b8eba92e673e0"/>
------------------------------------------------------
CD TOC Information:
Session 1... (LBA: 0 / 00:02:00)
-> Track 01  (Mode 1, LBA: 0 / 00:02:00)
-> LeadOut  (LBA: 249224 / 55:24:74)
------------------------------------------------------
Sectors: 249,224 (Mode1/2352)
Time: 55:24:74
Cue:
FILE "BattleField Vietnam (Disc 3).img" BINARY
  TRACK 01 MODE1/2352
    INDEX 01 00:00:00
------------------------------------------------------
Notes:
Between 1469527   And   + + Theres A SonoPress Logo  (See Scan)
Between + + Theres A A05 Toolstamp
-----------------------------------------------------------------------
NFO`s
Pic`s Scans Etc....
SubDump
Jewel Case Scans
-=-=-=-=-=-=-=-=-=-=-=-=-=-=-=-=-=-=-=-=-=-=-=-=-=-=-=-=-=-=-=-=-=-=-=-=-=-=-=-=-=-=-=-=-=-
Game Name: Bookworm Deluxe
Media Type: CD
Platform: Windows All Platforms
Version: 1.03
Edition: Origional?
Protection: PopCap Installer/Cd Checks
Mastering Code (Ringcode): 1009-10151 Bookworm PC    [3]    20-30952
Mastering SID Code: IFPI LM62
Toolstamp: N/A
Mould SID Code: IFPI HK05
Additional Mould Text: N/A
Languages: English
Error Count: 0
Track Count: 1
------------------------------------------------------
PxD8:
Your Offset: +30
Sector: 16
MSF: 00:02:16
Combined offset: +120 bytes / +30 samples
Write OffSet: 0
------------------------------------------------------
PVD:
0320 : 20 20 20 20 20 20 20 20  20 20 20 20 20 20 20 20                   
0330 : 20 20 20 20 20 20 20 20  20 20 20 20 20 32 30 30                200
0340 : 35 30 33 32 38 31 36 31  34 30 30 30 30 E8 32 30   5032816140000.20
0350 : 30 35 30 33 32 38 31 36  31 34 30 30 30 30 E8 30   05032816140000.0
0360 : 30 30 30 30 30 30 30 30  30 30 30 30 30 30 30 00   000000000000000.
0370 : 30 30 30 30 30 30 30 30  30 30 30 30 30 30 30 30   0000000000000000
------------------------------------------------------
UPC (Barcode):
UPC Web:
------------------------------------------------------
Dir2Dat:
<rom name="Bookworm Deluxe.img" size="541237536" crc="1268d491" md5="cda7023926744d8f0854fbe2db4c2f1a" sha1="701b7c341239d53986e50cbcbacf6ba6b4067ba2"/>
------------------------------------------------------
CD TOC Information:
Session 1... (LBA: 0 / 00:02:00)
-> Track 01  (Mode 1, LBA: 0 / 00:02:00)
-> LeadOut  (LBA: 230118 / 51:10:18)
------------------------------------------------------
Sectors: 230,118 (Mode1/2352)
Time: 51:10:18
Cue:
FILE "Bookworm Deluxe.img" BINARY
  TRACK 01 MODE1/2352
    INDEX 01 00:00:00
------------------------------------------------------
Notes: CD Has Demos Of NSANIQUARIUM!, Bejeweled 2 Deluxe, TYPER SHARK! Deluxe, ZUMA Deluxe
Came As,no Jewel Cover (So No UPC)
------------------------------------------------------
NFO`s
Pic`s Scans Etc..
SubDump
-=-=-=-=-=-=-=-=-=-=-=-=-=-=-=-=-=-=-=-=-=-=-=-=-=-=-=-=-=-=-=-=-=-=-=-=-=-=-=-=-=-=-=-=-=-
Game Name: European Racers
Media Type: CD
Platform: DOS
Version: 1.0
Edition: Origional (Distributed With Plastic Models)
Protection: No Protection/Possible CD Checks
Mastering Code (Ringcode): DISC MFG, INC.  (H)    W.O. 55080-1     22080
Mastering SID Code: N/A
Toolstamp: N/A
Mould SID Code: N/A
Additional Mould Text: N/A
Languages: English
Error Count: 0
Track Count: 1
------------------------------------------------------
PxD8:
Your Offset: +30
Sector: 16
MSF: 00:02:16
Combined offset: +120 bytes / +30 samples
Write OffSet: 0
------------------------------------------------------
PVD:
0320 : 20 20 20 20 20 20 20 20  20 20 20 20 20 20 20 20                   
0330 : 20 20 20 20 20 20 20 20  20 20 20 20 20 31 39 39                199
0340 : 33 30 34 32 31 31 35 31  30 32 36 30 30 00 31 39   3042115102600.19
0350 : 39 33 30 34 32 31 31 35  31 30 32 36 30 30 00 30   93042115102600.0
0360 : 30 30 30 30 30 30 30 30  30 30 30 30 30 30 30 00   000000000000000.
0370 : 31 39 39 33 30 34 32 31  31 35 31 30 32 36 30 30   1993042115102600
------------------------------------------------------
UPC (Barcode):
UPC Web:
------------------------------------------------------
Dir2Dat:
<rom name="European Racers.img" size="520323552" crc="8c4ecd9e" md5="320c9ce7e6ebfed3cb92e0b4ad631ab6" sha1="6c2c33c151d1076a041ab7b896a4454dd85714a2"/>
------------------------------------------------------
Sectors:
Time:
Cue:
FILE "European Racers.img" BINARY
  TRACK 01 MODE1/2352
    INDEX 01 00:00:00
------------------------------------------------------
Notes:
Revell-Monogram, the world's leading manufacturer of plastic
model kits, announced the June release of European Racers, the first title in
its revolutionary new Power Modeler CD-ROM software line.
Web Link: http://www.amazon.com/Revell-Modeler-Eu … B00A97SMIG
The Copy I Received Has A variation of This As The Back Of CD Jewel Case (Not Origional Hence Why Not Scanned)
Might Need Look At The W.O. in Ringcode as might be M.O.   (See Scan)
-----------------------------------------------------------------------------------------------------------
NFO`s
Pics Scans Etc..
SubDump
-=-=-=-=-=-=-=-=-=-=-=-=-=-=-=-=-=-=-=-=-=-=-=-=-=-=-=-=-=-=-=-=-=-=-=-=-=-=-=-=-=-=-=-=-=-

Burners: Plextor PX-716AL (1.02) (+30)/ Plextor PX-716A (1.11) (+30) / PLEXTOR PX-W5224A (1.04) (+30)
My Submissions And Verifications,Scans,Etc.. Here

Re: [IBM PC compatible] 5 New Submissions

Logos are written as normal text in the rings submitted, and according to F1ReB4LL logos should be in the very end of the mastering ring code, preceded by a tabulation. Generally speaking, any ammount of multiple spaces in the ring codes is replaced with a tabulation.

You can start to submit these dumps via the new disc form, just make sure that you aren't missing the possible CATALOG 0000000000000 and another flags. Due to that, it's always a good idea double-check dumps via either PR or DIC. For SafeDisc CDs only DIC, won't match these dumps because gargabe sectors aren't replaced with 0x55 pattern, but at least should detect the possible flags in order to get a more complete cue.

On semi-vacation. MSF/AMSF to LBA/offset and viceversa calculator: link
To write properly occidental characters contained in japanese titles: screenshot
Spaces must be the fullwidth variant: link / screenshot