Matches http://redump.org/disc/13774/

Common Disc Info:
    Title: Call of Duty 2 (Collector's Bonus DVD)
    Foreign Title (Non-latin): 
    Disc Number / Letter: 
    Disc Title: 
    System: IBM PC Compatible
    Media Type: DVD-ROM-5
    Category: Games
    Region: USA
    Languages: English
    Disc Serial: 32985.102.US

    Ringcode Information:
        Data Side Mastering Code (laser branded/etched): (UD63835) 32985102US 10 03V
        Data Side Mastering SID Code: IFPI L434
        Data Side Toolstamp or Mastering Code (engraved/stamped): 
        Data Side Mould SID Code: IFPI 7102
        Data Side Additional Mould: 
        Label Side Mould SID Code: IFPI 7163
        Label Side Additional Mould: 
    Barcode: 0 47875 32985 0
    Comments: [T:ISBN]
    Contents: 

Version and Editions:
    Version: 
    Edition/Release: 

Extras:
    Primary Volume Descriptor (PVD):

0320 : 20 20 20 20 20 20 20 20  20 20 20 20 20 32 30 30                200
0330 : 35 30 39 32 32 31 37 34  30 31 35 30 30 1C 32 30   5092217401500.20
0340 : 30 35 30 39 32 32 31 37  34 30 31 35 30 30 1C 30   05092217401500.0
0350 : 30 30 30 30 30 30 30 30  30 30 30 30 30 30 30 00   000000000000000.
0360 : 30 30 30 30 30 30 30 30  30 30 30 30 30 30 30 30   0000000000000000
0370 : 00 01 00 00 00 00 00 00  00 00 00 00 00 00 00 00   ................

Copy Protection:
    Copy Protection: None found

Size & Checksum:
    Size: 2283800576
    CRC32: 66e88571
    MD5: f24a1758359e502da7efd2666d9c4219
    SHA1: 7b6ce823240b07a7a85183bfe13af2f37114fdaf

2

(0 replies, posted in Verifications)

Matches http://redump.org/disc/2566/

Common Disc Info:
    Title: Call of Duty 2
    Foreign Title (Non-latin): 
    Disc Number / Letter: 
    Disc Title: 
    System: IBM PC Compatible
    Media Type: DVD-ROM-5
    Category: Games
    Region: USA
    Languages: English
    Disc Serial: 32985.101.US

    Ringcode Information:
        Data Side Mastering Code (laser branded/etched): 32985101US D2N    R5A0P
        Data Side Mastering SID Code: IFPI L250
        Data Side Toolstamp or Mastering Code (engraved/stamped): 12
        Data Side Mould SID Code: 
        Data Side Additional Mould: 
        Label Side Mould SID Code: IFPI 41A4
        Label Side Additional Mould: 
    Barcode: 0 47875 32985 0
    Comments: [T:ISBN]
    Contents: 

Version and Editions:
    Version: 
    Edition/Release: Collector's Edition

Extras:
    Primary Volume Descriptor (PVD):

0320 : 20 20 20 20 20 20 20 20  20 20 20 20 20 32 30 30                200
0330 : 35 31 30 30 36 32 32 34  34 34 34 30 30 E4 32 30   5100622444400.20
0340 : 30 35 31 30 30 36 32 32  34 34 34 34 30 30 E4 31   05100622444400.1
0350 : 39 38 31 31 30 30 36 32  32 34 34 34 34 30 30 E4   981100622444400.
0360 : 32 30 30 35 31 30 30 36  32 32 34 34 34 34 30 30   2005100622444400
0370 : E4 01 00 00 00 00 00 00  00 00 00 00 00 00 00 00   ................

Copy Protection:
    Copy Protection: SafeDisc (drvmgt.dll) 1-3, SafeDisc (secdrv.sys) 1-3, SafeDisc 1-3, SafeDisc 3.20-4.xx (version removed), SafeDisc 4.60.000

Size & Checksum:
    Size: 3790536704
    CRC32: 29b78857
    MD5: 69b132cfa051aa3943b3765d74c4e774
    SHA1: c2c29c46e72d4139c23f7080720ee973daac1a4b

Matches http://redump.org/disc/77104/

Common Disc Info:
    Title: Sid Meier's Civilization IV (Disc 2) (Play)
    Foreign Title (Non-latin): 
    Disc Number / Letter: 2
    Disc Title: 
    System: IBM PC Compatible
    Media Type: CD-ROM
    Category: Games
    Region: USA
    Languages: English
    Disc Serial: 

    Ringcode Information:
        Data Side Mastering Code (laser branded/etched): 7787512 R4N
        Data Side Mastering SID Code: IFPI L250
        Data Side Toolstamp or Mastering Code (engraved/stamped): 18
        Data Side Mould SID Code: IFPI 4121
        Data Side Additional Mould: 
        Label Side Mould SID Code: 
        Label Side Additional Mould: 
    Barcode: 
    Error Count: 0
    Comments: [T:ISBN]
    Contents: 

Version and Editions:
    Version: 
    Edition/Release: 

Extras:
    Primary Volume Descriptor (PVD):

0320 : 20 20 20 20 20 20 20 20  20 20 20 20 20 32 30 30                200
0330 : 35 31 30 31 38 31 37 32  38 30 30 30 30 F0 32 30   5101817280000.20
0340 : 30 35 31 30 31 38 31 37  32 38 30 30 30 30 F0 30   05101817280000.0
0350 : 30 30 30 30 30 30 30 30  30 30 30 30 30 30 30 00   000000000000000.
0360 : 30 30 30 30 30 30 30 30  30 30 30 30 30 30 30 30   0000000000000000
0370 : 00 01 00 00 00 00 00 00  00 00 00 00 00 00 00 00   ................

Copy Protection:
    Copy Protection: None found

Tracks and Write Offsets:
    DAT:

<rom name="CIV4DISK2.bin" size="771063216" crc="055b03a3" md5="9ae2eec675cc588abdb7f5f739d8c4da" sha1="92f543dc7aa9b14dacc65c48380400c21944f77f" />

    Cuesheet:

FILE "CIV4DISK2.bin" BINARY
  TRACK 01 MODE1/2352
    INDEX 01 00:00:00

    Write Offset: 0

Matches http://redump.org/disc/58616/

Common Disc Info:
    Title: Sid Meier's Civilization V: Gold Edition
    Foreign Title (Non-latin): 
    Disc Number / Letter: 
    Disc Title: 
    System: IBM PC Compatible
    Media Type: DVD-ROM-9
    Category: Games
    Region: USA
    Languages: English
    Disc Serial: 41252-1

    Ringcode Information:
        Layer 0 (Inner) Mastering Code (laser branded/etched): 81042022-L0    + +    arvato    41252-1L0
        Layer 0 (Inner) Mastering SID Code: IFPI LB41
        Layer 0 (Inner) Toolstamp or Mastering Code (engraved/stamped): 
        Data Side Mould SID Code: IFPI 10G3
        Data Side Additional Mould: 
        Layer 1 (Outer) Mastering Code (laser branded/etched): R    87589624-L1    + +    arvato    41252-1L1
        Layer 1 (Outer) Mastering SID Code: IFPI L027
        Layer 1 (Outer) Toolstamp or Mastering Code (engraved/stamped): 
        Label Side Mould SID Code: IFPI 10N1
        Label Side Additional Mould: 
    Barcode: 
    Comments: [T:ISBN]
    Contents: 

Version and Editions:
    Version: 
    Edition/Release: 

Extras:
    Primary Volume Descriptor (PVD):

0320 : 20 20 20 20 20 20 20 20  20 20 20 20 20 32 30 31                201
0330 : 32 31 31 31 39 31 37 30  32 30 38 30 30 EC 32 30   2111917020800.20
0340 : 31 32 31 31 31 39 31 37  30 32 30 38 30 30 EC 30   12111917020800.0
0350 : 30 30 30 30 30 30 30 30  30 30 30 30 30 30 30 00   000000000000000.
0360 : 30 30 30 30 30 30 30 30  30 30 30 30 30 30 30 30   0000000000000000
0370 : 00 01 00 49 6D 67 42 75  72 6E 20 76 32 2E 35 2E   ...ImgBurn v2.5.

Copy Protection:
    Copy Protection: Steam

Size & Checksum:
    Layerbreak: 1191824
    Size: 4881711104
    CRC32: b9debd74
    MD5: c91a2f1c5e99b43bdd209ccf11cd0c7f
    SHA1: 1aeb33c9d7deac1488a23347ec92e6d7d2b46c99

5

(0 replies, posted in Verifications)

Matches http://redump.org/disc/22751/

Common Disc Info:
    Title: Zoombinis: Island Odyssey
    Foreign Title (Non-latin): 
    Disc Number / Letter: 
    Disc Title: 
    System: IBM PC Compatible
    Media Type: CD-ROM
    Category: Games
    Region: USA
    Languages: English
    Disc Serial: 9531152C SP4

    Ringcode Information:
        Data Side Mastering Code (laser branded/etched): 9531152C    + +    D854702
        Data Side Mastering SID Code: IFPI LB48
        Data Side Toolstamp or Mastering Code (engraved/stamped): A01
        Data Side Mould SID Code: IFPI 1033
        Data Side Additional Mould: 
        Label Side Mould SID Code: 
        Label Side Additional Mould: 
    Barcode: 9 780439 531153
    Error Count: 0
    Comments: PC/Mac Hybrid
    ISBN: 0-439-53115-2
    Contents: 

Version and Editions:
    Version: 1.0
    Edition/Release: Scholastic

Extras:
    Primary Volume Descriptor (PVD):

0320 : 20 20 20 20 20 20 20 20  20 20 20 20 20 32 30 30                200
0330 : 32 31 30 30 31 31 34 33  30 32 30 30 30 00 32 30   2100114302000.20
0340 : 30 32 31 30 30 31 31 34  33 31 34 30 30 30 00 00   02100114314000..
0350 : 00 00 00 00 00 00 00 00  00 00 00 00 00 00 00 00   ................
0360 : 00 00 00 00 00 00 00 00  00 00 00 00 00 00 00 00   ................
0370 : 00 01 00 00 00 00 00 00  00 00 00 00 00 00 00 00   ................

Copy Protection:
    Copy Protection: None found

Tracks and Write Offsets:
    DAT:

<rom name="ZoombinisIO.bin" size="351910944" crc="1ca911ef" md5="5c60b540f06f194821e8b61d7b04110c" sha1="9371b4b9bc5edb62ef577456e09659060bc2b62e" />

    Cuesheet:

FILE "ZoombinisIO.bin" BINARY
  TRACK 01 MODE1/2352
    INDEX 01 00:00:00

    Write Offset: -12

Matches http://redump.org/disc/60091/

Common Disc Info:
    Title: JumpStart Advanced 2nd Grade (Disc 3) (Mystery Club Vol. 1: Detective Academy)
    Foreign Title (Non-latin): 
    Disc Number / Letter: 3
    Disc Title: Mystery Club Vol. 1: Detective Academy
    System: IBM PC Compatible
    Media Type: CD-ROM
    Category: Games
    Region: USA
    Languages: English
    Disc Serial: S7204730

    Ringcode Information:
        Data Side Mastering Code (laser branded/etched): FM \ CA    FM 23349 (S7204730/HA0001)
        Data Side Mastering SID Code: IFPI LG33
        Data Side Toolstamp or Mastering Code (engraved/stamped): C02 M01 S07
        Data Side Mould SID Code: IFPI 3V52
        Data Side Additional Mould: 
        Label Side Mould SID Code: 
        Label Side Additional Mould: 
    Barcode: 
    Error Count: 0
    Comments: [T:ISBN]
    Contents: 

Version and Editions:
    Version: 1.0c
    Edition/Release: 

Extras:
    Primary Volume Descriptor (PVD):

0320 : 20 20 20 20 20 20 20 20  20 20 20 20 20 32 30 30                200
0330 : 33 30 34 31 36 30 37 32  33 33 31 30 30 00 32 30   3041607233100.20
0340 : 30 33 30 34 31 36 30 37  32 34 35 33 30 30 00 00   03041607245300..
0350 : 00 00 00 00 00 00 00 00  00 00 00 00 00 00 00 00   ................
0360 : 00 00 00 00 00 00 00 00  00 00 00 00 00 00 00 00   ................
0370 : 00 01 00 00 00 00 00 00  00 00 00 00 00 00 00 00   ................

Copy Protection:
    Copy Protection: None found

Tracks and Write Offsets:
    DAT:

<rom name="MCDA.bin" size="192461808" crc="4e39e9d3" md5="ad87044a0822f87a72af1603644aaf9f" sha1="19729ece3aecf16b63d584b7719b215922ffff5e" />

    Cuesheet:

FILE "MCDA.bin" BINARY
  TRACK 01 MODE1/2352
    INDEX 01 00:00:00

    Write Offset: -12

Matches http://redump.org/disc/60090/

Common Disc Info:
    Title: JumpStart Advanced 2nd Grade (Disc 2) (Field Trip Adventure)
    Foreign Title (Non-latin): 
    Disc Number / Letter: 2
    Disc Title: Field Trip Adventure
    System: IBM PC Compatible
    Media Type: CD-ROM
    Category: Games
    Region: USA
    Languages: English
    Disc Serial: S7204720

    Ringcode Information:
        Data Side Mastering Code (laser branded/etched): FM \ CA    FM 23344 (S7204720/HA0001)
        Data Side Mastering SID Code: IFPI LG33
        Data Side Toolstamp or Mastering Code (engraved/stamped): C01 M02 S09
        Data Side Mould SID Code: IFPI 3V42
        Data Side Additional Mould: 
        Label Side Mould SID Code: 
        Label Side Additional Mould: 
    Barcode: 
    Error Count: 0
    Comments: [T:ISBN]
    Contents: 

Version and Editions:
    Version: 1.0c
    Edition/Release: 

Extras:
    Primary Volume Descriptor (PVD):

0320 : 20 20 20 20 20 20 20 20  20 20 20 20 20 32 30 30                200
0330 : 33 30 33 30 33 31 31 33  30 35 32 30 30 00 32 30   3030311305200.20
0340 : 30 33 30 33 30 33 31 31  33 32 31 33 30 30 00 00   03030311321300..
0350 : 00 00 00 00 00 00 00 00  00 00 00 00 00 00 00 00   ................
0360 : 00 00 00 00 00 00 00 00  00 00 00 00 00 00 00 00   ................
0370 : 00 01 00 00 00 00 00 00  00 00 00 00 00 00 00 00   ................

Copy Protection:
    Copy Protection: An error occurred while scanning!

Tracks and Write Offsets:
    DAT:

<rom name="Fieldtrip Adventure.bin" size="299430768" crc="2d294df0" md5="23886337005597eace3d126b01b62f71" sha1="e45e2575937772d83e7e0159123b68704340f488" />

    Cuesheet:

FILE "Fieldtrip Adventure.bin" BINARY
  TRACK 01 MODE1/2352
    INDEX 01 00:00:00

    Write Offset: -12

8

(3,147 replies, posted in General discussion)

F1ReB4LL wrote:

What do you mean by "used"? In db? Db only uses cue-bin images, ofc. SCM hash is needed when/if you decide to verify some descrambled image by scrambling it back. Messy discs may give a different result, depends on the case. Also, there are known mastering errors when the scrambled CD image contains unscrambled sectors and the descrambled data contains scrambled sectors - again, if you don't have .scm checksums and don't have the scm image anymore, you can't really confirm the image is correct.

Would you advise that ideally the database would have .scm hashes?

9

(0 replies, posted in Verifications)

Matches http://redump.org/disc/63083/

Common Disc Info:
    Title: Sid Meier's SimGolf
    Foreign Title (Non-latin): 
    Disc Number / Letter: 
    Disc Title: 
    System: IBM PC Compatible
    Media Type: CD-ROM
    Category: Games
    Region: USA
    Languages: English
    Disc Serial: 1434917

    Ringcode Information:
        Data Side Mastering Code (laser branded/etched): 1434917    + +    B8266-01
        Data Side Mastering SID Code: IFPI LB48
        Data Side Toolstamp or Mastering Code (engraved/stamped): 
        Data Side Mould SID Code: IFPI 1070
        Data Side Additional Mould: 
        Label Side Mould SID Code: 
        Label Side Additional Mould: 
    Barcode: 0 14633 14349 2
    Error Count: 578
    Comments: [T:ISBN] 0-7845-3134-X
    Contents: 

Version and Editions:
    Version: 
    Edition/Release: 

Extras:
    Primary Volume Descriptor (PVD):

0320 : 20 20 20 20 20 20 20 20  20 20 20 20 20 32 30 30                200
0330 : 32 30 31 32 39 31 33 34  32 33 35 30 30 00 32 30   2012913423500.20
0340 : 30 32 30 31 32 39 31 33  34 32 33 35 30 30 00 30   02012913423500.0
0350 : 30 30 30 30 30 30 30 30  30 30 30 30 30 30 30 00   000000000000000.
0360 : 30 30 30 30 30 30 30 30  30 30 30 30 30 30 30 30   0000000000000000
0370 : 00 01 00 00 00 00 00 00  00 00 00 00 00 00 00 00   ................

Copy Protection:
    Copy Protection: EA CdKey Registration Module, EA CdKey Registration Module 2.0.0.2, EA CdKey Registration Module 2.1.0.5, Executable-Based Online Registration 2.0.0.2, SafeDisc (drvmgt.dll) 2.51-2.60, SafeDisc (secdrv.sys) 2.51, SafeDisc 1-3, SafeDisc 2, SafeDisc 2.51.021

Tracks and Write Offsets:
    DAT:

<rom name="SM_SIMGOLF.bin" size="257214720" crc="8e4dcc91" md5="c6368b1f995ccef6945434d7f6ce0a2a" sha1="21ad0220871a106c21c9dd5795f5ed5cf5d8a706" />

    Cuesheet:

FILE "SM_SIMGOLF.bin" BINARY
  TRACK 01 MODE1/2352
    INDEX 01 00:00:00

    Write Offset: -12

10

(3,147 replies, posted in General discussion)

F1ReB4LL wrote:

but some dumps are a mess of descrambled and scrambled data

I'm not clear on the benefit of the .scm hash. What's the process for discs with a mess of descrambled and scrambled data? Is the .scm hash used, or is the .bin hash used?

11

(3,147 replies, posted in General discussion)

If the descrambling isn't reversible for discs with mastering errors or unusual scrambling, won't it have to be redumped regardless of what the log shows?

If the .scm hash is the One True Hash, why not store it in the database?

12

(0 replies, posted in Verifications)

Matches http://redump.org/disc/43204/

Common Disc Info:
    Title: Quake II
    Foreign Title (Non-latin): 
    Disc Number / Letter: 
    Disc Title: 
    System: IBM PC Compatible
    Media Type: CD-ROM
    Category: Games
    Region: USA
    Languages: English
    Disc Serial: 1000095.101.US

    Ringcode Information:
        Data Side Mastering Code (laser branded/etched): 1000095101USRE4 R2H
        Data Side Mastering SID Code: IFPI L238
        Data Side Toolstamp or Mastering Code (engraved/stamped): 12
        Data Side Mould SID Code: IFPI 4121
        Data Side Additional Mould: 
        Label Side Mould SID Code: 
        Label Side Additional Mould: 
    Barcode: 0 47875 10195 1
    Error Count: 0
    Comments: 
    Contents: 

Version and Editions:
    Version: 
    Edition/Release: 

Extras:
    Primary Volume Descriptor (PVD):

0320 : 20 20 20 20 20 20 20 20  20 20 20 20 20 31 39 39                199
0330 : 38 30 38 32 35 31 34 35  35 34 34 30 30 00 31 39   8082514554400.19
0340 : 39 38 30 38 32 35 31 34  35 35 34 34 30 30 00 30   98082514554400.0
0350 : 30 30 30 30 30 30 30 30  30 30 30 30 30 30 30 00   000000000000000.
0360 : 30 30 30 30 30 30 30 30  30 30 30 30 30 30 30 30   0000000000000000
0370 : 00 01 00 00 00 00 00 00  00 00 00 00 00 00 00 00   ................

Copy Protection:
    Copy Protection: None found

Tracks and Write Offsets:
    DAT:

<rom name="QUAKE2 (Track 01).bin" size="447547968" crc="09705b99" md5="83fbef3c2ed31f785636f8513fb5ff24" sha1="8fc984ec91ae9ba1f762d4afb417262cdac45380" />
<rom name="QUAKE2 (Track 02).bin" size="37004016" crc="e145a106" md5="fe0255fb99eb7bc8e321966e2a18582c" sha1="0ba4b0b6b07f7873ac7279f6c85751cd46950843" />
<rom name="QUAKE2 (Track 03).bin" size="24274992" crc="b3fc76e3" md5="3d08b9e56cbb0d611c42bf91152438d9" sha1="ee14d6bc5fe8e0def32c1d3906521b3e6294dbfc" />
<rom name="QUAKE2 (Track 04).bin" size="26819856" crc="e4a2505e" md5="49c89e6ac99bdaee09424128f9b44fe7" sha1="32ab4ad7a311d0bd2f65800604192e03a9aee2d5" />
<rom name="QUAKE2 (Track 05).bin" size="30234960" crc="ad30c223" md5="5faa778537d857ffa343e87ac4127352" sha1="84534c387c8da75ec68582ed96af7cfa81af66d4" />
<rom name="QUAKE2 (Track 06).bin" size="27309072" crc="e5978c25" md5="9e1b08dc0c6dbe3cddd4e23627864eef" sha1="6b8ad7ce7653929d333a8bd048f63778772a2bc6" />
<rom name="QUAKE2 (Track 07).bin" size="37940112" crc="59535e4b" md5="7b2a6051f12c16ef99fd7f1ff74c321b" sha1="dc09c735e73106b7f93f8b6442e2e4c59ee0018e" />
<rom name="QUAKE2 (Track 08).bin" size="32481120" crc="7336b4b6" md5="c8da07d5def9f3f7f081299813bb0ba1" sha1="cb08838c742d1b89828d001231955765ebfe2fe4" />
<rom name="QUAKE2 (Track 09).bin" size="27487824" crc="89cdec42" md5="f7ccd6e0fb28c37a4bf27e69f6a1dcd6" sha1="406acb44cbf98e0770cf4d8d3e903db5fc093e5f" />
<rom name="QUAKE2 (Track 10).bin" size="21163296" crc="36ee81fa" md5="f5902df891e7c753298efca00fe30d40" sha1="13da4c66cc580d82429b9bc39a62a1fcedcd1425" />
<rom name="QUAKE2 (Track 11).bin" size="21356160" crc="229e3c2e" md5="be8c7f377d15dcd376fc62467216fd73" sha1="e17c16d1f472fa036fcb89491d66ebcba52518bd" />

    Cuesheet:

CATALOG 0000000000000
FILE "QUAKE2 (Track 01).bin" BINARY
  TRACK 01 MODE1/2352
    INDEX 01 00:00:00
FILE "QUAKE2 (Track 02).bin" BINARY
  TRACK 02 AUDIO
    INDEX 00 00:00:00
    INDEX 01 00:01:00
FILE "QUAKE2 (Track 03).bin" BINARY
  TRACK 03 AUDIO
    INDEX 01 00:00:00
FILE "QUAKE2 (Track 04).bin" BINARY
  TRACK 04 AUDIO
    INDEX 01 00:00:00
FILE "QUAKE2 (Track 05).bin" BINARY
  TRACK 05 AUDIO
    INDEX 01 00:00:00
FILE "QUAKE2 (Track 06).bin" BINARY
  TRACK 06 AUDIO
    INDEX 01 00:00:00
FILE "QUAKE2 (Track 07).bin" BINARY
  TRACK 07 AUDIO
    INDEX 01 00:00:00
FILE "QUAKE2 (Track 08).bin" BINARY
  TRACK 08 AUDIO
    INDEX 01 00:00:00
FILE "QUAKE2 (Track 09).bin" BINARY
  TRACK 09 AUDIO
    INDEX 01 00:00:00
FILE "QUAKE2 (Track 10).bin" BINARY
  TRACK 10 AUDIO
    INDEX 01 00:00:00
FILE "QUAKE2 (Track 11).bin" BINARY
  TRACK 11 AUDIO
    INDEX 01 00:00:00

    Write Offset: 0

13

(0 replies, posted in Verifications)

Matches http://redump.org/disc/14745/

Common Disc Info:
    Title: Diablo
    Foreign Title (Non-latin): 
    Disc Number / Letter: 
    Disc Title: 
    System: IBM PC Compatible
    Media Type: CD-ROM
    Category: Games
    Region: USA
    Languages: English
    Disc Serial: 

    Ringcode Information:
        Data Side Mastering Code (laser branded/etched): NIMBUS    C4 146957-02    03734
        Data Side Mastering SID Code: IFPI L894
        Data Side Toolstamp or Mastering Code (engraved/stamped): 
        Data Side Mould SID Code: IFPI 2T06
        Data Side Additional Mould: NIMBUS/CA
        Label Side Mould SID Code: 
        Label Side Additional Mould: 
    Barcode: 0 51581 03734 3
    Error Count: 0
    Comments: 
    Contents: 

Version and Editions:
    Version: 
    Edition/Release: 

Extras:
    Primary Volume Descriptor (PVD):

0320 : 20 20 20 20 20 20 20 20  20 20 20 20 20 31 39 39                199
0330 : 38 30 34 30 32 31 31 30  35 35 38 30 30 00 31 39   8040211055800.19
0340 : 39 38 30 34 30 32 31 31  30 36 34 30 30 30 00 00   98040211064000..
0350 : 00 00 00 00 00 00 00 00  00 00 00 00 00 00 00 00   ................
0360 : 00 00 00 00 00 00 00 00  00 00 00 00 00 00 00 00   ................
0370 : 00 01 00 00 00 00 00 00  00 00 00 00 00 00 00 00   ................

Copy Protection:
    Copy Protection: None found

Tracks and Write Offsets:
    DAT:

<rom name="diablo.bin" size="764348256" crc="b232a850" md5="4168121fbf0c786b7497cfa17319cd00" sha1="aa3331f94ccf115bad257a85c82c4cf26317516a" />

    Cuesheet:

FILE "diablo.bin" BINARY
  TRACK 01 MODE1/2352
    INDEX 01 00:00:00

    Write Offset: -22

Matches http://redump.org/disc/51202/

Common Disc Info:
    Title: Quake II Mission Pack: The Reckoning
    Foreign Title (Non-latin): 
    Disc Number / Letter: 
    Disc Title: 
    System: IBM PC Compatible
    Media Type: CD-ROM
    Category: Games
    Region: USA
    Languages: English
    Disc Serial: 

    Ringcode Information:
        Data Side Mastering Code (laser branded/etched): JVC    1000268101US R3H
        Data Side Mastering SID Code: 
        Data Side Toolstamp or Mastering Code (engraved/stamped): 12
        Data Side Mould SID Code: IFPI 4121
        Data Side Additional Mould: 
        Label Side Mould SID Code: 
        Label Side Additional Mould: 
    Barcode: 
    Error Count: 0
    Comments: 
    Contents: 

Version and Editions:
    Version: 
    Edition/Release: 

Extras:
    Primary Volume Descriptor (PVD):

0320 : 20 20 20 20 20 20 20 20  20 20 20 20 20 31 39 39                199
0330 : 38 30 35 31 39 32 30 33  35 35 30 30 30 00 31 39   8051920355000.19
0340 : 39 38 30 35 31 39 32 30  33 35 35 30 30 30 00 30   98051920355000.0
0350 : 30 30 30 30 30 30 30 30  30 30 30 30 30 30 30 00   000000000000000.
0360 : 30 30 30 30 30 30 30 30  30 30 30 30 30 30 30 30   0000000000000000
0370 : 00 01 00 00 00 00 00 00  00 00 00 00 00 00 00 00   ................

Copy Protection:
    Copy Protection: None found

Tracks and Write Offsets:
    DAT:

<rom name="Q2MP1 (Track 01).bin" size="241169376" crc="aefa5c3a" md5="3ad68e8892daa2c4801b1b87f9267c46" sha1="5d3c9f7cb3e7437d49f16253f8e4dbe2627c3683" />
<rom name="Q2MP1 (Track 02).bin" size="27664224" crc="cdf823cb" md5="1de23a412ba0e1f321593966ef49d891" sha1="cfd34d9720a4053be46427629e4f0b62b1cd9b90" />
<rom name="Q2MP1 (Track 03).bin" size="27426672" crc="d4b229a0" md5="fccf9e7b49294694a04e11703c9bf2cb" sha1="049be07ec0dfd2e87bd9bfaa7d0c29853f981ee8" />
<rom name="Q2MP1 (Track 04).bin" size="34035792" crc="df4400e8" md5="7ab6880bee3d2e6b5ea4e609b7fe681d" sha1="175bd18b667c23e6140e1fc19014f6038bec9977" />
<rom name="Q2MP1 (Track 05).bin" size="38288208" crc="4693cdc9" md5="3efe9b31b98b549960f1615cb037e670" sha1="02b30dfd93e16bfd0b8f29c75490bee867875056" />
<rom name="Q2MP1 (Track 06).bin" size="31721424" crc="a627226a" md5="976acfc8b356626849be91c14b2f43d7" sha1="f7a9b576b1e0195eb47b76ce110de2381d4c1140" />
<rom name="Q2MP1 (Track 07).bin" size="37175712" crc="9475f6ca" md5="2f395b4598658192fedd03552d29c2cd" sha1="5cf58bbb1506feba87de5d3c5147eb1877f2ae25" />
<rom name="Q2MP1 (Track 08).bin" size="31119312" crc="ea89596e" md5="353303c3b3aac19dd09897e1ef734288" sha1="5af678ada8af5541a418c2f94c595c16d75604f9" />
<rom name="Q2MP1 (Track 09).bin" size="24623088" crc="afac9abd" md5="d4a3e363aae511cffd757c00d8bd4f1f" sha1="936d99459e45edd7376c032894bc82e52d9a5ade" />
<rom name="Q2MP1 (Track 10).bin" size="27170304" crc="5423b8c1" md5="0aac4d4e5a1cc94e944a340cdfb2aede" sha1="ebd25ce813b836a67b5ac0b07f8a1063b12655f3" />
<rom name="Q2MP1 (Track 11).bin" size="30700656" crc="672496c2" md5="f8fc44ff29176e6fb61b555394063bdf" sha1="9e8782cadef2ca7f7082c489817029c7daf5e98e" />

    Cuesheet:

FILE "Q2MP1 (Track 01).bin" BINARY
  TRACK 01 MODE1/2352
    INDEX 01 00:00:00
FILE "Q2MP1 (Track 02).bin" BINARY
  TRACK 02 AUDIO
    INDEX 00 00:00:00
    INDEX 01 00:01:00
FILE "Q2MP1 (Track 03).bin" BINARY
  TRACK 03 AUDIO
    INDEX 00 00:00:00
    INDEX 01 00:01:74
FILE "Q2MP1 (Track 04).bin" BINARY
  TRACK 04 AUDIO
    INDEX 00 00:00:00
    INDEX 01 00:01:74
FILE "Q2MP1 (Track 05).bin" BINARY
  TRACK 05 AUDIO
    INDEX 00 00:00:00
    INDEX 01 00:01:74
FILE "Q2MP1 (Track 06).bin" BINARY
  TRACK 06 AUDIO
    INDEX 00 00:00:00
    INDEX 01 00:01:74
FILE "Q2MP1 (Track 07).bin" BINARY
  TRACK 07 AUDIO
    INDEX 00 00:00:00
    INDEX 01 00:01:74
FILE "Q2MP1 (Track 08).bin" BINARY
  TRACK 08 AUDIO
    INDEX 00 00:00:00
    INDEX 01 00:01:74
FILE "Q2MP1 (Track 09).bin" BINARY
  TRACK 09 AUDIO
    INDEX 00 00:00:00
    INDEX 01 00:01:74
FILE "Q2MP1 (Track 10).bin" BINARY
  TRACK 10 AUDIO
    INDEX 00 00:00:00
    INDEX 01 00:01:74
FILE "Q2MP1 (Track 11).bin" BINARY
  TRACK 11 AUDIO
    INDEX 00 00:00:00
    INDEX 01 00:01:74

    Write Offset: 0

15

(0 replies, posted in Verifications)

Matches http://redump.org/disc/58935/

Common Disc Info:
    Title: Deal or No Deal
    Foreign Title (Non-latin): 
    Disc Number / Letter: 
    Disc Title: 
    System: IBM PC Compatible
    Media Type: DVD-ROM-9
    Category: Games
    Region: USA
    Languages: English
    Disc Serial: 

    Ringcode Information:
        Layer 0 (Inner) Mastering Code (laser branded/etched): DEAL OR NO DEAL US L1    21
        Layer 0 (Inner) Mastering SID Code: IFPI LC20
        Layer 0 (Inner) Toolstamp or Mastering Code (engraved/stamped): 
        Data Side Mould SID Code: IFPI D242
        Data Side Additional Mould: 
        Layer 1 (Outer) Mastering Code (laser branded/etched): DEAL OR NO DEAL US L0    11
        Layer 1 (Outer) Mastering SID Code: IFPI LC20
        Layer 1 (Outer) Toolstamp or Mastering Code (engraved/stamped): 
        Label Side Mould SID Code: 
        Label Side Additional Mould: 
    Barcode: 
    Comments: [T:ISBN]
    Contents: 

Version and Editions:
    Version: 
    Edition/Release: 

Extras:
    Primary Volume Descriptor (PVD):

0320 : 20 20 20 20 20 20 20 20  20 20 20 20 20 32 30 30                200
0330 : 37 30 32 30 35 31 37 35  34 30 36 30 30 E0 30 30   7020517540600.00
0340 : 30 30 30 30 30 30 30 30  30 30 30 30 30 30 00 30   00000000000000.0
0350 : 30 30 30 30 30 30 30 30  30 30 30 30 30 30 30 00   000000000000000.
0360 : 30 30 30 30 30 30 30 30  30 30 30 30 30 30 30 30   0000000000000000
0370 : 00 01 00 00 00 00 00 00  00 00 00 00 00 00 00 00   ................

Copy Protection:
    Copy Protection: None found

Size & Checksum:
    Layerbreak: 2000176
    Size: 8108142592
    CRC32: 439b5988
    MD5: 81fe435f4f3c95b375c859fae7b35a2f
    SHA1: 41c4f791ff612163c80e9412e2766b8520cdc00f

Matches http://redump.org/disc/42134/

Common Disc Info:
    Title: The Sims 2: University (Expansion Pack) (Disc 2)
    Foreign Title (Non-latin): 
    Disc Number / Letter: 
    Disc Title: 
    System: IBM PC compatible
    Media Type: CD-ROM
    Category: Games
    Region: USA
    Languages: English
    Disc Serial: 1491717

    Ringcode Information:
        Data Side Mastering Code (laser branded/etched): **    (EA1491717SP)    C05B1630C
        Data Side Mastering SID Code: IFPI L771
        Data Side Toolstamp or Mastering Code (engraved/stamped): 
        Data Side Mould SID Code: IFPI 2A28
        Data Side Additional Mould: 
        Label Side Mould SID Code: 
        Label Side Additional Mould: 
    Barcode: 
    Error Count: 0
    Comments: 
    Contents: 

Version and Editions:
    Version: 
    Edition/Release: 

Extras:
    Primary Volume Descriptor (PVD):

0320 : 20 20 20 20 20 20 20 20  20 20 20 20 20 32 30 30                200
0330 : 35 30 32 31 35 30 30 35  34 30 35 30 30 E0 32 30   5021500540500.20
0340 : 30 35 30 32 31 35 30 30  35 34 30 35 30 30 E0 30   05021500540500.0
0350 : 30 30 30 30 30 30 30 30  30 30 30 30 30 30 30 00   000000000000000.
0360 : 32 30 30 35 30 32 31 35  30 30 35 34 30 35 30 30   2005021500540500
0370 : E0 01 00 20 20 20 20 20  20 20 20 20 20 20 20 20   ...

Tracks and Write Offsets:
    DAT:

<rom name="Sims2EP1_2.bin" size="271152672" crc="a0a07633" md5="f38459e81dc11cb8d6e677f21697ec06" sha1="c359e486e2d70be65b44a32e63bccaba2af0a332" />

    Cuesheet:

FILE "Sims2EP1_2.bin" BINARY
  TRACK 01 MODE1/2352
    INDEX 01 00:00:00

    Write Offset: -12

17

(3,147 replies, posted in General discussion)

sarami wrote:
hiker13526 wrote:

Trying to dump a PC CD and it took like 3 hours to dump with Plextor+MPF and failed

There are many c2 errors. Change the disc and/or drive.

hiker13526 wrote:

Should I submit the Plextor+CloneCD dump

hiker13526 wrote:

should I be using CloneCD for the non-Plextor verification?

It's ok for your private preservation but redump.org does not accept these.

Thank you for the reply! I will try another drive and see if that helps.

18

(3,147 replies, posted in General discussion)

NovaAurora wrote:
hiker13526 wrote:

Trying to dump a PC CD and it took like 3 hours to dump with Plextor+MPF and failed

Important to note that MPF is not DIC. DIC is what MPF uses but MPF has much more attached like BOS (Protection scanning)
Protection scanning can take a VERY long time sometimes in recent versions. If it goes over 30 minutes I'd recommend disabling it in the settings and scanning it manually with PID (Protection ID). https://protectionid.net/

Almost all the time was spent in the DIC terminal, not the MPF scanner.

19

(1 replies, posted in General discussion)

I dumped a game that has audio tracks using Plextor+MPF and everything went fine. But how do I verify it with another drive? I recall using EAC or PerfectRip, but I could not figure out how.

20

(3,147 replies, posted in General discussion)

Trying to dump a PC CD and it took like 3 hours to dump with Plextor+MPF and failed

https://www.mediafire.com/file/26pbe3na … H.zip/file

I dumped it with Plextor+CloneCD and it worked fine, and CloneCD verified to another drive fine. CDMage shows zero errors.

I'm not sure what is wrong with MPF here that it took so long and that it failed. Should I submit the Plextor+CloneCD dump, or should I only submit dumps that verified with Plextor+MPF?

---

Another disc dumped fine with Plextor+MPF, shows it uses SecuROM, and has 1 error. I tried dumping it with MPF on another drive but MPF went for 3 hours and I finally stopped it and used CloneCD. Is MPF supposed to work to verify on non-Plextor drives, or should I be using CloneCD for the non-Plextor verification?

Matches http://redump.org/disc/63946/

Common Disc Info:
    Title: JumpStart Advanced 3rd Grade (Disc 3) (Mystery Club Vol. 2 - Gadget Games)
    Foreign Title (Non-latin): 
    Disc Number / Letter: 
    Disc Title: 
    System: IBM PC Compatible
    Media Type: CD-ROM
    Category: Educational
    Region: USA
    Languages: English
    Disc Serial: S7195930

    Ringcode Information:
        Data Side Mastering Code (laser branded/etched): (204771) S7195930 01    TECHNICOLOR
        Data Side Mastering SID Code: IFPI L892
        Data Side Toolstamp or Mastering Code (engraved/stamped): 
        Data Side Mould SID Code: IFPI 2T92
        Data Side Additional Mould: TECHNICOLOR/CA
        Label Side Mould SID Code: 
        Label Side Additional Mould: 
    Barcode: 
    Error Count: 0
    Comments: [T:ISBN] 
    Contents: 

Version and Editions:
    Version: 1.0c
    Edition/Release: Original (VERIFY THIS)

Extras:
    Primary Volume Descriptor (PVD):

0320 : 20 20 20 20 20 20 20 20  20 20 20 20 20 32 30 30                200
0330 : 33 30 34 31 36 30 37 31  35 35 36 30 30 00 32 30   3041607155600.20
0340 : 30 33 30 34 31 36 30 37  31 37 30 30 30 30 00 00   03041607170000..
0350 : 00 00 00 00 00 00 00 00  00 00 00 00 00 00 00 00   ................
0360 : 00 00 00 00 00 00 00 00  00 00 00 00 00 00 00 00   ................
0370 : 00 01 00 00 00 00 00 00  00 00 00 00 00 00 00 00   ................

Copy Protection:
    Copy Protection: None found

Tracks and Write Offsets:
    DAT:

<rom name="3rd_disc3.bin" size="339410064" crc="c2f0d4c9" md5="4d23d951486a3e5b84bf86bac0ab7747" sha1="99384b5e1064e3a8465a0dc32adb8ecd1671f35b" />

    Cuesheet:

FILE "3rd_disc3.bin" BINARY
  TRACK 01 MODE1/2352
    INDEX 01 00:00:00

    Write Offset: -12

Matches http://redump.org/disc/63945/

Common Disc Info:
    Title: JumpStart Advanced 3rd Grade (Disc 2) (Far-Out Field Trips)
    Foreign Title (Non-latin): 
    Disc Number / Letter: 
    Disc Title: 
    System: IBM PC Compatible
    Media Type: CD-ROM
    Category: Educational
    Region: USA
    Languages: English
    Disc Serial: S7195920

    Ringcode Information:
        Data Side Mastering Code (laser branded/etched): (204770) S7195920 01    TECHNICOLOR
        Data Side Mastering SID Code: IFPI L892
        Data Side Toolstamp or Mastering Code (engraved/stamped): 
        Data Side Mould SID Code: IFPI 4M02
        Data Side Additional Mould: TECHNICOLOR/CA
        Label Side Mould SID Code: 
        Label Side Additional Mould: 
    Barcode: 
    Error Count: 0
    Comments: [T:ISBN] 
    Contents: 

Version and Editions:
    Version: 
    Edition/Release: Original (VERIFY THIS)

Extras:
    Primary Volume Descriptor (PVD):

0320 : 20 20 20 20 20 20 20 20  20 20 20 20 20 32 30 30                200
0330 : 33 30 33 31 39 31 37 33  38 35 39 30 30 00 32 30   3031917385900.20
0340 : 30 33 30 33 31 39 31 37  33 39 31 37 30 30 00 00   03031917391700..
0350 : 00 00 00 00 00 00 00 00  00 00 00 00 00 00 00 00   ................
0360 : 00 00 00 00 00 00 00 00  00 00 00 00 00 00 00 00   ................
0370 : 00 01 00 00 00 00 00 00  00 00 00 00 00 00 00 00   ................

Copy Protection:
    Copy Protection: None found

Tracks and Write Offsets:
    DAT:

<rom name="3rd_disc2.bin" size="218218560" crc="3b6f9301" md5="99d39e59d1873bd81e74ba82f31c6d0d" sha1="bac13836fe4a8e7afef1490100335696699b3140" />

    Cuesheet:

FILE "3rd_disc2.bin" BINARY
  TRACK 01 MODE1/2352
    INDEX 01 00:00:00

    Write Offset: -12

Matches http://redump.org/disc/63944/

Common Disc Info:
    Title: JumpStart Advanced 3rd Grade (Disc 1) (Fundamentals)
    Foreign Title (Non-latin): 
    Disc Number / Letter:
    Disc Title:
    System: IBM PC Compatible
    Media Type: CD-ROM
    Category: Educational
    Region: USA
    Languages: English
    Disc Serial: S7195910

    Ringcode Information:
        Data Side Mastering Code (laser branded/etched): (204769) S7195910 01    TECHNICOLOR
        Data Side Mastering SID Code: IFPI L892
        Data Side Toolstamp or Mastering Code (engraved/stamped): 
        Data Side Mould SID Code: IFPI 2T94
        Data Side Additional Mould: TECHNICOLOR/CA
        Label Side Mould SID Code: 
        Label Side Additional Mould: 
    Barcode: (OPTIONAL)
    Error Count: 1
    Comments:
    Contents:

Version and Editions:
    Version: 1.0c
    Edition/Release: Original

Extras:
    Primary Volume Descriptor (PVD):

0320 : 20 20 20 20 20 20 20 20  20 20 20 20 20 32 30 30                200
0330 : 33 30 33 32 38 31 31 31  38 35 39 30 30 00 32 30   3032811185900.20
0340 : 30 33 30 33 32 38 31 31  32 31 33 36 30 30 00 00   03032811213600..
0350 : 00 00 00 00 00 00 00 00  00 00 00 00 00 00 00 00   ................
0360 : 00 00 00 00 00 00 00 00  00 00 00 00 00 00 00 00   ................
0370 : 00 01 00 00 00 00 00 00  00 00 00 00 00 00 00 00   ................

Copy Protection:
    Copy Protection: SecuROM 4.84.69.0001
    SubIntention Data (SecuROM/LibCrypt):

MSF: 00:01:74 Q-Data: 410100 00:40:01 00 00:03:74 2ef1
MSF: 01:08:50 Q-Data: 410101 21:06:50 00 05:08:50 0a8f
MSF: 01:38:27 Q-Data: 410101 01:36:37 00 01:38:2f 54b4
MSF: 02:31:19 Q-Data: 410101 02:09:19 00 02:35:19 a4a2
MSF: 02:47:38 Q-Data: 410101 02:45:18 00 02:47:3c c400
MSF: 02:48:12 Q-Data: 410101 02:42:12 00 02:68:12 d1ec
MSF: 03:04:59 Q-Data: 410101 03:02:58 00 03:04:d9 7e95
MSF: 03:14:35 Q-Data: 410101 03:1a:35 00 03:04:35 58bf
MSF: 03:14:69 Q-Data: 410101 03:32:69 00 03:10:69 5ddf
MSF: 03:35:49 Q-Data: 410101 23:33:49 00 07:35:49 3476
MSF: 03:49:18 Q-Data: 410101 03:45:18 00 03:09:18 cfc8

Tracks and Write Offsets:
    DAT:

<rom name="3rd_disc1.bin" size="549935232" crc="fde21441" md5="4b9d9886c6f03293d4cf1171fa674317" sha1="5f5b813b21233f0c76c422f55c4ed93e131e424f" />

    Cuesheet:

FILE "3rd_disc1.bin" BINARY
  TRACK 01 MODE1/2352
    INDEX 01 00:00:00

    Write Offset: -12

24

(0 replies, posted in Verifications)

Matches http://redump.org/disc/80383/

Common Disc Info:
    Title: JumpStart Spelling
    Foreign Title (Non-latin):
    Disc Number / Letter:
    Disc Title:
    System: IBM PC Compatible
    Media Type: CD-ROM
    Category: Educational
    Region: USA
    Languages: English
    Disc Serial: S04253

    Ringcode Information:
        Data Side Mastering Code (laser branded/etched): FUTURE MEDIA \ CategoryFM 14966 (S04253/CU0001)
        Data Side Mastering SID Code: IFPI LG32
        Data Side Toolstamp or Mastering Code (engraved/stamped): 
        Data Side Mould SID Code: IFPI 3V42
        Data Side Additional Mould: 
        Label Side Mould SID Code: 
        Label Side Additional Mould: 
    Barcode: (OPTIONAL)
    Error Count: 0
    Comments: PC/Mac Hybrid
    Contents: (OPTIONAL)

Version and Editions:
    Version: Version 1.0
    Edition/Release: Original

Extras:
    Primary Volume Descriptor (PVD):

0320 : 20 20 20 20 20 20 20 20  20 20 20 20 20 31 39 39                199
0330 : 38 30 37 31 35 31 32 35  34 33 33 30 30 00 31 39   8071512543300.19
0340 : 39 38 30 39 30 33 31 39  34 39 35 33 30 30 00 00   98090319495300..
0350 : 00 00 00 00 00 00 00 00  00 00 00 00 00 00 00 00   ................
0360 : 00 00 00 00 00 00 00 00  00 00 00 00 00 00 00 00   ................
0370 : 00 01 00 00 00 00 00 00  00 00 00 00 00 00 00 00   ................

Copy Protection:
    Copy Protection: None found

Tracks and Write Offsets:
    DAT:

<rom name="jsspelling.bin" size="369118176" crc="318fe1fd" md5="69f67c10e2b1d942c96beef03870a51c" sha1="1f5ee6ff4a9ee0042387c4fa2049ddce5cdf4ddb" />

    Cuesheet:

FILE "jsspelling.bin" BINARY
  TRACK 01 MODE1/2352
    INDEX 01 00:00:00

    Write Offset: -22

Matches http://redump.org/disc/41828/

Common Disc Info:
    Title: Scholastic's The Magic School Bus Explores the Solar System
    Foreign Title (Non-latin): 
    Disc Number / Letter: 
    Disc Title: 
    System: IBM PC Compatible
    Media Type: CD-ROM
    Category: Games
    Region: USA
    Languages: English
    Disc Serial: 296-052-002

    Ringcode Information:
        Data Side Mastering Code (laser branded/etched): CDRM-1218170    1
        Data Side Mastering SID Code: 
        Data Side Toolstamp or Mastering Code (engraved/stamped): 
        Data Side Mould SID Code: IFPI 5032
        Data Side Additional Mould: 
        Label Side Mould SID Code: 
        Label Side Additional Mould: 
    Barcode: 
    Error Count: 0
    Comments: 
    Contents: 

Version and Editions:
    Version: 
    Edition/Release: 

Extras:
    Primary Volume Descriptor (PVD):

0320 : 20 20 20 20 20 20 20 20  20 20 20 20 20 31 39 39                199
0330 : 34 30 39 31 32 31 38 33  37 31 32 30 30 00 31 39   4091218371200.19
0340 : 39 34 31 30 31 34 30 37  33 30 33 33 30 30 00 30   94101407303300.0
0350 : 30 30 30 30 30 30 30 30  30 30 30 30 30 30 30 00   000000000000000.
0360 : 30 30 30 30 30 30 30 30  30 30 30 30 30 30 30 30   0000000000000000
0370 : 00 01 00 00 00 00 00 00  00 00 00 00 00 00 00 00   ................

Copy Protection:
    Copy Protection: None found

Tracks and Write Offsets:
    DAT:

<rom name="MSBSOLAR.bin" size="300825504" crc="e47555e0" md5="524f41576fcf9c5b2c4c18cf33f0c44d" sha1="7084e337d4ed0b0714d7b7b622923e3abb8bb6c6" />

    Cuesheet:

FILE "MSBSOLAR.bin" BINARY
  TRACK 01 MODE1/2352
    INDEX 01 00:00:00

    Write Offset: 2