1

(0 replies, posted in Verifications)

1:
Verification for http://redump.org/disc/60356/

Category: Demos
Data-Side Mould SID Code: IFPI 0164
Additional Mould: MADE IN GERMANY BY PMDC<tab>A
Comments: Blue cover, "Augustus/September 1994", "Thuis-versie" (home version); there is probably also a dealer versie (814 0082 ?).
Contents:

DVC is optional: Without, there are slide shows with voiceover only. With DVC, everything is moving and embedded video clips. Entries marked with * are not shown without DVC.
CD-i bedienen
Wat kan er met CD-i
-CD-Audio
-Photo CD
-Video CD
-CD-i
CD-i Titels
-Dolby Surround Demo *
-Genres
--Speelfilms
--Muziekvideos
--Muziek
--Kunst & Cultuur
--Hobby
--Cursussen
--Karaoke
--Games
--Naslagwerken
--Kinderen 3+
--Kinderen 6+
--Verwacht
-Gold Club
CD-i Spelers
-Dolby Surround Demo *
-Accessoires
--Touchpad
--Trackerball
--Muis
--Digital Video Cartridge
--Roller Controller
--Karaoke Set
--Peacekeeper Revolver
--Prijzen Accessoires
-Gold Club
Stop (Credits)

Version: Thuis-versie Augustus/September 1994
Edition/Release: Demo



2 & 3:
I dumped two more discs of http://redump.org/disc/47275/

Data-Side Mould SID Code: IFPI 0456
Comments: Red orange cover, "April/Mei 1995", "Thuis-versie" (home version); there is also a dealer versie (818 0066).
Contents:

DVC is optional: Without, there are slide shows with voiceover only. With DVC, everything is moving and embedded video clips. Entries marked with * are not shown without DVC.
CD-i bedienen
Wat kan er met CD-i
-CD-Audio
-Photo CD
-Video CD
-CD-i
CD-i Titels
-Dolby Surround Demo *
--Normal TV geluid *
--Dolby Surround *
-Genres
--Speelfilms
--Muziekvideos
--Muziek
--Kunst & Cultuur
--Hobby
--Cursussen
--Karaoke
--Games
--Naslagwerken
--Kinderen
--Dokumentaires
--Verwacht
-Gold Club
CD-i Spelers
-Dolby Surround Demo *
--Normal TV geluid *
--Dolby Surround *
-Accessoires
--Touchpad / Gamepad
--Trackerball
--Muis
--Digital Video Cartridge
--Roller Controller
--Karaoke Set
--Peacekeeper Revolver
--Prijzen Accessoires
-Gold Club
Stop (Credits)

Version: Thuis-versie April/Mei 1995
Edition/Release: Demo

Logs & pictures: alles.7z

2

(0 replies, posted in Verifications)

Verification for http://redump.org/disc/73296/

Dumped from two discs - the data is identical.

Disc Serial: 699 006-2
Additional Mould: MADE IN GERMANY<tab>O
Barcode: 7 31069 90062 7
Error Count: 1

Logs: 699006-2.7z

3

(0 replies, posted in Verifications)

Verification for http://redump.org/disc/77905/

Languages: German, English
Comments: Series: Digital Video on CD-i

Logs: 8130140.7z

4

(0 replies, posted in Verifications)

Verification for http://redump.org/disc/72891/

Languages: English
Additional Mould: MADE IN GERMANY
Barcode: 7 31069 90052 8
Comments: Came with Dutch user manual.
Edition/Release: Original

Logs: 699005-2.7z

Verification for http://redump.org/disc/73825/

Title: Private Lesson Series: Classical Guitar
Disc Title: Classical Guitar
Region: Europe
Disc Serial: 810 0013
Mastering Code (laser branded/etched): 8100013<tab>50262 710 01 +
Additional Mould: MADE IN GERMANY<tab>D
Barcode: 8 712581 000134
Comments: Series: Private Lesson Series
Write Offset: 635

Logs & pictures: 8100013.7z

Verification for http://redump.org/disc/60382/

Languages: Dutch
Additional Mould: MADE IN GERMANY<tab>F
Comments: Series: The Great Art Series

Logs: 8140001.7z

7

(0 replies, posted in Fixes & additions)

Additions for
http://redump.org/disc/49417/
http://redump.org/disc/49418/

Contents:
Disc 1
1.    Tape
2.    Open
3.    High
4.    Pictures of You
5.    Lullaby
6.    Just Like Heaven
7.    Fascination Street
8.    A Night Like This
9.    Trust
10.    Doing the Unstuck
11.    The Walk
12.    Let's Go to Bed
13.    Friday I'm in Love
Disc 2
1.    In Between Days
2.    From the Edge of the Deep Green Sea
3.    Never Enough
4.    Cut
5.    End
6.    To Wish Impossible Things
7.    Primary
8.    Boys Don't Cry
9.    Why Can't I Be You?
10.    A Forest

Verification & additions for http://redump.org/disc/73815/
Logs and ring: 8102002.7z

Additions:
Additional Mould: MADE IN GERMANY BY PMDC<tab>R
Contents:
1.    Can't Stop This Thing We Started
2.    (Everything I Do) I Do It for You
3.    All I Want Is You
4.    Thought I'd Died and Gone to Heaven
5.    There Will Never Be Another Tonight
6.    Do I Have To Say the Words?
7.    Touch the Hand
8.    Credits

Verification & fixes & additions for http://redump.org/disc/77540/
Logs and ring: 8180089.7z

Fixes & additions
Title: CD-i / Video CD Titel-Neuheiten II/95 (Roman numerals!)
Mastering Code (laser branded/etched): 8180089<tab>50525 782 01  >
Data-Side Mould SID Code: IFPI 01L7
Additional Mould: MADE IN GERMANY BY PMDC<tab>I
Contents:
[+]
4 in 1
Dolby Surround
TV Spots
Neue Titel
-CD-i Spiele
--Creature Shock
--Flashback
--Lost Eden
--Marco Polo
--Micro Machines
--Monty Python's Invasion from the Planet Skyron
--Rise of the Robots
--Secret Mission
--Thunder in Paradise
--Voyeur
--World Cup Golf
-Video CD Filme
--Begegnungen
--Forrest Gump
--Star Trek: Treffen der Generationen
-CD-i Kindertitel
--Die CD-i mit der Maus
--Die Malstiftfabrik
--Muzzy
--Tim&Bär
-Video CD Kindertitel
--Sigi Sauerstoff
--Pinocchio
-CD-i Sachthemen
--Bertelsmann Universallexikon
--Kursbuch Gesundheit
-Video CD Sachthemen
--Mr. Bean
-Video CD Erotik
--Animal Instinct
-CD-i Musik
--The Cranberries - Doors and Windows
--Xplora1: Peter Gabriel's Secret World

Audio tracks:
4 in 1
The Cranberries - Zombie

FXSNT501 Tokimeki Card Paradise: Koi no Royal Straight Flush
http://redump.org/disc/67253/
Mastering code: FXSNT501<tab>HSNT0101082SAAS
Mould SID: IFPI 9902

FXNHE507 Shanghai: Banri no Choujou
http://redump.org/disc/67254/
Mastering code: HTLFF NHE0<weird character: ¯|, see picture>10161<tab>VAUA
Mastering SID: IFPI L441
Mould SID: IFPI 7504

FXHUD505 Kishin Douji Zenki FX: Vajra Fight
http://redump.org/disc/67251/
Mastering code: FXHUD505<tab>HHUD0511301SAAS
Mould SID: IFPI 9904

FXNAX601 Super Real Mahjong P.V FX
http://redump.org/disc/67252/
Mastering code: FXNAX601<tab>HNAX0103071SAAS
Mould SID: IFPI 9904

Let me add some clarifcation (or confusion?) to the "Bertelsmann Universal Lexikon" entries:
http://redump.org/disc/64166/
http://redump.org/disc/64167/

  • Even if it is spelled "Bertelsmann Universal Lexikon" on disc and jewel case, this is just their logo and how they print it on books. It's actually called "Bertelsmann Universallexikon" (also on the back cover several times). This is also the correct spelling for German compound words.
    In the companion booklet, they go even further and call it "(Das) Bertelsmann CD-i Universallexikon".
    --> I suggest to change these titles to "Bertelsmann Universallexikon".

  • The information in above dumps seem to come from the jewel case only.
    I have a version that comes in a cardboard box and contains above jewel case and also a companion booklet ("Das Bertelsmann CD-i Universallexikon - Begleitheft"; 44 pages).
    --> I cannot verify if there are several releases (jewel case only / cardboard box). It is also very likely that most people got rid of everything and just kept the jewel case.

  • The jewel case contains two discs:
    1 - Green disc "Bertelsmann Universallexikon", subtitle "Für CD-i Player mit Digital Video Cartridge". This is the main disc.
    2 - Blue disc "Bertelsmann Universallexikon", subtitle "Für CD-i Player ohne Digital Video Cartridge". This is the second disc, according to the back cover of jewel case/cardboard box. ("Enthält zweite Disc für Player ohne Digital Video Cartridge")
    --> I suggest to add disc numbers 1 and 2.

  • A lot of identification numbers for this title:

    Barcode (box): 8 712581 301361
    Barcode (jewel case): 8 712581 301378
    Catalogue number (box): 813 0136
    Catalogue number (jewel case): 813 0137
    Catalogue number (green disc): 813 0135
    Catalogue number (blue disc):  813 0114

Here's my verification data for both entries:

Common Disc Info:
    Title: Bertelsmann Universallexikon
    Foreign Title (Non-latin): 
    Disc Number / Letter: 1
    Disc Title: Für CD-i Player mit Digital Video Cartridge
    System: Philips CD-i
    Media Type: CD-ROM
    Category: Multimedia
    Matching IDs: 64166
    Region: Germany
    Languages: German
    Disc Serial: 813 0135

    Ringcode Information:
        Mastering Code (laser branded/etched): 8130135V109 50464334 01>
        Mastering SID Code: IFPI L003
        Data-Side Mould SID Code: IFPI 0179
        Label-Side Mould SID Code: (REQUIRED, IF EXISTS)
        Additional Mould: MADE IN GERMANY BY PMDC[TAB]B
        Toolstamp or Mastering Code (engraved/stamped): (REQUIRED, IF EXISTS)
    Barcode: 8 712581 301361
    Error Count: 0
    Comments: Disc for CD-i players with DVC.
    Part of a box-set that includes disc (http://redump.org/disc/64167/) for CD-i players without DVC and a companion booklet "Das Bertelsmann CD-i Universallexikon - Begleitheft" with 44 pages.
    Catalogue number (disc):  813 0135
    Catalogue number (jewel case): 813 0137
    Catalogue number (box): 813 0136
    Barcode (jewel case): 8 712581 301378
    Barcode (box): 8 712581 301361
    Contents: (OPTIONAL)

Version and Editions:
    Version: 1.09
    Edition/Release: Original (VERIFY THIS)

Extras:
    Primary Volume Descriptor (PVD):

0320 : 20 20 20 20 20 20 20 20  00 00 00 00 00 31 39 39           .....199
0330 : 35 30 32 31 37 31 36 35  31 31 33 30 30 00 31 39   5021716511300.19
0340 : 39 35 30 32 31 37 31 36  35 31 31 33 30 30 00 30   95021716511300.0
0350 : 30 30 30 30 30 30 30 30  30 30 30 30 30 30 30 00   000000000000000.
0360 : 31 39 39 35 30 32 31 37  31 36 35 31 31 33 30 30   1995021716511300
0370 : 00 01 00 00 00 00 00 00  00 00 00 00 00 00 00 00   ................

Tracks and Write Offsets:
    DAT:

<rom name="8130135V109.bin" size="776983200" crc="a2724fbc" md5="370de8a16494241462c4b54881de32d9" sha1="6560186a750aefeac9c885734293d1758aa667f3" />

    Cuesheet:

CATALOG 0000000000000
FILE "8130135V109.bin" BINARY
  TRACK 01 CDI/2352
    INDEX 01 00:00:00

    Write Offset: 222
Common Disc Info:
    Title: Bertelsmann Universallexikon
    Foreign Title (Non-latin): 
    Disc Number / Letter: 2
    Disc Title: Für CD-i Player ohne Digital Video Cartridge
    System: Philips CD-i
    Media Type: CD-ROM
    Category: Multimedia
    Matching IDs: 64167
    Region: Germany
    Languages: German
    Disc Serial: 813 0114

    Ringcode Information:
        Mastering Code (laser branded/etched): 8130114V106 50464025 01/
        Mastering SID Code: IFPI L003
        Data-Side Mould SID Code: IFPI 0178
        Label-Side Mould SID Code: (REQUIRED, IF EXISTS)
        Additional Mould: MADE IN GERMANY BY PMDC[TAB]A
        Toolstamp or Mastering Code (engraved/stamped): (REQUIRED, IF EXISTS)
    Barcode: 8 712581 301361
    Error Count: 0
    Comments: Disc for CD-i players without DVC.
    Part of a box-set that includes disc (http://redump.org/disc/64166/) for CD-i players with DVC and a companion booklet "Das Bertelsmann CD-i Universallexikon - Begleitheft" with 44 pages.
    Catalogue number (disc):  813 0114
    Catalogue number (jewel case): 813 0137
    Catalogue number (box): 813 0136
    Barcode (jewel case): 8 712581 301378
    Barcode (box): 8 712581 301361
    Contents: (OPTIONAL)

Version and Editions:
    Version: 1.06
    Edition/Release: Original

Extras:
    Primary Volume Descriptor (PVD):

0320 : 20 20 20 20 20 20 20 20  00 00 00 00 00 31 39 39           .....199
0330 : 35 30 32 31 35 31 38 31  34 34 30 30 30 00 31 39   5021518144000.19
0340 : 39 35 30 32 31 35 31 38  31 34 34 30 30 30 00 30   95021518144000.0
0350 : 30 30 30 30 30 30 30 30  30 30 30 30 30 30 30 00   000000000000000.
0360 : 31 39 39 35 30 32 31 35  31 38 31 34 34 30 30 30   1995021518144000
0370 : 00 01 00 00 00 00 00 00  00 00 00 00 00 00 00 00   ................

Tracks and Write Offsets:
    DAT:

<rom name="8130114V106.bin" size="735588000" crc="4fe58c8d" md5="fd58d6b147505688cb20d01c50fd4a66" sha1="7034af643481aeece606d635f75fa02612943e52" />

    Cuesheet:

CATALOG 0000000000000
FILE "8130114V106.bin" BINARY
  TRACK 01 CDI/2352
    INDEX 01 00:00:00

    Write Offset: 0

Logs: 8130136.7z

12

(2,833 replies, posted in General discussion)

user7 wrote:

Note that one of the above discs dumped without error here - http://redump.org/disc/73514/

New dic bug?

I had trouble with these discs for years, long before the above dump was added to the database. If you don't pay attention, you don't see the error because the log window disappears when the dump is finished. The data matches, by the way.

13

(2,833 replies, posted in General discussion)

I'm having trouble dumping these discs of The 7th Guest for Philips CD-i (DE, Disc 1).
2x 8130116V104 (data/bin file matches 73514)
1x 8130116V201

DICUI 1.18 and latest MPF throw this error in the log window but the process finishes with all required files:
[ERROR] Number of sector(s) where mode2 NoEdc subheader(0x10 - 0x17) isn't same: 1
Total errors: 1

IsoBuster on a different PC/different drive chokes on these discs too:
Error 03/11/05 on sector 308.325.

Logs: 8130116.7z

It's been a while, but here is batch 6a of single track CD-i discs. These are Green Book movie discs, only compatible with CD-i players (see http://forum.redump.org/post/58064/).

new:

Common Disc Info:
    Title: Keep the Faith: An Evening with Bon Jovi
    Foreign Title (Non-latin): (OPTIONAL)
    Disc Number / Letter: 1
    Disc Title: Keep the Faith: An Evening with Bon Jovi Disc 1
    System: Philips CD-i Digital Video
    Media Type: CD-ROM
    Category: Music
    Region: Europe
    Languages: English
    Disc Serial: 810 2003 (bundle/jewel case) / 810 2011 (disc label/ring)

    Ringcode Information:
        Mastering Code (laser branded/etched): 8102011 50373755 02 >
        Mastering SID Code: (REQUIRED, IF EXISTS)
        Data-Side Mould SID Code: IFPI 01F4
        Label-Side Mould SID Code: (REQUIRED, IF EXISTS)
        Additional Mould: MADE IN GERMANY BY PMDC[TAB]J
        Toolstamp or Mastering Code (engraved/stamped): (REQUIRED, IF EXISTS)
    Barcode: 8 712581 020033
    Error Count: 0
    Comments: 810 2003 (bundle/jewel case) / 810 2011 (disc label/ring)
    Contents: (OPTIONAL)

Version and Editions:
    Version: (REQUIRED, IF EXISTS)
    Edition/Release: Original

Extras:
    Primary Volume Descriptor (PVD):

0320 : 20 20 20 20 20 20 20 20  20 20 20 20 20 31 39 39                199
0330 : 34 30 32 31 36 31 32 35  32 35 30 30 30 00 30 30   4021612525000.00
0340 : 30 30 30 30 30 30 30 30  30 30 30 30 30 30 00 30   00000000000000.0
0350 : 30 30 30 30 30 30 30 30  30 30 30 30 30 30 30 00   000000000000000.
0360 : 30 30 30 30 30 30 30 30  30 30 30 30 30 30 30 30   0000000000000000
0370 : 00 01 00 00 00 00 00 00  00 00 00 00 00 00 00 00   ................

Tracks and Write Offsets:
    DAT:

<rom name="8102011.bin" size="441529200" crc="96f197ec" md5="0380984f4cca534438638f5ee5524847" sha1="6edcf8c0d65b8bd7e89f8fe23580cfb25245e675" />

    Cuesheet:

CATALOG 0000000000000
FILE "8102011.bin" BINARY
  TRACK 01 CDI/2352
    INDEX 01 00:00:00

    Write Offset: 0
Common Disc Info:
    Title: Keep the Faith: An Evening with Bon Jovi
    Foreign Title (Non-latin): (OPTIONAL)
    Disc Number / Letter: 2
    Disc Title: Keep the Faith: An Evening with Bon Jovi Disc 2
    System: Philips CD-i Digital Video
    Media Type: CD-ROM
    Category: Music
    Region: Europe
    Languages: English
    Disc Serial: 810 2003 (bundle/jewel case) / 810 2012 (disc label/ring)

    Ringcode Information:
        Mastering Code (laser branded/etched): 8102012 50373762 02 >
        Mastering SID Code: (REQUIRED, IF EXISTS)
        Data-Side Mould SID Code: IFPI 01F5
        Label-Side Mould SID Code: (REQUIRED, IF EXISTS)
        Additional Mould: MADE IN GERMANY BY PMDC[TAB]J
        Toolstamp or Mastering Code (engraved/stamped): (REQUIRED, IF EXISTS)
    Barcode: 8 712581 020033
    Error Count: 0
    Comments: 810 2003 (bundle/jewel case) / 810 2012 (disc label/ring)
    Contents: (OPTIONAL)

Version and Editions:
    Version: (REQUIRED, IF EXISTS)
    Edition/Release: Original

Extras:
    Primary Volume Descriptor (PVD):

0320 : 20 20 20 20 20 20 20 20  20 20 20 20 20 31 39 39                199
0330 : 34 30 32 31 38 31 30 32  38 31 31 30 30 00 30 30   4021810281100.00
0340 : 30 30 30 30 30 30 30 30  30 30 30 30 30 30 00 30   00000000000000.0
0350 : 30 30 30 30 30 30 30 30  30 30 30 30 30 30 30 00   000000000000000.
0360 : 30 30 30 30 30 30 30 30  30 30 30 30 30 30 30 30   0000000000000000
0370 : 00 01 00 00 00 00 00 00  00 00 00 00 00 00 00 00   ................

Tracks and Write Offsets:
    DAT:

<rom name="8102012.bin" size="475398000" crc="d08590b1" md5="ff516b9a99ba31ccc97098ec1032cd01" sha1="4e5abb71a4458ce66b3f97080ac88328012e8409" />

    Cuesheet:

CATALOG 0000000000000
FILE "8102012.bin" BINARY
  TRACK 01 CDI/2352
    INDEX 01 00:00:00

    Write Offset: 0
Common Disc Info:
    Title: Tina Turner: Rio '88
    Foreign Title (Non-latin): (OPTIONAL)
    Disc Number / Letter: 1
    Disc Title: Tina Turner: Rio '88 Disc 1
    System: Philips CD-i Digital Video
    Media Type: CD-ROM
    Category: Music
    Region: Europe
    Languages: English
    Disc Serial: 083 340-4 (bundle/jewel case) / 080 348-4 (disc label/ring)

    Ringcode Information:
        Mastering Code (laser branded/etched): 0803484V106 50398938 01>
        Mastering SID Code: (REQUIRED, IF EXISTS)
        Data-Side Mould SID Code: IFPI 0198
        Label-Side Mould SID Code: (REQUIRED, IF EXISTS)
        Additional Mould: MADE IN GERMANY BY PMDC[TAB]G
        Toolstamp or Mastering Code (engraved/stamped): (REQUIRED, IF EXISTS)
    Barcode: 0 44008 33404 0
    Error Count: 0
    Comments: 083 340-4 (bundle/jewel case) / 080 348-4 (disc label/ring)
    Contents: (OPTIONAL)

Version and Editions:
    Version: 1.06
    Edition/Release: Original

Extras:
    Primary Volume Descriptor (PVD):

0320 : 20 20 20 20 20 20 20 20  20 20 20 20 20 31 39 39                199
0330 : 34 30 33 31 30 31 35 33  34 30 34 30 30 00 30 30   4031015340400.00
0340 : 30 30 30 30 30 30 30 30  30 30 30 30 30 30 00 30   00000000000000.0
0350 : 30 30 30 30 30 30 30 30  30 30 30 30 30 30 30 00   000000000000000.
0360 : 30 30 30 30 30 30 30 30  30 30 30 30 30 30 30 30   0000000000000000
0370 : 00 01 00 00 00 00 00 00  00 00 00 00 00 00 00 00   ................

Tracks and Write Offsets:
    DAT:

<rom name="0803484.bin" size="381906000" crc="7044e09c" md5="498473be94fc63761e65bf0be29d0ab6" sha1="a088256b3519a42dd822f82e8c67561a28df966c" />

    Cuesheet:

CATALOG 0000000000000
FILE "0803484.bin" BINARY
  TRACK 01 CDI/2352
    INDEX 01 00:00:00

    Write Offset: 0
Common Disc Info:
    Title: Tina Turner: Rio '88
    Foreign Title (Non-latin): (OPTIONAL)
    Disc Number / Letter: 2
    Disc Title: Tina Turner: Rio '88 Disc 2
    System: Philips CD-i Digital Video
    Media Type: CD-ROM
    Category: Music
    Region: Europe
    Languages: English
    Disc Serial: 083 340-4 (bundle/jewel case) / 082 784-4 (disc label/ring)

    Ringcode Information:
        Mastering Code (laser branded/etched): 0827844V102 50398939 01>
        Mastering SID Code: (REQUIRED, IF EXISTS)
        Data-Side Mould SID Code: IFPI 0198
        Label-Side Mould SID Code: (REQUIRED, IF EXISTS)
        Additional Mould: MADE IN GERMANY BY PMDC[TAB]E
        Toolstamp or Mastering Code (engraved/stamped): (REQUIRED, IF EXISTS)
    Barcode: 0 44008 33404 0
    Error Count: 0
    Comments: 083 340-4 (bundle/jewel case) / 082 784-4 (disc label/ring)
    Contents: (OPTIONAL)

Version and Editions:
    Version: 1.02
    Edition/Release: Original

Extras:
    Primary Volume Descriptor (PVD):

0320 : 20 20 20 20 20 20 20 20  20 20 20 20 20 31 39 39                199
0330 : 34 30 32 32 34 31 37 34  33 33 33 30 30 00 30 30   4022417433300.00
0340 : 30 30 30 30 30 30 30 30  30 30 30 30 30 30 00 30   00000000000000.0
0350 : 30 30 30 30 30 30 30 30  30 30 30 30 30 30 30 00   000000000000000.
0360 : 30 30 30 30 30 30 30 30  30 30 30 30 30 30 30 30   0000000000000000
0370 : 00 01 00 00 00 00 00 00  00 00 00 00 00 00 00 00   ................

Tracks and Write Offsets:
    DAT:

<rom name="0827844.bin" size="434649600" crc="0b775a59" md5="65bab2e5e13eb09c78435df73aba838b" sha1="c9fa0860054d9d578fdd75c7be27ff5601ee46da" />

    Cuesheet:

CATALOG 0000000000000
FILE "0827844.bin" BINARY
  TRACK 01 CDI/2352
    INDEX 01 00:00:00

    Write Offset: 0

verified (another set of discs, dumped on two different drives with two different programs):

Common Disc Info:
    Title: Black Rain
    Disc Number / Letter: 1
    Disc Title: Black Rain Disk 1
    System: Philips CD-i Digital Video
    Media Type: CD-ROM
    Category: Video
    Matching IDs: 49415
    Region: Germany
    Languages: German
    Disc Serial: 813 1013 (bundle/jewel case) / 813 1014 (disc label/ring)

    Ringcode Information:
        Mastering Code (laser branded/etched): 8131014V103 50418481 01>
        Mastering SID Code: IFPI L003
        Data-Side Mould SID Code: IFPI 0132
        Label-Side Mould SID Code: (REQUIRED, IF EXISTS)
        Additional Mould: MADE IN GERMANY BY PMDC[TAB]D
        Toolstamp or Mastering Code (engraved/stamped): (REQUIRED, IF EXISTS)
    Barcode: 8 712581 310134
    Error Count: 0
    Comments: 813 1013 (bundle/jewel case) / 813 1014 (disc label/ring)
    Contents: (OPTIONAL)

Version and Editions:
    Version: 1.03
    Edition/Release: Original

Extras:
    Primary Volume Descriptor (PVD):

0320 : 20 20 20 20 20 20 20 20  20 20 20 20 20 31 39 39                199
0330 : 34 30 36 31 33 32 30 30  39 31 35 30 30 00 30 30   4061320091500.00
0340 : 30 30 30 30 30 30 30 30  30 30 30 30 30 30 00 30   00000000000000.0
0350 : 30 30 30 30 30 30 30 30  30 30 30 30 30 30 30 00   000000000000000.
0360 : 30 30 30 30 30 30 30 30  30 30 30 30 30 30 30 30   0000000000000000
0370 : 00 01 00 00 00 00 00 00  00 00 00 00 00 00 00 00   ................

Tracks and Write Offsets:
    DAT:

<rom name="8131014.bin" size="644036400" crc="e5c47f18" md5="1735c81a30c34559c98e452563df88e3" sha1="c43771e648780232d9cd4eb7dec4f778a3c06a4c" />

    Cuesheet:

CATALOG 0000000000000
FILE "8131014.bin" BINARY
  TRACK 01 CDI/2352
    INDEX 01 00:00:00

    Write Offset: -954
Common Disc Info:
    Title: Black Rain
    Disc Number / Letter: 2
    Disc Title: Black Rain Disk 2
    System: Philips CD-i Digital Video
    Media Type: CD-ROM
    Category: Video
    Matching IDs: 49416
    Region: Germany
    Languages: German
    Disc Serial: 813 1013 (bundle/jewel case) / 813 1015 (disc label/ring)

    Ringcode Information:
        Mastering Code (laser branded/etched): 8131015V103 50418500 01>
        Mastering SID Code: IFPI L003
        Data-Side Mould SID Code: IFPI 0132
        Label-Side Mould SID Code: (REQUIRED, IF EXISTS)
        Additional Mould: MADE IN GERMANY BY PMDC[TAB]E
        Toolstamp or Mastering Code (engraved/stamped): (REQUIRED, IF EXISTS)
    Barcode: 8 712581 310134
    Error Count: 0
    Comments: 813 1013 (bundle/jewel case) / 813 1015 (disc label/ring)
    Contents: (OPTIONAL)

Version and Editions:
    Version: 1.03
    Edition/Release: Original

Extras:
    Primary Volume Descriptor (PVD):

0320 : 20 20 20 20 20 20 20 20  20 20 20 20 20 31 39 39                199
0330 : 34 30 36 32 30 30 38 30  30 35 31 30 30 00 30 30   4062008005100.00
0340 : 30 30 30 30 30 30 30 30  30 30 30 30 30 30 00 30   00000000000000.0
0350 : 30 30 30 30 30 30 30 30  30 30 30 30 30 30 30 00   000000000000000.
0360 : 30 30 30 30 30 30 30 30  30 30 30 30 30 30 30 30   0000000000000000
0370 : 00 01 00 00 00 00 00 00  00 00 00 00 00 00 00 00   ................

Tracks and Write Offsets:
    DAT:

<rom name="8131015.bin" size="655326000" crc="7be45194" md5="ca2f94c482af025e90f87674d0705138" sha1="df8a6cb6dbae36fd52045df525f4d736632abc02" />

    Cuesheet:

CATALOG 0000000000000
FILE "8131015.bin" BINARY
  TRACK 01 CDI/2352
    INDEX 01 00:00:00

    Write Offset: -954

Logs and pictures: _batch6a-dvoncdi.7z
Edit: File was deleted; uploaded to a new host.

Of course some kind of sanity check needs to be implemented on database side and/or mandatory user input fields on DICUI side. You'll end up with a lot of Klingon releases otherwise...

Square wrote:

Thanks for the update !
Doesn't crash anymore with my USB PX-755UF.

I confirm, it also doesn't crash anymore with PX-760A connected via Ugreen IDE-USB3 adapter.

It still doesn't run with Windows XP though...

I have to report two errors:

1. Old Windows XP machine with PX-760A connected to IDE
Program doesn't run at all ("not a valid Win32 executable)
--> Can you please compile a Win XP target as well?

2. New Windows 10 1803 machine with PX-760A connected via Ugreen IDE-USB3 adapter
Drive letter appears when a disc is inserted. Program then crashes when selecting a disc type.
This only happens with ODD connected via USB adapter, it doesn't crash with native SATA drives (I don't have a SATA Plextor, so I can't rip discs properly)

Not to forget, the list of commands (i.e. templates) should be smart - and contain a selection of the different parameters for the various versions of DIC and also an option for safe/slow dumping of scratched discs.

Until a gui is created these templates could be used to create batch files.

This is a very good idea!
We should define a list with common DIC parameters for the various systems/disc types, and also for the programs to run after DIC.
That way the coder only has to take care of the GUI and doesn't have to figure out what commands/programs to call.

20

(2,833 replies, posted in General discussion)

F1ReB4LL wrote:
rosewood wrote:

Audio trap disc, DIC stop command and subdump displays this a couple of times:

Sense data (SK/ASC/ASCQ): 0x00/0x00/0x00
No sense data. No additional sense information.

Have you tried to dump other discs this way? Maybe the drive itself doesn't like swapping?

Not yet, I'll try it with my other multi track CD-i discs when I have more time. The drive is a Plextor PX-760A

21

(2,833 replies, posted in General discussion)

Audio trap disc, DIC stop command and subdump displays this a couple of times:

Sense data (SK/ASC/ASCQ): 0x00/0x00/0x00
No sense data. No additional sense information.

All files are empty, except the log files, tried both subdump variants:

Args: -i g: -f 8180089_28.sub -mode 6 -rereadnum 25 -fix 2
TOC reading...
Find subchannel start sector...
30 70 0c 03 84 05 0d 0c 30 30 f0 04 
subStartAddr:   -57498
subEndAddr:     -57648
sectorQuantity: -150
Flush...
Sectors with possible errors: 0.
Not corrected sector quantity: 0.
Flush...
Sectors with possible errors: 0.
Not corrected sector quantity: 0.
Flush...
Sectors with possible errors: 0.
Not corrected sector quantity: 0.
Flush...
Sectors with possible errors: 0.
Not corrected sector quantity: 0.
Flush...
Sectors with possible errors: 0.
Not corrected sector quantity: 0.
Pre fix failed sectors quantity: 0.
subchannelsFix started.
Not corrected bytes quantity: 0.
Post correction sectors quantity: 0.


Post correction started.
Pre fix failed sectors quantity: 0.
subchannelsFix started.
Not corrected bytes quantity: 0.
Args: -i g: -f 8180089_a8.sub -mode 6 -rereadnum 25 -fix 2
TOC reading...
Find subchannel start sector...
30 70 0c 03 84 05 0d 0c 30 30 f0 04 
subStartAddr:   -57498
subEndAddr:     -57648
sectorQuantity: -150
Flush...
Sectors with possible errors: 0.
Not corrected sector quantity: 0.
Flush...
Sectors with possible errors: 0.
Not corrected sector quantity: 0.
Flush...
Sectors with possible errors: 0.
Not corrected sector quantity: 0.
Flush...
Sectors with possible errors: 0.
Not corrected sector quantity: 0.
Flush...
Sectors with possible errors: 0.
Not corrected sector quantity: 0.
Pre fix failed sectors quantity: 0.
subchannelsFix started.
Not corrected bytes quantity: 0.
Post correction sectors quantity: 0.


Post correction started.
Pre fix failed sectors quantity: 0.
subchannelsFix started.
Not corrected bytes quantity: 0.


F1ReB4LL wrote:

CD-i disc in GD mode?

Yes, tried all possibilities - I want to dump this disc for good, it already took me too much time...

22

(2,833 replies, posted in General discussion)

F1ReB4LL wrote:

Runs for hours writing what? Does it report about read errors or something?

It ran for hours at those lines, the drive made a clicking sound every other second:

This drive supports [OpCode: 0xd8, SubCode: 1]
This drive supports [OpCode: 0xd8, SubCode: 2]

When I ran it again and again it reported some vendor errors or that the drive doesn't support C2, or waited at those lines again.

As the results seem to vary slightly between each run, I made 6 final tests this morning, each one with a full shut down of the PC afterwards: DIC 20171010, 20171210 and 20180113, in GD and CD mode.
All those times it didn't hang at the lines mentioned above, but it didn't manage to rip the disc as well...

logs

I figured out what was wrong. It seems that it depends on the browser how the data is copied. IE11 - copies all values separated with a space and rows separated with a space and line break. Edge - copies all values/rows separated with a line break. Firefox - does it right.
Your program requires a fixed formatting (i.e. all values separated with a tab and all rows separated with a line break). Maybe you should implement a check for whitespace characters first before doing the scan.
For now I'll use Notepad++ to change the data into the correct format, e.g. replace ' \r\n' with '\r\n' and ' ' with '\t'.

By the way, I am neither the author nor did I change comething in the code of findcrcs. It just happened that the link to v2 was unavailable for some time, so I searched the www for the file and found the updated source on github. I couldn't get it to compile under Windows and in the end I used Ubuntu with Win64 target settings.

24

(2,833 replies, posted in General discussion)

F1ReB4LL wrote:

Modified TOC, I think. Swapping with Audio CD should help.

Sorry, can't get this to work with an Audio CD and the stop command. After the swap runs for hours and doesn't find anything on the CD-i disc.

I can't get your GUI to work, it always throws the error "Track Information is not formatted correctly."

So I compiled v3 of findcrcs for win64, you can download it here: findcrcs-0.3-bin-win64.7z
This new Version also supports extract from the command line:

Usage: findcrcs [OPTION]... [--] <FILE> <WINDOWSIZE> <CRC> [MD5] [CRC [MD5]...]

Find the offset of CRCs in FILE with a window size of WINDOWSIZE.
Outputs the crc, offset and md5 of a found segment.
If an MD5 is given, it will only output or extract on a matching md5 hash.

  -e              extract the found segments with the md5 hash as filename
  -f EXTRACTFILE  use EXTRACTFILE as file to extract to
                  implies -e and -q
  -p PADDING      use PADDING amount of zero bytes around the input file
                  this can result in a negative offset in the results
                  if used with -s only an end padding will be added
  -q              quit processing after finding a match and optionally
                  extracting that match
  -s SEEDFILE     get an initial crc from SEEDFILE
                  if used with -e, the SEEDFILE will be joined with the found
                  segment