1

(0 replies, posted in Dumps)

http://redump.org/disc/3466/

Edition: Press Kit
Dumper: emuLOAD

logs: https://drive.google.com/file/d/14SXkmi … sp=sharing

2

(1 replies, posted in Guests & account requests)

>i will NEVER leak any files

All of our data is open, we do not host any disc images / no isos etc.

What is your intention for signing up?

Redump does not host disc images. Only metadata database entries.

Does this change mean we can now submit unlicensed Dreamcast discs like Gameshark?

5

(3 replies, posted in Guests & account requests)

Hey welcome, we don't actually allow for downloads here (there are no iso on this site!). This is a common misunderstanding. This is just a database similar to a card catalog. I hope that clears up some of the confusion.

iRobot, maybe this can be clarified on this page? http://forum.redump.org/topic/12228/wan … ead-first/

"Please note: No roms are hosted on this site and sharing roms on our forums is both bannable and illegal." or something of the sort.

6

(24 replies, posted in Guests & account requests)

Please just give this guy a shot, there's nothing to lose. There is no copyrighted material on this site. He is a known collector. The stars are aligning in our favor to finish this set.

Delete all the replies and send this guy a registration email or ask for a gmail from him. I know there has been paranoia lately, but there is no risk of legal issues just because some people mistakenly ask for roms on the Registration page.

7

(24 replies, posted in Guests & account requests)

I'm a lawyer. If lawyers are not allowed here, ban me now.

8

(24 replies, posted in Guests & account requests)

Please read this all members of Redump, iRobot is doxing preservationists, this is disgusting.

9

(24 replies, posted in Guests & account requests)

iRobot, please do some research before you make baseless accusations on a respected member of the preservation community.

10

(24 replies, posted in Guests & account requests)

It's extremely irresponsible to dox a person. Doing so is a disgrace to your title as an Admin of redump.

11

(24 replies, posted in Guests & account requests)

>I am not referring to an ip, i would not care.

WE care, we've been working for 2 years on the PAL PSX fullset, and this is the guy who can finish it. TWO YEARS hunting these games. He is a known collector.

Your initial reaction was probably a good one based on the evidence at the time, but more evidence has presented itself. The logical thing to do is update your decision based on facts.

12

(24 replies, posted in Guests & account requests)

iRobot man, what are you doing dude? This is a known collector who has a mountain of the rarest games. Someone I've tried to reach out to in the past.

13

(5 replies, posted in Dumps)

Dumped again, 1.5 hashes aren't matching and edccchk shows errors. Guess the  -c446261 -df -ft -t0 -p20 command isn't perfect afterall. Putting into the resurface pile.

14

(24 replies, posted in Guests & account requests)

defconsoft.co.uk was a known fullset collecting site and so is the username AtariBuff. I'm afraid your response is little more than paranoia http://playstationcollecting.com/forum/ … did=163548

This user posted a very thorough spreadsheet to our discord, he is legit. Please add him, thanks.

AtariBuff we're honored to have you with us.

I ended up sending this off to a friend who dumped it with a 0800, not sure what my problem is, but I used the C-model Kreon drive. My friend said he was able to dump with his 0800 and kreon both.

16

(5 replies, posted in Dumps)

Hmmm I don't have a different compatible drive. I guess I can retry with the same drive.

These ALREADY [ADDED] ones don't have any notes indicating more info is needed from the dumper, please move to History for dumps.

Audio CD
http://forum.redump.org/topic/17920/add … ification/

PSX / PS2
http://forum.redump.org/topic/17625/add … -verified/
http://forum.redump.org/topic/17743/add … ification/
http://forum.redump.org/topic/17737/addedps2-x1-verify/
http://forum.redump.org/topic/17526/add … e-on-most/
http://forum.redump.org/topic/17389/add … -letter-d/
http://forum.redump.org/topic/17739/addedps2-1x-verify/
http://forum.redump.org/topic/17948/add … ification/
http://forum.redump.org/topic/17940/add … -2-europe/
http://forum.redump.org/topic/17930/add … ion-discs/
http://forum.redump.org/topic/17926/add … x1-verify/
http://forum.redump.org/topic/5772/adde … rucks-pal/
http://forum.redump.org/topic/17820/add … rope-beta/
http://forum.redump.org/topic/17901/addedps2-verify-x1/
http://forum.redump.org/topic/17894/add … fications/
http://forum.redump.org/topic/17886/add … ta-seiken/
http://forum.redump.org/topic/17882/add … -ps2-demo/
http://forum.redump.org/topic/17857/addedps2-1x-verify/
http://forum.redump.org/topic/17867/addedps2-verify-x1/
http://forum.redump.org/topic/17866/add … -addition/
http://forum.redump.org/topic/17180/fixedpsx-verify-x1/
http://forum.redump.org/topic/17855/add … ification/
http://forum.redump.org/topic/17807/addedps2-1x-new/
http://forum.redump.org/topic/17837/add … ification/
http://forum.redump.org/topic/17836/add … -addition/
http://forum.redump.org/topic/17832/add … -addition/
http://forum.redump.org/topic/17832/add … -addition/
http://forum.redump.org/topic/17711/add … ification/
http://forum.redump.org/topic/18197/add … yaku-vol2/
http://forum.redump.org/topic/18188/add … 5-asia-en/
http://forum.redump.org/topic/18176/addedpsx-verify-x1/
http://forum.redump.org/topic/18164/add … cing-2007/
http://forum.redump.org/topic/18145/add … iew-discs/
http://forum.redump.org/topic/18133/add … mber-2001/
http://forum.redump.org/topic/18142/add … ia-verify/
http://forum.redump.org/topic/18141/add … al-verify/
http://forum.redump.org/topic/18140/add … al-verify/
http://forum.redump.org/topic/18137/addedps2-1x-new/
http://forum.redump.org/topic/18114/add … fications/
http://forum.redump.org/topic/18110/add … fications/
http://forum.redump.org/topic/18065/add … mo-verify/
http://forum.redump.org/topic/18054/add … etters-rs/
http://forum.redump.org/topic/18047/add … -versions/
http://forum.redump.org/topic/18036/add … ith-rings/
http://forum.redump.org/topic/17874/addedps2-verify-x1/
http://forum.redump.org/topic/18013/add … ification/
http://forum.redump.org/topic/17625/add … -verified/

18

(5 replies, posted in Dumps)

bump

Thank you for your patience, I'll look into it and DM you here with a new link.

sometimes that happens, we have a rogue bot. feel free to rejoin

ooof interesting, you might need to dump with an 0800

I dumped a X360 beta DVD-R with Kreon/DIC a while about and it worked fine. I may have used IBM PC Compatible > DVD-Rom settings

https://discord.gg/Drjcnyp

hop into the #nintendo_discs channel

It's still in testing I believe.

23

(0 replies, posted in General discussion)

http://redump.org/disc/51989/
http://redump.org/disc/55141/

Please change edition to "Pre-Production" as they say on the label. I believe these were mistakenly marked as belonging to the "beta trial program" but they don't have it on the disc like the others. Recently more of these PS2 Pre-Productions were purchased to support this idea.

24

(5 replies, posted in Dumps)

Title: Dreamkey 1.5
Region: Spain
Serial numbers on disc: 833-0018-06, 832-0022-06

Ring codes:
mastering sid: IFPI L045
mastering code: 832-0022-0152SS EMI CD HOLLAND @ 1
toolstamp: 1-1-7-NL

LD Area:

Error Count: 0
Comments: (OPTIONAL)
Contents: (OPTIONAL)
Version: (REQUIRED, IF EXISTS)
Edition/Release: Original (VERIFY THIS)
Primary Volume Descriptor (PVD):

0320 : 20 20 20 20 20 20 20 20  20 20 20 20 20 32 30 30                200
0330 : 30 30 34 31 31 31 30 33  39 35 38 30 30 00 32 30   0041110395800.20
0340 : 30 30 30 34 31 31 31 30  33 39 35 38 30 30 00 30   00041110395800.0
0350 : 30 30 30 30 30 30 30 30  30 30 30 30 30 30 30 00   000000000000000.
0360 : 30 30 30 30 30 30 30 30  30 30 30 30 30 30 30 30   0000000000000000
0370 : 00 01 00 00 00 00 00 00  00 00 00 00 00 00 00 00   ................

Cuesheet:

FILE "DREAMKEY_1_5_SPANISH (Track 1).bin" BINARY
  TRACK 01 MODE1/2352
    INDEX 01 00:00:00
FILE "DREAMKEY_1_5_SPANISH (Track 2).bin" BINARY
  TRACK 02 AUDIO
    INDEX 00 00:00:00
    INDEX 01 00:02:00

Write Offset: 13

DAT:

<rom name="DREAMKEY_1_5_SPANISH (Track 1).bin" size="1420608" crc="82f7b94c" md5="bf666cb8bfa5dabcd023ae7f848c3428" sha1="9ba5d6e2b92aeb0ffea483f482be56844e2d116d" />
<rom name="DREAMKEY_1_5_SPANISH (Track 2).bin" size="14347200" crc="49e43706" md5="9cca4624e62f04dc398aed22b5370a34" sha1="a34bdc73ac1e360b13d0592b501a388e0225e994" />

HD Area:

Application title:
DREAMKEY 1.5 SPANISH V1.000

Developer:
SEGA ENTERPRISES

Publisher:
SEGA ENTERPRISES

Disc number:
GD-ROM1/1

Supported regions:
E

Internal serial:
8320022 06

Version number:
V1.000

Release date (YYYY-MM-DD):
2000-04-11

CRC16: TRUE
EC2C

Disc identifier: TRUE
SEGA SEGAKATANA

First read file name:
1ST_READ.BIN

UNKNOWN (reserved?):


Additional flags: 2799810
-------------------------
Minimal set of buttons required by application:
 Start, A, B, Direction buttons: TRUE
 C button: FALSE
 D button: FALSE
 X button: TRUE
 Y button: TRUE
 Z button: FALSE
 Expanded direction buttons: FALSE
 Analog R Trigger: TRUE
 Analog L Trigger: TRUE
 Standard analog X: TRUE
 Standard analog Y: TRUE
 Expanded analog X: FALSE
 Expanded analog Y: FALSE

Supported peripherals:
 Mouse: FALSE
 Gun controller: FALSE
 Keyboard: TRUE

Supported expanded peripherals:
 Memory card: TRUE
 Sound input peripheral (SIP): FALSE
 Vibrator: FALSE
 Other devices: FALSE

VGA Box supported: TRUE
Use WindowsCE: FALSE

<rom name="track3.bin" size="1185760800" crc="46cac1bc" md5="6883fbba5e6a131a2838527731628053" sha1="3abb52e2078bc85bf36bb20df1d08607fb49710a" />

logs: https://drive.google.com/file/d/1oNNskz … sp=sharing

25

(5 replies, posted in Dumps)

Title: Dreamkey (note: I don't see a "version 1" on here, should that be in the title? maybe the other entries are wrong)
Region: France
Serial numbers on disc label: 833-0004-09, 673-00859

Note these serial numbers could be from a mixed up case vs disc, the collector had a lot of Dreamkeys, is it weird that they don't match the disc at all?
Serial numbers on case spine: 610-7388, 832-0008-09
Serial numbers on case back: 820-0220-09, 673-00858

Ring codes:
mastering sid: IFPI L262
mastering code: 610-7388-0218A MT B02
data side sid mould: IFPI 4481

LD Area:

Error Count: 0
Comments: (OPTIONAL)
Contents: (OPTIONAL)
Version: (REQUIRED, IF EXISTS)
Edition/Release: Original (VERIFY THIS)
Primary Volume Descriptor (PVD):

0320 : 20 20 20 20 20 20 20 20  20 20 20 20 20 31 39 39                199
0330 : 39 31 30 32 35 32 33 35  33 30 30 30 30 24 31 39   9102523530000$19
0340 : 39 39 31 30 32 35 32 33  35 33 30 30 30 30 24 30   99102523530000$0
0350 : 30 30 30 30 30 30 30 30  30 30 30 30 30 30 30 00   000000000000000.
0360 : 30 30 30 30 30 30 30 30  30 30 30 30 30 30 30 30   0000000000000000
0370 : 00 01 00 00 00 00 00 00  00 00 00 00 00 00 00 00   ................

Cuesheet:

FILE "DREAMKEY (Track 1).bin" BINARY
  TRACK 01 MODE1/2352
    INDEX 01 00:00:00
FILE "DREAMKEY (Track 2).bin" BINARY
  TRACK 02 AUDIO
    INDEX 00 00:00:00
    INDEX 01 00:02:00

Write Offset: 13

DAT:

<rom name="DREAMKEY (Track 1).bin" size="19552176" crc="2ac1af28" md5="ac1c438d937a7060447a3e8096077737" sha1="b09ffa9a31e9b35298714a9b7ff909c45dd59db5" />
<rom name="DREAMKEY (Track 2).bin" size="14347200" crc="49e43706" md5="9cca4624e62f04dc398aed22b5370a34" sha1="a34bdc73ac1e360b13d0592b501a388e0225e994" />

HD Area: 1 track

Application title:
DREAMKEY

Developer:
SEGA ENTERPRISES

Publisher:
SEGA ENTERPRISES

Disc number:
GD-ROM1/1

Supported regions:
E

Internal serial:
832-000409

Version number:
V1.008

Release date (YYYY-MM-DD):
1999-10-25

CRC16: TRUE
0BC5

Disc identifier: TRUE
SEGA SEGAKATANA

First read file name:
1ST_READ.BIN

UNKNOWN (reserved?):


Additional flags: 2799810
-------------------------
Minimal set of buttons required by application:
 Start, A, B, Direction buttons: TRUE
 C button: FALSE
 D button: FALSE
 X button: TRUE
 Y button: TRUE
 Z button: FALSE
 Expanded direction buttons: FALSE
 Analog R Trigger: TRUE
 Analog L Trigger: TRUE
 Standard analog X: TRUE
 Standard analog Y: TRUE
 Expanded analog X: FALSE
 Expanded analog Y: FALSE

Supported peripherals:
 Mouse: FALSE
 Gun controller: FALSE
 Keyboard: TRUE

Supported expanded peripherals:
 Memory card: TRUE
 Sound input peripheral (SIP): FALSE
 Vibrator: FALSE
 Other devices: FALSE

VGA Box supported: TRUE
Use WindowsCE: FALSE


<rom name="track3.bin" size="1185760800" crc="ee31795e" md5="dab2ad8e7fb3b80d3dac37821757fed4" sha1="2cc0e667fe8dafadddd24120a72973ad9535e78c" />

logs: https://drive.google.com/file/d/1I05s6I … sp=sharing