1

(0 replies, posted in Verifications)

Common Disc Info:
    Title: Red Faction
    Disc Number / Letter: 2
    Disc Title: Multiplayer Disc
    System: IBM PC compatible
    Media Type: CD-ROM
    Category: Games
    Fully Matching ID: 50177
    Region: Germany
    Languages: German
    Disc Serial: 

    Ringcode Information:

Data Side Mastering Code (laser branded/etched): Sono press 50554247/692156203B 01
Data Side Mastering SID Code: IFPI L0 30
Data Side Toolstamp or Mastering Code (engraved/stamped): 
Data Side Mould SID Code: IFPI 0757
Data Side Additional Mould: 
Label Side Mould SID Code: 

    Barcode: 4 005209 040785
    Error Count: 0
    Comments: [T:VOL] RF_2
    Contents: 

Version and Editions:
    Version: 1.00
    Edition/Release: Original

Extras:
    Primary Volume Descriptor (PVD):

0320 : 20 20 20 20 20 20 20 20  20 20 20 20 20 32 30 30                200
0330 : 31 30 39 31 30 30 39 34  34 31 30 38 36 08 32 30   1091009441086.20
0340 : 30 31 30 39 31 30 30 39  35 36 34 37 31 33 88 00   01091009564713..
0350 : 00 00 00 00 00 00 00 00  00 00 00 00 00 00 00 00   ................
0360 : 00 00 00 00 00 00 00 00  00 00 00 00 00 00 00 00   ................
0370 : 00 01 00 00 00 00 00 00  00 00 00 00 00 00 00 00   ................

Tracks and Write Offsets:
    DAT:

<rom name="RF_2.bin" size="414255408" crc="3f030002" md5="c8a2a13441b27dda8fac6b082a6519fc" sha1="eda5cd2c0d0cc3be141e4285a73e12e4f8e9e1d7" />

    Cuesheet:

FILE "RF_2.bin" BINARY
  TRACK 01 MODE1/2352
    INDEX 01 00:00:00

    Write Offset: -12

Dumping Info:
    Frontend Version: 3.2.0-de1032a09991e1f82617ddbc38a6937fc23cf2e7
    Dumping Program: Redumper v2024.05.27 build_371
    Date: 2024-06-27 06:28:20
    Manufacturer: PLEXTOR
    Model: CD-R PX-W4012A
    Firmware: 1.07 (03/22/06 09:00)
    Reported Disc Type: CD-ROM
    C2 Error Count: 0

Match: http://redump.org/disc/50177/

Logs: https://mega.nz/file/fHZggahK#oXr1bZKEy … QHGgXWpf2A

Scans: https://imgur.com/a/yozDk0y

Common Disc Info:
    Title: Sonic's Schoolhouse
    Disc Number / Letter: 
    Disc Title: 
    System: IBM PC compatible
    Media Type: CD-ROM
    Category: Games
    Fully Matching ID: 60971
    Region: USA
    Languages: English
    Disc Serial: 

    Ringcode Information:

Data Side Mastering Code (laser branded/etched): *1R* 1008685047
Data Side Mastering SID Code: IFPI L433
Data Side Toolstamp or Mastering Code (engraved/stamped): A2
Data Side Mould SID Code: IFPI 7453
Data Side Additional Mould: 
Label Side Mould SID Code: 

    Barcode: 0 10086 85047 5
    Error Count: 0
    Comments: [T:VOL] SONIC_RELEASE_1_0_B
    Contents: 

Version and Editions:
    Version: 1.0
    Edition/Release: Original

Extras:
    Primary Volume Descriptor (PVD):

0320 : 20 20 20 20 20 20 20 20  20 20 20 20 20 31 39 39                199
0330 : 36 31 30 31 34 31 37 33  31 32 32 30 30 00 31 39   6101417312200.19
0340 : 39 36 31 30 31 34 31 37  33 31 32 32 30 30 00 00   96101417312200..
0350 : 00 00 00 00 00 00 00 00  00 00 00 00 00 00 00 00   ................
0360 : 00 00 00 00 00 00 00 00  00 00 00 00 00 00 00 00   ................
0370 : 00 01 00 00 00 00 00 00  00 00 00 00 00 00 00 00   ................

Tracks and Write Offsets:
    DAT:

<rom name="SONIC_RELEASE_1_0_B (Track 0).bin" size="338688" crc="269cc3b2" md5="a0c7f17218f4520613c9590adfa7d5c0" sha1="5919a2f42e0936bd43df4f54cb08be6678abb345" />
<rom name="SONIC_RELEASE_1_0_B.bin" size="500253936" crc="6f5f9fbe" md5="ee73293872bbf63cde092068b32212a3" sha1="578d397814f7218654315b4c7da00f73e900cdac" />

    Cuesheet:

FILE "SONIC_RELEASE_1_0_B.bin" BINARY
  TRACK 01 MODE1/2352
    INDEX 01 00:00:00

    Write Offset: 0

Dumping Info:
    Frontend Version: 3.2.0-de1032a09991e1f82617ddbc38a6937fc23cf2e7
    Dumping Program: Redumper v2024.05.27 build_371
    Date: 2024-07-02 01:11:05
    Manufacturer: PLEXTOR
    Model: CD-R PX-W4012A
    Firmware: 1.07 (03/22/06 09:00)
    Reported Disc Type: CD-ROM
    C2 Error Count: 0

Match: http://redump.org/disc/60971/

Logs: https://mega.nz/file/GLJSHKBS#l3tW_oLdA … jQ4L8KTLek

Scans: https://imgur.com/a/FIKSRV2

3

(2 replies, posted in Verifications)

Common Disc Info:
    Title: Psychotoxic
    Disc Number / Letter: 3
    Disc Title: 
    System: IBM PC compatible
    Media Type: CD-ROM
    Category: Games
    Fully Matching ID: 98541
    Region: USA
    Languages: English
    Disc Serial: 

    Ringcode Information:

Data Side Mastering Code (laser branded/etched): R 9412 SOF193384 WWW.SOFTPACK.COM F50222-12
Data Side Mastering SID Code: L384
Data Side Toolstamp or Mastering Code (engraved/stamped): 
Data Side Mould SID Code: IFPI 6100
Data Side Additional Mould: 
Label Side Mould SID Code: 

    Barcode: 8 58700 00006 2
    Error Count: 0
    Comments: [T:VOL] PT Disk 3, PT_DISK_3 (ISO)
    Contents: 

Version and Editions:
    Version: 1.00
    Edition/Release: Original

Extras:
    Primary Volume Descriptor (PVD):

0320 : 20 20 20 20 20 20 20 20  20 20 20 20 20 32 30 30                200
0330 : 35 30 32 31 30 31 31 34  39 30 30 30 30 04 32 30   5021011490000.20
0340 : 30 35 30 32 31 30 31 31  34 39 30 30 30 30 04 30   05021011490000.0
0350 : 30 30 30 30 30 30 30 30  30 30 30 30 30 30 30 00   000000000000000.
0360 : 30 30 30 30 30 30 30 30  30 30 30 30 30 30 30 30   0000000000000000
0370 : 00 01 00 00 00 00 00 00  00 00 00 00 00 00 00 00   ................

Copy Protection:
    Copy Protection: StarForce 3.4.71.17
    SubIntention Data (SecuROM/LibCrypt): 

Tracks and Write Offsets:
    DAT:

<rom name="PT Disk 3.bin" size="721697088" crc="3177c3ba" md5="2d8367c0346912c0780633c7196b5a0e" sha1="12f1748579c5312c79d072441938f76d76bc9919" />

    Cuesheet:

FILE "PT Disk 3.bin" BINARY
  TRACK 01 MODE1/2352
    INDEX 01 00:00:00

    Write Offset: -12

Dumping Info:
    Frontend Version: 3.1.9-70114ee59e42811664dce687b81da967d88fbf62
    Dumping Program: Redumper v2024.05.06 build_325
    Date: 2024-06-15 20:07:38
    Manufacturer: PLEXTOR
    Model: CD-R PX-W4012A
    Firmware: 1.07 (03/22/06 09:00)
    Reported Disc Type: CD-ROM
    C2 Error Count: 0

Match: http://redump.org/disc/98541/

Logs: https://mega.nz/file/aeZwmSCS#EsxwrHwS8 … 6A8Pv5OfB4

Scans: https://imgur.com/a/7JVBtt9

4

(2 replies, posted in Verifications)

Common Disc Info:
    Title: Psychotoxic
    Disc Number / Letter: 2
    Disc Title: 
    System: IBM PC compatible
    Media Type: CD-ROM
    Category: Games
    Fully Matching ID: 98540
    Region: USA
    Languages: English
    Disc Serial: 

    Ringcode Information:

Data Side Mastering Code (laser branded/etched): R 9412 SOF193383 WWW.SOFTPACK.COM F50222-11 R
Data Side Mastering SID Code: L384
Data Side Toolstamp or Mastering Code (engraved/stamped): 
Data Side Mould SID Code: IFPI 6100
Data Side Additional Mould: 
Label Side Mould SID Code: 

    Barcode: 8 58700 00006 2
    Error Count: 0
    Comments: [T:VOL] PT Disk 2, PT_DISK_2 (ISO)
    Contents: 

Version and Editions:
    Version: 1.00
    Edition/Release: Original

Extras:
    Primary Volume Descriptor (PVD):

0320 : 20 20 20 20 20 20 20 20  20 20 20 20 20 32 30 30                200
0330 : 35 30 32 31 30 31 31 33  35 30 30 30 30 04 32 30   5021011350000.20
0340 : 30 35 30 32 31 30 31 31  33 35 30 30 30 30 04 30   05021011350000.0
0350 : 30 30 30 30 30 30 30 30  30 30 30 30 30 30 30 00   000000000000000.
0360 : 30 30 30 30 30 30 30 30  30 30 30 30 30 30 30 30   0000000000000000
0370 : 00 01 00 00 00 00 00 00  00 00 00 00 00 00 00 00   ................

Copy Protection:
    Copy Protection: StarForce 3.4.71.17
    SubIntention Data (SecuROM/LibCrypt): 

Tracks and Write Offsets:
    DAT:

<rom name="PT Disk 2.bin" size="770743344" crc="c84df3af" md5="11e06fb689689f05b29e40f71cd92067" sha1="6d0bb86b9d42d68f113eb642cd88a148592b8099" />

    Cuesheet:

FILE "PT Disk 2.bin" BINARY
  TRACK 01 MODE1/2352
    INDEX 01 00:00:00

    Write Offset: -12

Dumping Info:
    Frontend Version: 3.1.9-70114ee59e42811664dce687b81da967d88fbf62
    Dumping Program: Redumper v2024.05.06 build_325
    Date: 2024-06-15 19:41:29
    Manufacturer: PLEXTOR
    Model: CD-R PX-W4012A
    Firmware: 1.07 (03/22/06 09:00)
    Reported Disc Type: CD-ROM
    C2 Error Count: 0

Match: http://redump.org/disc/98540/

Logs: https://mega.nz/file/aK53wDTA#LSMvzLipC … u5ElcirtsU

Scans: https://imgur.com/a/7RTyM1K

5

(2 replies, posted in Verifications)

Common Disc Info:
    Title: Psychotoxic
    Disc Number / Letter: 1
    Disc Title: 
    System: IBM PC compatible
    Media Type: CD-ROM
    Category: Games
    Fully Matching ID: 98539
    Region: USA
    Languages: English
    Disc Serial: 

    Ringcode Information:

Data Side Mastering Code (laser branded/etched): F 9412 SOF193382 WWW.SOFTPACK.COM E50224-10 *
Data Side Mastering SID Code: L383
Data Side Toolstamp or Mastering Code (engraved/stamped): 
Data Side Mould SID Code: IFPI 6100
Data Side Additional Mould: 
Label Side Mould SID Code: 

    Barcode: 8 58700 00006 2
    Error Count: 0
    Comments: [T:VOL] PSYCHOTOXIC
    Contents: 

Version and Editions:
    Version: 1.00
    Edition/Release: Original

Extras:
    Primary Volume Descriptor (PVD):

0320 : 20 20 20 20 20 20 20 20  20 20 20 20 20 32 30 30                200
0330 : 35 30 32 31 30 30 39 35  39 30 30 30 30 04 32 30   5021009590000.20
0340 : 30 35 30 32 31 30 30 39  35 39 30 30 30 30 04 30   05021009590000.0
0350 : 30 30 30 30 30 30 30 30  30 30 30 30 30 30 30 00   000000000000000.
0360 : 30 30 30 30 30 30 30 30  30 30 30 30 30 30 30 30   0000000000000000
0370 : 00 01 00 00 00 00 00 00  00 00 00 00 00 00 00 00   ................

Copy Protection:
    Copy Protection: StarForce 3.4.71.17
    SubIntention Data (SecuROM/LibCrypt): 

Tracks and Write Offsets:
    DAT:

<rom name="PSYCHOTOXIC.bin" size="822837792" crc="b9f9cc00" md5="ca978c6d2ac03dd7eeb0ef375afe18ff" sha1="61aaa87496b161333b06cae0487f7e373dc7a78a" />

    Cuesheet:

FILE "PSYCHOTOXIC.bin" BINARY
  TRACK 01 MODE1/2352
    INDEX 01 00:00:00

    Write Offset: -12

Dumping Info:
    Frontend Version: 3.1.9-70114ee59e42811664dce687b81da967d88fbf62
    Dumping Program: Redumper v2024.05.06 build_325
    Date: 2024-06-15 18:08:30
    Manufacturer: PLEXTOR
    Model: CD-R PX-W4012A
    Firmware: 1.07 (03/22/06 09:00)
    Reported Disc Type: CD-ROM
    C2 Error Count: 0

Match: http://redump.org/disc/98539/

Logs: https://mega.nz/file/TehUxSCD#IL01QIxiA … R649hAdEB4

Scans: https://imgur.com/a/6y4Iv5J

Common Disc Info:
    Title: Sonic Adventure DX: Director's Cut
    Disc Number / Letter: 2
    Disc Title: 
    System: IBM PC compatible
    Media Type: CD-ROM
    Category: Games
    Fully Matching ID: 52649
    Region: Australia
    Languages: English, French, German, Spanish
    Disc Serial: SEGA-PC002-EU

    Ringcode Information:

Data Side Mastering Code (laser branded/etched): arvato digital services BERTELSMANN    www.arvatodigitalservices.com.au    16/09/2009 - ADSAU 13068    SEGA-PC002-2
Data Side Mastering SID Code: IFPI LY89
Data Side Toolstamp or Mastering Code (engraved/stamped): 
Data Side Mould SID Code: IFPI 5V05
Data Side Additional Mould: 
Label Side Mould SID Code: 

    Barcode: 5 055277 003525
    Error Count: 0
    Comments: [T:VOL] SONICDX_DISC2
    Contents:

[T:X]
Manual (PDF) (En, Fr, De, Es, It)

Version and Editions:
    Version: 1.009
    Edition/Release: Sonic PC Collection

Extras:
    Primary Volume Descriptor (PVD):

0320 : 20 20 20 20 20 20 20 20  20 20 20 20 20 32 30 30                200
0330 : 38 30 36 31 32 31 31 30  30 30 30 30 00 04 32 30   806121100000..20
0340 : 30 38 30 36 31 32 31 31  30 30 30 30 30 00 04 30   0806121100000..0
0350 : 30 30 30 30 30 30 30 30  30 30 30 30 30 30 30 00   000000000000000.
0360 : 30 30 30 30 30 30 30 30  30 30 30 30 30 30 30 30   0000000000000000
0370 : 00 01 00 00 00 00 00 00  00 00 00 00 00 00 00 00   ................

Tracks and Write Offsets:
    DAT:

<rom name="SONICDX_DISC2.bin" size="718839408" crc="8054e6cc" md5="4f7d4abd0890d8e62345df9f02dba469" sha1="677f3b31f3b88d8dd8c4e191fbc5e40b010784e1" />

    Cuesheet:

FILE "SONICDX_DISC2.bin" BINARY
  TRACK 01 MODE1/2352
    INDEX 01 00:00:00

    Write Offset: -12

Dumping Info:
    Frontend Version: 3.1.9-70114ee59e42811664dce687b81da967d88fbf62
    Dumping Program: Redumper v2024.05.06 build_325
    Date: 2024-06-14 22:23:21
    Manufacturer: PLEXTOR
    Model: CD-R PX-W4012A
    Firmware: 1.07 (03/22/06 09:00)
    Reported Disc Type: CD-ROM
    C2 Error Count: 0

Match: http://redump.org/disc/52649/

Logs: https://mega.nz/file/2HIwGZCI#rOjREuWMd … oGkkV8DIO4

Scans: https://imgur.com/a/BQaW6mu

Common Disc Info:
    Title: Sonic Adventure DX: Director's Cut
    Disc Number / Letter: 1
    Disc Title: 
    System: IBM PC compatible
    Media Type: CD-ROM
    Category: Games
    Fully Matching ID: 52650
    Region: Australia
    Languages: English, French, German, Spanish
    Disc Serial: SEGA-PC002-EU

    Ringcode Information:

Data Side Mastering Code (laser branded/etched): arvato digital services BERTELSMANN    arvatodigitalservices.com.au    16/09/2009 - ADSAU 13067    SEGA-PC002-1
Data Side Mastering SID Code: IFPI LY89
Data Side Toolstamp or Mastering Code (engraved/stamped): 
Data Side Mould SID Code: IFPI 5V05
Data Side Additional Mould: 
Label Side Mould SID Code: 

    Barcode: 5 055277 003525
    Error Count: 0
    Comments: [T:VOL] SONICDX_DISC1
    Contents:

[T:X]
Animated mouse cursors
Desktop wallpapers (800x600, 1280x1024)

Version and Editions:
    Version: 1.009
    Edition/Release: Sonic PC Collection

Extras:
    Primary Volume Descriptor (PVD):

0320 : 20 20 20 20 20 20 20 20  20 20 20 20 20 32 30 30                200
0330 : 38 30 36 31 32 31 30 35  32 30 30 30 00 04 32 30   806121052000..20
0340 : 30 38 30 36 31 32 31 30  35 32 30 30 30 00 04 30   0806121052000..0
0350 : 30 30 30 30 30 30 30 30  30 30 30 30 30 30 30 00   000000000000000.
0360 : 30 30 30 30 30 30 30 30  30 30 30 30 30 30 30 30   0000000000000000
0370 : 00 01 00 00 00 00 00 00  00 00 00 00 00 00 00 00   ................

Tracks and Write Offsets:
    DAT:

<rom name="SONICDX_DISC1.bin" size="727553568" crc="c9951809" md5="abd9ee3f00f16f5a69cb9a91858242f3" sha1="5131683f4543cad2f5c07e5f2de8d1f2757674a6" />

    Cuesheet:

FILE "SONICDX_DISC1.bin" BINARY
  TRACK 01 MODE1/2352
    INDEX 01 00:00:00

    Write Offset: -12

Dumping Info:
    Frontend Version: 3.1.9-70114ee59e42811664dce687b81da967d88fbf62
    Dumping Program: Redumper v2024.05.06 build_325
    Date: 2024-06-14 21:21:18
    Manufacturer: PLEXTOR
    Model: CD-R PX-W4012A
    Firmware: 1.07 (03/22/06 09:00)
    Reported Disc Type: CD-ROM
    C2 Error Count: 0

Match: http://redump.org/disc/52650/

Logs: https://mega.nz/file/SewjWBwT#NpBOOvZGz … mM4yBA6Ijs

Scans: https://imgur.com/a/bZiFi9m

8

(0 replies, posted in Verifications)

Common Disc Info:
    Title: LEGO Rock Raiders
    Disc Number / Letter: 
    Disc Title: 
    System: IBM PC compatible
    Media Type: CD-ROM
    Category: Games
    Fully Matching ID: 78482
    Region: USA
    Languages: English
    Disc Serial: IB2G-ROC5.2

    Ringcode Information:

Data Side Mastering Code (laser branded/etched): 106-MPSI00628-00 123004-OR TW/CA    #AM08964
Data Side Mastering SID Code: 
Data Side Toolstamp or Mastering Code (engraved/stamped): 
Data Side Mould SID Code: IFPI //C2
Data Side Additional Mould: 
Label Side Mould SID Code: 

    Barcode: 
    Error Count: 0
    Comments: [T:VOL] ROCKRAIDERS
    Contents: 

Version and Editions:
    Version: 1.0
    Edition/Release: Selectsoft

Extras:
    Primary Volume Descriptor (PVD):

0320 : 20 20 20 20 20 20 20 20  20 20 20 20 20 31 39 39                199
0330 : 39 30 39 32 37 31 30 35  30 35 32 30 30 00 31 39   9092710505200.19
0340 : 39 39 30 39 32 37 31 30  35 30 35 32 30 30 00 30   99092710505200.0
0350 : 30 30 30 30 30 30 30 30  30 30 30 30 30 30 30 00   000000000000000.
0360 : 30 30 30 30 30 30 30 30  30 30 30 30 30 30 30 30   0000000000000000
0370 : 00 01 00 00 00 00 00 00  00 00 00 00 00 00 00 00   ................

Tracks and Write Offsets:
    DAT:

<rom name="ROCKRAIDERS (Track 1).bin" size="619215744" crc="b1446208" md5="096a4f960d45170127d0290d8e875d4a" sha1="2705065e08b2d23e346d92a1c3a68ebdb17a30e7" />
<rom name="ROCKRAIDERS (Track 2).bin" size="32982096" crc="71ec7dba" md5="cd4c6db6182dc1c925d29d5a1e8bdf13" sha1="9a0988653f6d13b42a9ddb894209ee3a75544518" />
<rom name="ROCKRAIDERS (Track 3).bin" size="37693152" crc="be67f421" md5="5da9c560d906c5df0e48ff9be6ff8570" sha1="f51dd1d5e4064f97941700569c87bb8e89a320e1" />
<rom name="ROCKRAIDERS (Track 4).bin" size="32572848" crc="5bc16998" md5="2ff461ef8b4604f65dbac65eb74981d2" sha1="015521bc6e8d2a28fd62ed28b725e067cb3ee8c5" />

    Cuesheet:

FILE "ROCKRAIDERS (Track 1).bin" BINARY
  TRACK 01 MODE1/2352
    INDEX 01 00:00:00
FILE "ROCKRAIDERS (Track 2).bin" BINARY
  TRACK 02 AUDIO
    INDEX 00 00:00:00
    INDEX 01 00:02:00
FILE "ROCKRAIDERS (Track 3).bin" BINARY
  TRACK 03 AUDIO
    INDEX 01 00:00:00
FILE "ROCKRAIDERS (Track 4).bin" BINARY
  TRACK 04 AUDIO
    INDEX 01 00:00:00

    Write Offset: -12

Dumping Info:
    Frontend Version: 3.1.9-70114ee59e42811664dce687b81da967d88fbf62
    Dumping Program: Redumper v2024.05.06 build_325
    Date: 2024-06-13 21:10:32
    Manufacturer: PLEXTOR
    Model: CD-R PX-W4012A
    Firmware: 1.07 (03/22/06 09:00)
    Reported Disc Type: CD-ROM
    C2 Error Count: 0

Match: http://redump.org/disc/78482/

Logs: https://mega.nz/file/nGowRSiZ#0eL07pgw4 … 02JEPoKPs8

Scans: https://imgur.com/a/cJl96Ry

Common Disc Info:
    Title: Bloodwings: Pumpkinhead's Revenge
    Disc Number / Letter: 
    Disc Title: 
    System: IBM PC compatible
    Media Type: CD-ROM
    Category: Games
    Fully Matching ID: 79782
    Region: USA, Europe
    Languages: English
    Disc Serial: 

    Ringcode Information:

Data Side Mastering Code (laser branded/etched): Technicolor    C1    104552-02    CD004599
Data Side Mastering SID Code: 
Data Side Toolstamp or Mastering Code (engraved/stamped): 
Data Side Mould SID Code: 
Data Side Additional Mould: 
Label Side Mould SID Code: 

    Barcode: 
    Error Count: 0
    Comments: 
    Contents: 

Version and Editions:
    Version: 
    Edition/Release: 

Extras:
    Primary Volume Descriptor (PVD):

0320 : 20 20 20 20 20 20 20 20  20 20 20 20 20 31 39 39                199
0330 : 35 30 35 30 38 31 34 31  31 31 38 35 31 15 31 39   5050814111851.19
0340 : 39 35 30 35 30 38 31 34  31 31 31 38 35 31 15 30   95050814111851.0
0350 : 30 30 30 30 30 30 30 30  30 30 30 30 30 30 30 15   000000000000000.
0360 : 31 39 39 35 30 35 30 38  31 34 31 31 31 38 35 31   1995050814111851
0370 : 15 01 00 00 00 00 00 00  00 00 00 00 00 00 00 00   ................

Tracks and Write Offsets:
    DAT:

<rom name="track.bin" size="438704448" crc="994e758e" md5="a44b3251c5b725172f5ec9737a6750e8" sha1="b400992ba4843e1c696d3997fff1bb0579d71058" />

    Cuesheet:

FILE "track.bin" BINARY
  TRACK 01 MODE1/2352
    INDEX 01 00:00:00

    Write Offset: -22

Dumping Info:
    Frontend Version: 3.1.9-70114ee59e42811664dce687b81da967d88fbf62
    Dumping Program: Redumper v2024.05.06 build_325
    Date: 2024-06-12 03:22:07
    Manufacturer: PLEXTOR
    Model: CD-R PX-W4012A
    Firmware: 1.07 (03/22/06 09:00)
    Reported Disc Type: CD-ROM
    C2 Error Count: 0

Match: http://redump.org/disc/79782/

Logs: https://mega.nz/file/XWo3wL7C#bOOoiY5XU … qrKNyKLmtk

Scans: https://imgur.com/a/E8Ap9iI

Common Disc Info:
    Title: Sonic's Schoolhouse
    Disc Number / Letter: 
    Disc Title: 
    System: IBM PC compatible
    Media Type: CD-ROM
    Category: Games
    Fully Matching ID: 62037
    Region: USA
    Languages: English
    Disc Serial: 6806 02

    Ringcode Information:

Data Side Mastering Code (laser branded/etched): *5R* 680602    B
Data Side Mastering SID Code: IFPI L433
Data Side Toolstamp or Mastering Code (engraved/stamped): A5
Data Side Mould SID Code: IFPI 7493
Data Side Additional Mould: 
Label Side Mould SID Code: 

    Barcode: 0 81656 06806 4
    Error Count: 0
    Comments:

[T:VOL] SONICSH
[T:ISBN] I-57709-624-X

    Contents:

<b>Applications</b>: Adobe Acrobat Reader 3.0
AT&T WorldNet 1.2
BackWeb 2.0
Expert Software Registration Card
[T:X]
Manual (PDF) (En)
Expert Software Catalog 1997 (PDF)

Version and Editions:
    Version: 1.1
    Edition/Release: Expert Software

Extras:
    Primary Volume Descriptor (PVD):

0320 : 20 20 20 20 20 20 20 20  20 20 20 20 20 31 39 39                199
0330 : 37 31 30 32 32 31 33 30  39 33 35 00 00 04 31 39   71022130935...19
0340 : 39 37 31 30 32 32 31 33  30 39 33 35 00 00 04 32   971022130935...2
0350 : 39 39 37 31 30 32 32 31  33 30 39 33 34 00 00 04   9971022130934...
0360 : 31 39 39 37 31 30 32 32  31 33 30 39 33 34 00 00   19971022130934..
0370 : 04 01 00 00 00 00 00 00  00 00 00 00 00 00 00 00   ................

Tracks and Write Offsets:
    DAT:

<rom name="SONICSH.bin" size="541049376" crc="d109877c" md5="9993d7b06bb6ec1cc90ed2522b52b3f9" sha1="4e0a82664dcd6f8899cec713f882ec2874cfcd65" />

    Cuesheet:

CATALOG 0000000000000
FILE "SONICSH.bin" BINARY
  TRACK 01 MODE1/2352
    INDEX 01 00:00:00

    Write Offset: 0

Dumping Info:
    Frontend Version: 3.1.9-70114ee59e42811664dce687b81da967d88fbf62
    Dumping Program: Redumper v2024.05.06 build_325
    Date: 2024-06-11 16:20:12
    Manufacturer: PLEXTOR
    Model: CD-R PX-W4012A
    Firmware: 1.07 (03/22/06 09:00)
    Reported Disc Type: CD-ROM
    C2 Error Count: 0

Match: http://redump.org/disc/62037/

Logs: https://mega.nz/file/Kex0wCIS#yS7asNEqQ … Ix-mci5qoQ

Scans: https://imgur.com/a/uuUgaGZ

11

(1 replies, posted in Verifications)

Common Disc Info:
    Title: Sonic Heroes
    Disc Number / Letter: 2
    Disc Title: 
    System: IBM PC compatible
    Media Type: CD-ROM
    Category: Games
    Fully Matching ID: 52647
    Region: Australia
    Languages: English, French, German, Italian, Spanish
    Disc Serial: SEGA-PC008/2

    Ringcode Information:

Data Side Mastering Code (laser branded/etched): arvato digital services BERTELSMANN    www.arvatodigitalservices.com.au    16/09/2009 - ADSAU 13066    SEGA-PC008-2
Data Side Mastering SID Code: IFPI LY89
Data Side Toolstamp or Mastering Code (engraved/stamped): 
Data Side Mould SID Code: IFPI 5V05
Data Side Additional Mould: 
Label Side Mould SID Code: 

    Barcode: 5 055277 003525
    Error Count: 0
    Comments: [T:VOL] SH_DISC2
    Contents:

[T:X]
Manual (PDF) (En, Fr, De, Es, It)

Version and Editions:
    Version:
    Edition/Release: Sonic PC Collection

Extras:
    Primary Volume Descriptor (PVD):

0320 : 20 20 20 20 20 20 20 20  20 20 20 20 20 32 30 30                200
0330 : 38 30 36 31 32 31 31 32  31 30 30 30 00 04 32 30   806121121000..20
0340 : 30 38 30 36 31 32 31 31  32 31 30 30 30 00 04 30   0806121121000..0
0350 : 30 30 30 30 30 30 30 30  30 30 30 30 30 30 30 00   000000000000000.
0360 : 30 30 30 30 30 30 30 30  30 30 30 30 30 30 30 30   0000000000000000
0370 : 00 01 00 00 00 00 00 00  00 00 00 00 00 00 00 00   ................

Tracks and Write Offsets:
    DAT:

<rom name="SH_DISC2.bin" size="799658832" crc="a104fe92" md5="67b600e5bab4f04d473cdcde3f9194b2" sha1="8ef0438e87628fba9ec57e8b61d93bced50bfc3e" />

    Cuesheet:

FILE "SH_DISC2.bin" BINARY
  TRACK 01 MODE1/2352
    INDEX 01 00:00:00

    Write Offset: -12

Dumping Info:
    Frontend Version: 3.1.9-70114ee59e42811664dce687b81da967d88fbf62
    Dumping Program: Redumper v2024.05.06 build_325
    Date: 2024-06-10 16:38:52
    Manufacturer: PLEXTOR
    Model: CD-R PX-W4012A
    Firmware: 1.07 (03/22/06 09:00)
    Reported Disc Type: CD-ROM
    C2 Error Count: 0

Match: http://redump.org/disc/52647/

Logs: https://mega.nz/file/nPAXyR4R#V6hYi4eRg … mVb6IdPVow

Scans: https://imgur.com/a/cX3xfj2

12

(1 replies, posted in Verifications)

Common Disc Info:
    Title: Sonic Heroes
    Disc Number / Letter: 1
    Disc Title: 
    System: IBM PC compatible
    Media Type: CD-ROM
    Category: Games
    Fully Matching ID: 52648
    Region: Australia
    Languages: English, French, German, Italian, Spanish
    Disc Serial: SEGA-PC008/1

    Ringcode Information:

Data Side Mastering Code (laser branded/etched): arvato digital services BERTELSMANN    www.arvatodigitalservices.com.au    16/09/2009 - ADSAU 13065    SEGA-PC008-1
Data Side Mastering SID Code: IFPI LY89
Data Side Toolstamp or Mastering Code (engraved/stamped): 
Data Side Mould SID Code: IFPI 5V05
Data Side Additional Mould: 
Label Side Mould SID Code: 

    Barcode: 5 055277 003525
    Error Count: 0
    Comments:

[T:VOL] SH_DISC1
Uses a cracked version of the game executable created by warez group Reloaded.

    Contents:

[T:X]
Animated mouse cursors
Desktop wallpapers (800x600, 1280x1024)

Version and Editions:
    Version:
    Edition/Release: Sonic PC Collection

Extras:
    Primary Volume Descriptor (PVD):

0320 : 20 20 20 20 20 20 20 20  20 20 20 20 20 32 30 30                200
0330 : 38 30 36 31 32 31 31 32  38 30 30 30 00 04 32 30   806121128000..20
0340 : 30 38 30 36 31 32 31 31  32 38 30 30 30 00 04 30   0806121128000..0
0350 : 30 30 30 30 30 30 30 30  30 30 30 30 30 30 30 00   000000000000000.
0360 : 30 30 30 30 30 30 30 30  30 30 30 30 30 30 30 30   0000000000000000
0370 : 00 01 00 00 00 00 00 00  00 00 00 00 00 00 00 00   ................

Copy Protection:
    Copy Protection: SafeDisc remnants
    SubIntention Data (SecuROM/LibCrypt): 

Tracks and Write Offsets:
    DAT:

<rom name="SH_DISC1.bin" size="640376688" crc="b23e56b4" md5="67c26a564276943576fbf633b791334b" sha1="ca9e6340c82a4ffc1c9be992ad97a1213be0d010" />

    Cuesheet:

FILE "SH_DISC1.bin" BINARY
  TRACK 01 MODE1/2352
    INDEX 01 00:00:00

    Write Offset: -12

Dumping Info:
    Frontend Version: 3.1.9-70114ee59e42811664dce687b81da967d88fbf62
    Dumping Program: Redumper v2024.05.06 build_325
    Date: 2024-06-10 15:38:32
    Manufacturer: PLEXTOR
    Model: CD-R PX-W4012A
    Firmware: 1.07 (03/22/06 09:00)
    Reported Disc Type: CD-ROM
    C2 Error Count: 0

Match: http://redump.org/disc/52648/

Logs: https://mega.nz/file/WKpwlKKZ#ybzu0cWKY … _NCifLzg8A

Scans: https://imgur.com/a/J0AknTH

Common Disc Info:
    Title: Billy Hatcher and the Giant Egg
    Disc Number / Letter: 
    Disc Title: 
    System: IBM PC compatible
    Media Type: CD-ROM
    Category: Games
    Fully Matching ID: 31437
    Region: Europe
    Languages: English, French, German, Italian, Spanish
    Disc Serial: 1650A

    Ringcode Information:

Data Side Mastering Code (laser branded/etched): thelynicgroup    www.lynic.com 126772 GSPCD1650A 01
Data Side Mastering SID Code: IFPI LU81
Data Side Toolstamp or Mastering Code (engraved/stamped): 
Data Side Mould SID Code: 
Data Side Additional Mould: 
Label Side Mould SID Code: 

    Barcode: 5 016488 114585
    Error Count: 0
    Comments: [T:VOL] BILLY_HATCHER
    Contents:

[T:X]
Manual (PDF) (En, Fr, De, Es, It)

Version and Editions:
    Version: 1.00.0000
    Edition/Release: GSP Software

Extras:
    Primary Volume Descriptor (PVD):

0320 : 20 20 20 20 20 20 20 20  20 20 20 20 20 32 30 30                200
0330 : 36 30 39 32 32 30 39 30  35 30 30 30 30 04 32 30   6092209050000.20
0340 : 30 36 30 39 32 32 30 39  30 35 30 30 30 30 04 30   06092209050000.0
0350 : 30 30 30 30 30 30 30 30  30 30 30 30 30 30 30 00   000000000000000.
0360 : 30 30 30 30 30 30 30 30  30 30 30 30 30 30 30 30   0000000000000000
0370 : 00 01 00 00 00 00 00 00  00 00 00 00 00 00 00 00   ................

Copy Protection:
    Copy Protection: SafeDisc remnants
    SubIntention Data (SecuROM/LibCrypt): 

Tracks and Write Offsets:
    DAT:

<rom name="BILLY_HATCHER.bin" size="771117312" crc="0610c4b1" md5="4ec0a073d41f2179f62f1d9c0d45c89a" sha1="83b691e70277c2581ec5f21345d5f2c3173572ef" />

    Cuesheet:

FILE "BILLY_HATCHER.bin" BINARY
  TRACK 01 MODE1/2352
    INDEX 01 00:00:00

    Write Offset: -12

Dumping Info:
    Frontend Version: 3.1.9-70114ee59e42811664dce687b81da967d88fbf62
    Dumping Program: Redumper v2024.05.06 build_325
    Date: 2024-06-06 01:15:09
    Manufacturer: PLEXTOR
    Model: CD-R PX-W4012A
    Firmware: 1.07 (03/22/06 09:00)
    Reported Disc Type: CD-ROM
    C2 Error Count: 0

Match: http://redump.org/disc/31437/

Logs: https://mega.nz/file/mHwUGDDJ#0qa9J0LAZ … syY5sBg9vA

Scans: https://imgur.com/a/miEchth

Common Disc Info:
    Title: LEGO Software Demo CD 2000/1
    Disc Number / Letter: 
    Disc Title: 
    System: IBM PC compatible
    Media Type: CD-ROM
    Category: Demos
    Fully Matching ID: 69887
    Region: USA
    Languages: English
    Disc Serial: DM1G-GEN5

    Ringcode Information:

Data Side Mastering Code (laser branded/etched): DISCTRONICS    MADE IN THE U.S.A.    DM1G-GEN 2298873    *11*    20001226
Data Side Mastering SID Code: IFPI L793
Data Side Toolstamp or Mastering Code (engraved/stamped): 
Data Side Mould SID Code: IFPI 2D4A
Data Side Additional Mould: 
Label Side Mould SID Code: 

    Barcode: 6 63338 01156 0
    Error Count: 0
    Comments:

[T:VOL] Legodemo, LEGODEMO (ISO)
[T:ISBN] 1-893018-06-7

    Contents:

[T:PD]
LEGO Chess
LEGO Creator
LEGO Friends
LEGO Loco
LEGO My Style - Kindergarten
LEGO My Style - Preschool
LEGO Racers

[T:V]
LEGO Alpha Team
LEGO Creator: Knights' Kingdom
LEGO Rock Raiders
LEGO Stunt Rally

[T:X]
Printable game overview sheets

Version and Editions:
    Version: 
    Edition/Release: 

Extras:
    Primary Volume Descriptor (PVD):

0320 : 20 20 20 20 20 20 20 20  20 20 20 20 20 32 30 30                200
0330 : 30 30 39 30 31 32 30 31  36 33 39 30 30 00 32 30   0090120163900.20
0340 : 30 30 30 39 30 31 32 30  31 36 33 39 30 30 00 30   00090120163900.0
0350 : 30 30 30 30 30 30 30 30  30 30 30 30 30 30 30 00   000000000000000.
0360 : 30 30 30 30 30 30 30 30  30 30 30 30 30 30 30 30   0000000000000000
0370 : 00 01 00 00 00 00 00 00  00 00 00 00 00 00 00 00   ................

Tracks and Write Offsets:
    DAT:

<rom name="Legodemo.bin" size="714391776" crc="befd0648" md5="22cba022de7ca484e0b7411562e0cac2" sha1="bf33925ebda593effff52c06b053bb6c0793cc8e" />

    Cuesheet:

FILE "Legodemo.bin" BINARY
  TRACK 01 MODE2/2352
    INDEX 01 00:00:00

    Write Offset: -12

Dumping Info:
    Frontend Version: 3.1.9-70114ee59e42811664dce687b81da967d88fbf62
    Dumping Program: Redumper v2024.05.06 build_325
    Date: 2024-06-02 23:56:33
    Manufacturer: PLEXTOR
    Model: CD-R PX-W4012A
    Firmware: 1.07 (03/22/06 09:00)
    Reported Disc Type: CD-ROM
    C2 Error Count: 0

Match: http://redump.org/disc/69887/

Logs: https://mega.nz/file/6LwFVIKb#MtP2Rueg5 … dGf-5NLdME

Scans: https://imgur.com/a/g0VKMvn

Common Disc Info:
    Title: Sonic Mega Collection Plus
    Disc Number / Letter: 
    Disc Title: 
    System: IBM PC compatible
    Media Type: DVD-ROM-5
    Category: Games
    Fully Matching ID: 52653
    Region: Australia
    Languages: English, French, German, Italian, Spanish
    Disc Serial: SEGA-PC033

    Ringcode Information:

Data Side Mastering Code (laser branded/etched): SEGA-PC033    03/18/10 -- 176603 --A
Data Side Mastering SID Code: IFPI LQ35
Data Side Toolstamp or Mastering Code (engraved/stamped): 
Data Side Mould SID Code: IFPI 5V10
Data Side Additional Mould: 
Label Side Mould SID Code: IFPI 5V11

    Barcode: 5 055277 003525
    Comments: [T:VOL] SMCP
    Contents:

<b>Games</b>:
Default:
- Sonic the Hedgehog
- Sonic the Hedgehog 2
- Sonic the Hedgehog 3
- Sonic & Knuckles
- Sonic the Hedgehog Spinball
- Dr. Robotnik's Mean Bean Machine
- Sonic 3D: Flickies' Island

Unlockable:
- Blue Sphere
- Knuckles in Sonic 2
- Sonic 3 & Knuckles
- Flicky
- Ristar
- The Ooze
- Comix Zone

Sega Game Gear:
- Sonic the Hedgehog
- Sonic Labyrinth
- Sonic Drift
- Sonic Chaos
- Sonic Blast
- Dr. Robotnik's Mean Bean Machine

[T:X]
Manuals
Comics
Illustrations
Movies from Sonic Heroes

Version and Editions:
    Version: 1.00.0000
    Edition/Release: Sonic PC Collection

Extras:
    Primary Volume Descriptor (PVD): Disc has no PVD

Copy Protection:
    Copy Protection: SafeDisc remnants
    SubIntention Data (SecuROM/LibCrypt): 

Size & Checksum:
    Size: 3440082944
    CRC32: d358b939
    MD5: d4e8363fb71010fd418fccb9dfd495dc
    SHA1: f608af92de754b83534bf497b005c36f480ae53b

Dumping Info:
    Frontend Version: 3.1.9-70114ee59e42811664dce687b81da967d88fbf62
    Dumping Program: Redumper v2024.05.06 build_325
    Date: 2024-05-26 16:51:15
    Manufacturer: HL-DT-ST
    Model: DVDRAM SP80NB80
    Firmware: RF01 (J018302 M08M3GB2227)
    Reported Disc Type: DVD-ROM

Match: http://redump.org/disc/52653/

Logs: https://mega.nz/file/6SxmnKqL#384659Wxo … U2-72eVPF8

Scans: https://imgur.com/a/zWodVdj

16

(0 replies, posted in Verifications)

Common Disc Info:
    Title: Sonic Riders
    Disc Number / Letter: 
    Disc Title: 
    System: IBM PC compatible
    Media Type: DVD-ROM-5
    Category: Games
    Fully Matching ID: 52654
    Region: Australia
    Languages: English, French, German, Italian, Japanese, Spanish
    Disc Serial: SEGA-PC051

    Ringcode Information:

Data Side Mastering Code (laser branded/etched): arvato digital services BERTELSMANN    www.arvatodigitalservices.com.au    18/09/2009 - ADSAU13103    SEGA-PC051
Data Side Mastering SID Code: IFPI LY89
Data Side Toolstamp or Mastering Code (engraved/stamped): 
Data Side Mould SID Code: IFPI 5V08
Data Side Additional Mould: 
Label Side Mould SID Code: IFPI 5V09

    Barcode: 5 055277 003525
    Comments: [T:VOL] SONIC_RIDERS
    Contents:

[T:X]
Manual (PDF) (En, Fr, De, Es, It)

Version and Editions:
    Version: 1.0
    Edition/Release: Sonic PC Collection

Extras:
    Primary Volume Descriptor (PVD): Disc has no PVD

Size & Checksum:
    Size: 1978761216
    CRC32: 2de36d5f
    MD5: f4dad4abae0a322e49ec588826102375
    SHA1: 44d612de1707f19c5337632dcaf47a096dfc51cc

Dumping Info:
    Frontend Version: 3.1.9-70114ee59e42811664dce687b81da967d88fbf62
    Dumping Program: Redumper v2024.05.06 build_325
    Date: 2024-05-26 04:55:02
    Manufacturer: HL-DT-ST
    Model: DVDRAM SP80NB80
    Firmware: RF01 (J018302 M08M3GB2227)
    Reported Disc Type: DVD-ROM

Match: http://redump.org/disc/52654/

Logs: https://mega.nz/file/qT51yApA#SwR-GXD8N … P4Yw2wPrLU

Scans: https://imgur.com/a/tv5ABst