1

(0 replies, posted in Verifications)

Verification of: http://redump.org/disc/107471 with added barcode

Logs: https://tortoisewrath.com/logs/AlienVirus.7z

Common Disc Info:
    Title: Alien Virus
    Disc Number / Letter:
    Disc Title:
    System: IBM PC compatible
    Media Type: CD-ROM
    Category: Games
    Fully Matching ID: 107471
    Region: USA
    Languages: English
    Disc Serial:

    Ringcode Information:

Data Side Mastering Code (laser branded/etched): DISC MFG, INC. (A1)    W.O.# 47858-3    47858
Data Side Mastering SID Code:
Data Side Toolstamp or Mastering Code (engraved/stamped):
Data Side Mould SID Code:
Data Side Additional Mould:
Label Side Mould SID Code:

    Barcode: 0 34912 95003 0
    Error Count: 0
    Comments:

[T:VOL] ALIEN_VIRUS
(OPTIONAL)

    Contents: (OPTIONAL)

Version and Editions:
    Version:
    Edition/Release: Original

Extras:
    Primary Volume Descriptor (PVD):

0320 : 20 20 20 20 20 20 20 20  20 20 20 20 20 31 39 39                199
0330 : 35 30 33 30 39 31 33 34  33 33 32 30 30 20 31 39   5030913433200 19
0340 : 39 35 30 33 30 39 31 33  34 33 33 32 30 30 20 00   95030913433200 .
0350 : 00 00 00 00 00 00 00 00  00 00 00 00 00 00 00 00   ................
0360 : 00 00 00 00 00 00 00 00  00 00 00 00 00 00 00 00   ................
0370 : 00 01 00 00 00 00 00 00  00 00 00 00 00 00 00 00   ................

Tracks and Write Offsets:
    DAT:

<rom name="Alien Virus (Track 1).bin" size="84323904" crc="aeb5181d" md5="0f2ca3e2399cb2229ea30280d8f5225b" sha1="a61632e562a16a97b6a63ef8c11aad2a1554e914" />
<rom name="Alien Virus (Track 2).bin" size="166773264" crc="874bd6f8" md5="2c7d0079afb89654c23bec6d42aa846a" sha1="46cdbe6928cc9aed0d1b66c73f0f4ee63ee6c099" />
<rom name="Alien Virus (Track 3).bin" size="127972320" crc="92a6683d" md5="25fd91cb457f8ddf07073ac6fdcd3371" sha1="1677022e30bd0ee62c74b1eb30f3c73bda46083e" />
<rom name="Alien Virus (Track 4).bin" size="71376144" crc="863fca69" md5="b0b217721ae6813761c146375723df2f" sha1="fe4b3fad25cb9b37f8d2d51a1ed8d6a7bcf08e8a" />
<rom name="Alien Virus (Track 5).bin" size="156911328" crc="0558682a" md5="686091cb928ee27e66bee75ee5e2561c" sha1="fc27059a7778681bb76f7741d3cda1bfba596acf" />
<rom name="Alien Virus (Track 6).bin" size="10868592" crc="394c0ce3" md5="e289dfb9c205d6a25109c7da87eb558f" sha1="5f3a8781ae9b14cb92ee495f262e2376a6b3f41b" />
<rom name="Alien Virus (Track 7).bin" size="10515792" crc="6e116112" md5="050317c8bb36f3bf4991ac38bbcb8d62" sha1="5bc5852f771d22e11d626ecd9c3dc73ac8f5390e" />

    Cuesheet:

CATALOG 0000000000000
FILE "Alien Virus (Track 1).bin" BINARY
  TRACK 01 MODE1/2352
    INDEX 01 00:00:00
FILE "Alien Virus (Track 2).bin" BINARY
  TRACK 02 AUDIO
    INDEX 00 00:00:00
    INDEX 01 00:02:00
FILE "Alien Virus (Track 3).bin" BINARY
  TRACK 03 AUDIO
    INDEX 01 00:00:00
FILE "Alien Virus (Track 4).bin" BINARY
  TRACK 04 AUDIO
    INDEX 01 00:00:00
FILE "Alien Virus (Track 5).bin" BINARY
  TRACK 05 AUDIO
    INDEX 01 00:00:00
FILE "Alien Virus (Track 6).bin" BINARY
  TRACK 06 AUDIO
    INDEX 01 00:00:00
FILE "Alien Virus (Track 7).bin" BINARY
  TRACK 07 AUDIO
    INDEX 01 00:00:00

    Write Offset: +222

Dumping Info:
    Frontend Version: 3.1.8-96f826994adbbdb46ba3cb84a10bf6be38ab1a07
    Dumping Program: DiscImageCreator 20240401
    Date: 2024-05-26 04:35:55
    Manufacturer: PLEXTOR
    Model: DVDR    PX-760A
    Firmware: 1.07
    Reported Disc Type: CD-DA or CD-ROM Disc

2

(0 replies, posted in Verifications)

Verification of: http://redump.org/disc/64829

Common Disc Info:
    Title: Fujitsu Habitat V2.1 L10
    Foreign Title (Non-latin): 富士通HabitatV2.1L10
    Disc Number / Letter:
    Disc Title:
    System: Fujitsu FM Towns series
    Media Type: CD-ROM
    Category: Applications
    Fully Matching ID: 64829
    Region: Japan
    Languages: Japanese
    Disc Serial: HMB-183

    Ringcode Information:

Data Side Mastering Code (laser branded/etched): HMB-183    1A1    TO
Data Side Mastering SID Code:
Data Side Toolstamp or Mastering Code (engraved/stamped):
Data Side Mould SID Code:
Data Side Additional Mould:
Label Side Mould SID Code:

    Barcode: (OPTIONAL)
    EXE/Build Date: 1990-07-12
    Error Count: 0
    Comments:

[T:VOL] ANIMAL, HABITAT_V21 (ISO)
[T:G] Hyper Communication Network (ハイパー・コミュニケーション・ネットワーク)
<b>Fujitsu ID</b>: A2760011

    Contents: (OPTIONAL)

Version and Editions:
    Version:
    Edition/Release: Original

Extras:
    Primary Volume Descriptor (PVD):

0320 : 00 00 00 00 00 00 00 00  00 00 00 00 00 31 39 39   .............199
0330 : 30 30 37 31 32 31 34 32  37 32 36 30 30 00 31 39   0071214272600.19
0340 : 39 30 30 37 31 32 31 34  34 37 35 36 30 30 00 30   90071214475600.0
0350 : 30 30 30 30 30 30 30 30  30 30 30 30 30 30 30 00   000000000000000.
0360 : 30 30 30 30 30 30 30 30  30 30 30 30 30 30 30 30   0000000000000000
0370 : 00 01 00 00 00 00 00 00  00 00 00 00 00 00 00 00   ................

Tracks and Write Offsets:
    DAT:

<rom name="Habitat V2.1L10 (Track 1).bin" size="101959200" crc="29a91a0f" md5="3c32b9f17b6613df2aa00096891ccf03" sha1="ecff62e56a93cc5d357e012fe21f1ae6c9a2cf70" />
<rom name="Habitat V2.1L10 (Track 2).bin" size="47150544" crc="f61961ed" md5="1aa58bd49bc52602f291170cc5d3cd6b" sha1="c89982352db456c812c486b59088656363cde992" />
<rom name="Habitat V2.1L10 (Track 3).bin" size="20551776" crc="7e452f3c" md5="5e4de3d1e94edf839a3121336129d2f4" sha1="4a8fc3891643ffeff4ea74e4dbd50ad38cd29823" />
<rom name="Habitat V2.1L10 (Track 4).bin" size="41348160" crc="e9584558" md5="e72b3b9de9137437c1b9997632f35b86" sha1="64f765b0a12b79b6cff8d230a3ec60c50dc64661" />
<rom name="Habitat V2.1L10 (Track 5).bin" size="53148144" crc="2a6f67dc" md5="36f06910326c95c86fab2b15b29d9cb7" sha1="6404d3e6218445db302055d068ac37b5404c0cf8" />

    Cuesheet:

FILE "Habitat V2.1L10 (Track 1).bin" BINARY
  TRACK 01 MODE1/2352
    INDEX 01 00:00:00
FILE "Habitat V2.1L10 (Track 2).bin" BINARY
  TRACK 02 AUDIO
    INDEX 00 00:00:00
    INDEX 01 00:05:00
FILE "Habitat V2.1L10 (Track 3).bin" BINARY
  TRACK 03 AUDIO
    INDEX 00 00:00:00
    INDEX 01 00:04:28
FILE "Habitat V2.1L10 (Track 4).bin" BINARY
  TRACK 04 AUDIO
    INDEX 00 00:00:00
    INDEX 01 00:04:20
FILE "Habitat V2.1L10 (Track 5).bin" BINARY
  TRACK 05 AUDIO
    INDEX 00 00:00:00
    INDEX 01 00:04:60

    Write Offset: +337

Dumping Info:
    Frontend Version: 3.1.8-96f826994adbbdb46ba3cb84a10bf6be38ab1a07
    Dumping Program: DiscImageCreator 20240401
    Date: 2024-05-22 02:29:01
    Manufacturer: PLEXTOR
    Model: DVDR    PX-760A
    Firmware: 1.07
    Reported Disc Type: CD-DA or CD-ROM Disc

3

(0 replies, posted in Verifications)

Verification of: http://redump.org/disc/43198

Logs: https://tortoisewrath.com/logs/HMG-140.7z

Common Disc Info:
    Title: Free Software Collection 11
    Disc Number / Letter:
    Disc Title:
    System: Fujitsu FM Towns series
    Media Type: CD-ROM
    Category: Applications
    Fully Matching ID: 43198
    Region: Japan
    Languages: Japanese
    Disc Serial: HMG-140

    Ringcode Information:

Data Side Mastering Code (laser branded/etched): HMG-140    2
Data Side Mastering SID Code: IFPI L274
Data Side Toolstamp or Mastering Code (engraved/stamped):
Data Side Mould SID Code: IFPI 4502
Data Side Additional Mould: S M J
Label Side Mould SID Code:

    Barcode:
    EXE/Build Date: 1994-12-14
    Error Count: 0
    Comments:

[T:VOL] FREESOFT11
<b>Fujitsu ID</b>: A2760246

    Contents: (OPTIONAL)

Version and Editions:
    Version:
    Edition/Release: Original

Extras:
    Primary Volume Descriptor (PVD):

0320 : 20 20 20 20 20 20 20 20  20 20 20 20 20 30 30 30                000
0330 : 30 30 30 30 30 30 30 30  30 30 30 00 30 00 30 30   00000000000.0.00
0340 : 30 30 30 30 30 30 30 30  30 30 30 30 00 30 00 30   000000000000.0.0
0350 : 30 30 30 30 30 30 30 30  30 30 30 30 30 00 30 00   0000000000000.0.
0360 : 30 30 30 30 30 30 30 30  30 30 30 30 30 30 00 30   00000000000000.0
0370 : 00 01 00 00 00 00 00 00  00 00 00 00 00 00 00 00   ................

Tracks and Write Offsets:
    DAT:

<rom name="Free Software Collection 11.bin" size="761262432" crc="a9150601" md5="87ed4c9bdb0b71c384e9dc0cb3a2863c" sha1="1a040054a74c91bc118e8b6a9ed7e627ca838666" />

    Cuesheet:

FILE "Free Software Collection 11.bin" BINARY
  TRACK 01 MODE1/2352
    INDEX 01 00:00:00

    Write Offset: +2

Dumping Info:
    Frontend Version: 3.1.8-96f826994adbbdb46ba3cb84a10bf6be38ab1a07
    Dumping Program: DiscImageCreator 20240401
    Date: 2024-05-22 02:07:35
    Manufacturer: PLEXTOR
    Model: DVDR    PX-760A
    Firmware: 1.07
    Reported Disc Type: CD-DA or CD-ROM Disc

I encountered the same errors already described in the database (428 on disc 1 and 54072 on disc 2).

Disc 1

Verification of http://redump.org/disc/83563/

Logs: https://tortoisewrath.com/logs/Highlight20-1.7z

Common Disc Info:
    Title: Erande Tameseru Taiken Soft: Highlight CD 20
    Foreign Title (Non-latin): 選んで試せる体験ソフトハイライトCD20
    Disc Number / Letter: 1
    Disc Title:
    System: Fujitsu FM Towns series
    Media Type: CD-ROM
    Category: Demos
    Fully Matching ID: 83563
    Region: Japan
    Languages: Japanese
    Disc Serial:

    Ringcode Information:

Data Side Mastering Code (laser branded/etched): HME-924-1 T1    3K04-1
Data Side Mastering SID Code:
Data Side Toolstamp or Mastering Code (engraved/stamped):
Data Side Mould SID Code:
Data Side Additional Mould:
Label Side Mould SID Code:

    Barcode:
    EXE/Build Date: 1993-11-02
    Error Count: 428
    Comments:

[T:VOL] MARTYMEDIA
+380 offset for the user area due to pregap mastering issue.
The last 428 sectors of the first track are scrambled data sectors caused by 2072 garbage bytes before them.

    Contents:

[T:PD]
Pyokotan no Chie Asobi Ehon: Pyokotan no Nazonazo Meiro Daibouken
Hyper Land: Doubutsu no Sekai
Kid Pix Jr.
NHK Eigo de Asobo: Daitanken! Hotel Galaxy
Kanji no Ehon
Hiragana no Ehon
Nemurenu Yoru no Chiisana Ohanashi
Chiisana Ensouka
NHK Jissen Eikaiwa
Dynamic Classics: Alice in Wonderland
CD Learning System II: New Horizon English Course 1

Version and Editions:
    Version:
    Edition/Release: Hibaihin

Extras:
    Primary Volume Descriptor (PVD):

0320 : 20 20 20 20 20 20 20 20  20 20 20 20 20 31 39 39                199
0330 : 33 31 30 31 38 31 32 30  30 30 30 30 30 00 31 39   3101812000000.19
0340 : 39 33 31 30 31 38 31 32  30 30 30 30 30 30 00 30   93101812000000.0
0350 : 30 30 30 30 30 30 30 30  30 30 30 30 30 30 30 00   000000000000000.
0360 : 30 30 30 30 30 30 30 30  30 30 30 30 30 30 30 30   0000000000000000
0370 : 00 01 00 00 00 00 00 00  00 00 00 00 00 00 00 00   ................

Tracks and Write Offsets:
    DAT:

<rom name="MARTYMEDIA (Track 01).bin" size="115542000" crc="11cacbb9" md5="2f59590a2dac6cf77f8f2770452e0d7f" sha1="99ae239f7b79001ad891b0085b5186eef3c37e92" />
<rom name="MARTYMEDIA (Track 02).bin" size="1764000" crc="f735f191" md5="6d07e34912294bdb7717273fe72b9f38" sha1="408d2bd2e89e93c256d43e8f2112744ec94cb6a8" />
<rom name="MARTYMEDIA (Track 03).bin" size="1764000" crc="00793be7" md5="f931b6831843985087dcdecd524b571d" sha1="d5649c227c09b1a7369bf50f6f95c1582b23b42a" />
<rom name="MARTYMEDIA (Track 04).bin" size="8467200" crc="51fe1fa3" md5="c01c8de041a1d4ee85a8aad4286d5cce" sha1="ba53f8b20224496d6d6e8d7e1135df284bd83a21" />
<rom name="MARTYMEDIA (Track 05).bin" size="17287200" crc="9275a27d" md5="44a26a880d0b8da2c5388374f0fb7179" sha1="b31f9ecd33f23a95d70dec64f9185c5cd2cd7b69" />
<rom name="MARTYMEDIA (Track 06).bin" size="7408800" crc="c8d33305" md5="7c336e45294654ddb08a6fda10c6cbd7" sha1="af3444474cd8dbd1af098f3bd96b9edc4a8a9170" />
<rom name="MARTYMEDIA (Track 07).bin" size="21344400" crc="421566cd" md5="c59e6d127a5325bbccab981073a1b175" sha1="7c845dc61a9ef8509365611958c462292bf80a25" />
<rom name="MARTYMEDIA (Track 08).bin" size="10584000" crc="483a10d2" md5="d5522f1b89bc4f5675fb828a5d6fe6b4" sha1="80b1615b196e44209bdf1e47ed194ab46d8a3fc3" />
<rom name="MARTYMEDIA (Track 09).bin" size="12348000" crc="cc458b30" md5="5edf7e70e793c3a7f09c1490f93029c2" sha1="66289871bc2388fdbe3ea65350ca9b51a78e1190" />
<rom name="MARTYMEDIA (Track 10).bin" size="17463600" crc="c443164e" md5="21400ac88842d4b4d194120b0c62b973" sha1="3e1462461d222015b1cda879fefc922a9703e083" />
<rom name="MARTYMEDIA (Track 11).bin" size="4856880" crc="80f631c8" md5="21e3ad8d41d224d8a8e00b3cf472e010" sha1="3424491c8ca165b3852b781bdcfd6b9afaa044c8" />
<rom name="MARTYMEDIA (Track 12).bin" size="8996400" crc="299bcf9d" md5="8a9ea5b624c3ca53c6947b99f23d7cef" sha1="bb44d57e1d2b81edb42dc9e9b6b3220aea94fa3e" />
<rom name="MARTYMEDIA (Track 13).bin" size="11642400" crc="d05cba90" md5="8de2b038fa5cd982cb4404587dca2330" sha1="46cd86f50938411cd757e5f0a4f2eba42f42b4ee" />
<rom name="MARTYMEDIA (Track 14).bin" size="8725920" crc="e1956c54" md5="e78bbada09b0dbc8a15e3990328cf122" sha1="5253cb085779e737c6b208bfecca1b07969d8e45" />
<rom name="MARTYMEDIA (Track 15).bin" size="1058400" crc="58ebbecc" md5="1d1cdb3f698845e72197f2da3abe6565" sha1="4431db7e7812b52780a90a310d69e7c46fce8f0e" />
<rom name="MARTYMEDIA (Track 16).bin" size="10936800" crc="787f9196" md5="7143182c08ce55bd7fc36ef95bb57c43" sha1="200da402aa5844492eef717b4fdce61647b4d753" />
<rom name="MARTYMEDIA (Track 17).bin" size="94374000" crc="79c9dd4f" md5="da6f189cb20aed05ce8bf8fc5fc00e76" sha1="8056c5826546e5bb3a4d1c93adfdf61c72c1d752" />
<rom name="MARTYMEDIA (Track 18).bin" size="6809040" crc="10d27bbb" md5="6d498ca5bea593d51a0745f64c457ac7" sha1="0de944f1445332742350c73b83ae1956e602bfb4" />
<rom name="MARTYMEDIA (Track 19).bin" size="23150736" crc="358f64cc" md5="a6d1835b163e377acdca8868acc293f5" sha1="779d32f84a94bb68ab572f588bd74eb4348ebe99" />
<rom name="MARTYMEDIA (Track 20).bin" size="10435824" crc="967982c8" md5="57bcaff3b335c31ef2dae1932ab5a1c4" sha1="f6d67e10668632230310772cfa090eed36b10fdf" />
<rom name="MARTYMEDIA (Track 21).bin" size="16758000" crc="67cd289b" md5="9d4534312e44f5535078e4160e5ce47f" sha1="f0852a80cbced196aad61a876558891605d233fa" />
<rom name="MARTYMEDIA (Track 22).bin" size="5997600" crc="12260ed6" md5="b98418fadc78a2ce1d84f46f80adfabf" sha1="0b8859678066cb7c87c00788ec7674d319f77a50" />
<rom name="MARTYMEDIA (Track 23).bin" size="31928400" crc="ae34d5ca" md5="cb8ef7771ff26a7d1dacc5dad2cd0ca6" sha1="54a533ab30fb56e15a3bbc4685eed6301837b49f" />
<rom name="MARTYMEDIA (Track 24).bin" size="31752000" crc="027e0652" md5="8234c98361dc4251fc0d55620a8df8ba" sha1="695bafd43b676aca4f4b8892b73fefa0365c8b57" />
<rom name="MARTYMEDIA (Track 25).bin" size="5644800" crc="4aa1f852" md5="11bcf6439ed289c62f2f06ab1718b733" sha1="78325b2eeb8c226fac4aff39b52647aaf3fdf109" />
<rom name="MARTYMEDIA (Track 26).bin" size="47980800" crc="f38fc867" md5="e5b89f69af65392b47dcc5844104174a" sha1="226b62e5649493d80859575b65f4f041834b6c97" />
<rom name="MARTYMEDIA (Track 27).bin" size="63680400" crc="2e5750ae" md5="5849168316b0495be53ddaef51c34bab" sha1="0124c562dee8737112b11c8a2c6d31e764fcac75" />
<rom name="MARTYMEDIA (Track 28).bin" size="8932896" crc="ff619918" md5="b8c2f627f6c8085467d042be84c2f3a3" sha1="e7b6c979084c0153b191655c85d05319e5a21979" />
<rom name="MARTYMEDIA (Track 29).bin" size="16473408" crc="cf88bd28" md5="a31cdfb43329f68125dc5196d0ea3403" sha1="b0b1596e3849034ea5cfae415a80cf269bb8e380" />
<rom name="MARTYMEDIA (Track 30).bin" size="15612576" crc="7bc1d4fb" md5="bfe69a3014ea9dc9591636a5e7bd6769" sha1="58ede60ed71de0935661d4120f4a3c23e99b76a2" />
<rom name="MARTYMEDIA (Track 31).bin" size="51943920" crc="756cd12d" md5="b339b0ad0220d75bcceaf35f783db6b8" sha1="ba8f2003a4983b6cbd4e1ccb966a0c4d39d812c7" />

    Cuesheet:

FILE "MARTYMEDIA (Track 01).bin" BINARY
  TRACK 01 MODE1/2352
    INDEX 01 00:00:00
FILE "MARTYMEDIA (Track 02).bin" BINARY
  TRACK 02 AUDIO
    INDEX 00 00:00:00
    INDEX 01 00:02:00
FILE "MARTYMEDIA (Track 03).bin" BINARY
  TRACK 03 AUDIO
    INDEX 00 00:00:00
    INDEX 01 00:04:00
FILE "MARTYMEDIA (Track 04).bin" BINARY
  TRACK 04 AUDIO
    INDEX 00 00:00:00
    INDEX 01 00:02:00
FILE "MARTYMEDIA (Track 05).bin" BINARY
  TRACK 05 AUDIO
    INDEX 00 00:00:00
    INDEX 01 00:02:00
FILE "MARTYMEDIA (Track 06).bin" BINARY
  TRACK 06 AUDIO
    INDEX 00 00:00:00
    INDEX 01 00:02:00
FILE "MARTYMEDIA (Track 07).bin" BINARY
  TRACK 07 AUDIO
    INDEX 00 00:00:00
    INDEX 01 00:02:00
FILE "MARTYMEDIA (Track 08).bin" BINARY
  TRACK 08 AUDIO
    INDEX 00 00:00:00
    INDEX 01 00:02:00
FILE "MARTYMEDIA (Track 09).bin" BINARY
  TRACK 09 AUDIO
    INDEX 00 00:00:00
    INDEX 01 00:02:00
FILE "MARTYMEDIA (Track 10).bin" BINARY
  TRACK 10 AUDIO
    INDEX 00 00:00:00
    INDEX 01 00:02:00
FILE "MARTYMEDIA (Track 11).bin" BINARY
  TRACK 11 AUDIO
    INDEX 00 00:00:00
    INDEX 01 00:02:40
FILE "MARTYMEDIA (Track 12).bin" BINARY
  TRACK 12 AUDIO
    INDEX 00 00:00:00
    INDEX 01 00:02:00
FILE "MARTYMEDIA (Track 13).bin" BINARY
  TRACK 13 AUDIO
    INDEX 00 00:00:00
    INDEX 01 00:02:00
FILE "MARTYMEDIA (Track 14).bin" BINARY
  TRACK 14 AUDIO
    INDEX 00 00:00:00
    INDEX 01 00:01:35
FILE "MARTYMEDIA (Track 15).bin" BINARY
  TRACK 15 AUDIO
    INDEX 00 00:00:00
    INDEX 01 00:02:00
FILE "MARTYMEDIA (Track 16).bin" BINARY
  TRACK 16 AUDIO
    INDEX 00 00:00:00
    INDEX 01 00:02:00
FILE "MARTYMEDIA (Track 17).bin" BINARY
  TRACK 17 AUDIO
    INDEX 00 00:00:00
    INDEX 01 00:02:00
FILE "MARTYMEDIA (Track 18).bin" BINARY
  TRACK 18 AUDIO
    INDEX 00 00:00:00
    INDEX 01 00:28:00
FILE "MARTYMEDIA (Track 19).bin" BINARY
  TRACK 19 AUDIO
    INDEX 00 00:00:00
    INDEX 01 00:03:37
FILE "MARTYMEDIA (Track 20).bin" BINARY
  TRACK 20 AUDIO
    INDEX 00 00:00:00
    INDEX 01 00:02:12
FILE "MARTYMEDIA (Track 21).bin" BINARY
  TRACK 21 AUDIO
    INDEX 00 00:00:00
    INDEX 01 00:02:00
FILE "MARTYMEDIA (Track 22).bin" BINARY
  TRACK 22 AUDIO
    INDEX 00 00:00:00
    INDEX 01 00:04:00
FILE "MARTYMEDIA (Track 23).bin" BINARY
  TRACK 23 AUDIO
    INDEX 00 00:00:00
    INDEX 01 00:02:00
FILE "MARTYMEDIA (Track 24).bin" BINARY
  TRACK 24 AUDIO
    INDEX 00 00:00:00
    INDEX 01 00:02:00
FILE "MARTYMEDIA (Track 25).bin" BINARY
  TRACK 25 AUDIO
    INDEX 00 00:00:00
    INDEX 01 00:02:00
FILE "MARTYMEDIA (Track 26).bin" BINARY
  TRACK 26 AUDIO
    INDEX 00 00:00:00
    INDEX 01 00:02:00
FILE "MARTYMEDIA (Track 27).bin" BINARY
  TRACK 27 AUDIO
    INDEX 00 00:00:00
    INDEX 01 00:24:50
FILE "MARTYMEDIA (Track 28).bin" BINARY
  TRACK 28 AUDIO
    INDEX 00 00:00:00
    INDEX 01 00:20:00
FILE "MARTYMEDIA (Track 29).bin" BINARY
  TRACK 29 AUDIO
    INDEX 00 00:00:00
    INDEX 01 00:02:27
FILE "MARTYMEDIA (Track 30).bin" BINARY
  TRACK 30 AUDIO
    INDEX 00 00:00:00
    INDEX 01 00:01:73
FILE "MARTYMEDIA (Track 31).bin" BINARY
  TRACK 31 AUDIO
    INDEX 00 00:00:00
    INDEX 01 00:01:35

    Write Offset: +3250

Dumping Info:
    Frontend Version: 3.1.8-96f826994adbbdb46ba3cb84a10bf6be38ab1a07
    Dumping Program: DiscImageCreator 20240401
    Date: 2024-05-20 02:34:46
    Manufacturer: PLEXTOR
    Model: DVDR    PX-716A
    Firmware: 1.11
    Reported Disc Type: CD-DA or CD-ROM Disc

Disc 2

Verification of http://redump.org/disc/83566/

Logs: https://tortoisewrath.com/logs/Highlight20-2.7z

Note the slightly different ringcode. Scan: https://tortoisewrath.com/logs/img20240525_16514311.jpg

Common Disc Info:
    Title: Erande Tameseru Taiken Soft: Highlight CD 20
    Foreign Title (Non-latin): 選んで試せる体験ソフトハイライトCD20
    Disc Number / Letter: 2
    Disc Title:
    System: Fujitsu FM Towns series
    Media Type: CD-ROM
    Category: Demos
    Fully Matching ID: 83566
    Region: Japan
    Languages: Japanese
    Disc Serial:

    Ringcode Information:

Data Side Mastering Code (laser branded/etched): HME-924-2 T1    3K02-1
Data Side Mastering SID Code:
Data Side Toolstamp or Mastering Code (engraved/stamped):
Data Side Mould SID Code:
Data Side Additional Mould:
Label Side Mould SID Code:

    Barcode: 
    EXE/Build Date: 1993-11-01
    Error Count: 54072
    Comments:

[T:VOL] MARTYMEDIA
+1287 offset for the user area due to pregap mastering issue.
The last 72 sectors of the data track are empty audio sectors, the 54000 sectors before them are scrambled data sectors caused by 896 garbage bytes before them.

    Contents:

[T:PD]
Hyper Planet for Marty
Planet Harmony
Fouge Vol. 1: Maeda Shinzo no Sekai
Secre
Muscle Bomber: The Body Explosion
Scavenger 4
3x3 Eyes: Sanjiyan Henjou
Hishouzame
Yumimi Mix

Version and Editions:
    Version:
    Edition/Release: Original

Extras:
    Primary Volume Descriptor (PVD):

0320 : 20 20 20 20 20 20 20 20  20 20 20 20 20 31 39 39                199
0330 : 33 31 30 31 38 31 32 30  30 30 30 30 30 00 31 39   3101812000000.19
0340 : 39 33 31 30 31 38 31 32  30 30 30 30 30 30 00 30   93101812000000.0
0350 : 30 30 30 30 30 30 30 30  30 30 30 30 30 30 30 00   000000000000000.
0360 : 30 30 30 30 30 30 30 30  30 30 30 30 30 30 30 30   0000000000000000
0370 : 00 01 00 00 00 00 00 00  00 00 00 00 00 00 00 00   ................

Tracks and Write Offsets:
    DAT:

<rom name="MARTYMEDIA (Track 01).bin" size="253834896" crc="25343efc" md5="bafc340ece884bfa4c60b3e18aec9265" sha1="532911d28ac6f5939af5188c6e10a8506dd3b5be" />
<rom name="MARTYMEDIA (Track 02).bin" size="3901968" crc="081ff88b" md5="c2cc215d158f80901a788337e75b17bb" sha1="0f626ba5ea3e265404d95338718481d08d35560e" />
<rom name="MARTYMEDIA (Track 03).bin" size="7408800" crc="431ac0b4" md5="8a8ec237c16b5baa9a7cb6cc64567844" sha1="40a64b949eb433e9b45c85f372e520fd9e3e1246" />
<rom name="MARTYMEDIA (Track 04).bin" size="1361808" crc="ea356f69" md5="9c87c997af62540c465eb83e303f0ca9" sha1="700d78d47e3cf23a25b584f43659de46b037a8fd" />
<rom name="MARTYMEDIA (Track 05).bin" size="18865392" crc="c24b43ad" md5="e78311d7cf1f9549d229bcbb199eff2e" sha1="ae122eb7925c54a0092e1bf5c6b91c52bd911a26" />
<rom name="MARTYMEDIA (Track 06).bin" size="18863040" crc="99872129" md5="55edbc01888c797ca0fee19c0bd5b864" sha1="601b204ad82ace79da04bca4bb02c2acb4d9dec5" />
<rom name="MARTYMEDIA (Track 07).bin" size="1361808" crc="3573d4c2" md5="a840b32cf5f15e7e44c5d13076b08795" sha1="49ab87b4fd2c22a8a348bf9a37b3259e5f91d869" />
<rom name="MARTYMEDIA (Track 08).bin" size="1361808" crc="c1bae318" md5="74c02c6096c443552da78dcd2afe8f3c" sha1="bfc39ecac0ece070c5b48b90eb973a53a9b9cbff" />
<rom name="MARTYMEDIA (Track 09).bin" size="1361808" crc="4daccfe7" md5="87cca194df16181583cde950bc602a23" sha1="9a3033e31e9b87eb34336b00ceadad8cd1f090c7" />
<rom name="MARTYMEDIA (Track 10).bin" size="1361808" crc="f28a4450" md5="75e8f7b4987a367dda01322f363abdfa" sha1="47d266c7201b24ed6345d8caa5bf149524d8233f" />
<rom name="MARTYMEDIA (Track 11).bin" size="1361808" crc="cd56ba6d" md5="943759a9b4a64fb62125060b026c9517" sha1="b5073b64af2c0ab682189d58b03bdd0eedd1c568" />
<rom name="MARTYMEDIA (Track 12).bin" size="1361808" crc="058d81bd" md5="3f0cf69c4eb72a1f711206f85fedc5a6" sha1="e0193d5852c024445688981e7dd7f308f8e28b04" />
<rom name="MARTYMEDIA (Track 13).bin" size="1361808" crc="f03abdd7" md5="2216a326b8386f2793a3882443a3fade" sha1="2af93b076dc2547776a22aef6be0e97fae321aea" />
<rom name="MARTYMEDIA (Track 14).bin" size="1361808" crc="e9b6802d" md5="231fc1a93ee409c0d3f0f62ed734e37d" sha1="9cb28ae394366851ca1f71225325f9a1df9737f5" />
<rom name="MARTYMEDIA (Track 15).bin" size="28572096" crc="f3db108d" md5="9d3d5355bd757d19c4a5a20fab2751e9" sha1="2ed4059acc0ddf697c80bb3614d6fd93617814c1" />
<rom name="MARTYMEDIA (Track 16).bin" size="1361808" crc="eb7d255f" md5="d3e3ebf3abd51a3322df36b8c5d30c13" sha1="044f7f419551027d6a609855ef78431b43295779" />
<rom name="MARTYMEDIA (Track 17).bin" size="1361808" crc="cd85e295" md5="da6071a45e3bf66ed4a989f442056614" sha1="1d9d28b7fe1a6fb55763cfb6840d52e783ac37da" />
<rom name="MARTYMEDIA (Track 18).bin" size="1361808" crc="72c029ca" md5="3e61a38f49035b51b921d1e0397decb2" sha1="db40b7a44cb23ed5ea67790fc05449321069eeaf" />
<rom name="MARTYMEDIA (Track 19).bin" size="1361808" crc="b8f423a1" md5="bdb97727de823322c210a1964d006d36" sha1="69079660dbea133e2ed2586a572834d049791fd3" />
<rom name="MARTYMEDIA (Track 20).bin" size="1361808" crc="d06f8466" md5="aee2cca8a973462da932d36236dd6ce2" sha1="bfd14d9928047f77ac77d7582a1610f7e90b4a55" />
<rom name="MARTYMEDIA (Track 21).bin" size="1361808" crc="8ef547c8" md5="93da8d4987d48b24798310b7eb7a9766" sha1="95f0078945d456c68e8bc4717ad81f056dd49f55" />
<rom name="MARTYMEDIA (Track 22).bin" size="1361808" crc="c25cce6a" md5="e5c0f44bf71486d55575837b7ceac190" sha1="8b7697897edba92e16682e3edbc7bd318e663e91" />
<rom name="MARTYMEDIA (Track 23).bin" size="1361808" crc="2eab16ac" md5="1fdf2dc616134e161dbf33b9f7ea3692" sha1="cf6045e4c53afa508149c9698a3fec1e040248ff" />
<rom name="MARTYMEDIA (Track 24).bin" size="1168944" crc="53a0ccd0" md5="1191fac649a35468e33e4f21bc5a9fa2" sha1="1946289975b09478e517d7747a0c495249bfd68a" />
<rom name="MARTYMEDIA (Track 25).bin" size="1168944" crc="49b48e85" md5="7c2ae121eb4298f02421773ff9cfd4bc" sha1="9d1d7ec40eb4bc2e4d20d11fad3096d22ff9f89e" />
<rom name="MARTYMEDIA (Track 26).bin" size="1168944" crc="3e099e2b" md5="4cb4217813012003c8c36d6e2e172833" sha1="4c3d127a690e2057948cca7618a58c1cefc15fc1" />
<rom name="MARTYMEDIA (Track 27).bin" size="1509984" crc="31c8673f" md5="cb585a4c9859674582ce75297f7cb9ce" sha1="a483f79e2e15a10fe244510fb276e7ba3cb6dc04" />
<rom name="MARTYMEDIA (Track 28).bin" size="1168944" crc="e2e16f28" md5="7942d7ffc933e4ed42d402bc416b31e4" sha1="cfd2e01e25e076fdd2938e75e38eede1f201b855" />
<rom name="MARTYMEDIA (Track 29).bin" size="1168944" crc="b8365384" md5="2a5a64cedf492f19f00ef1cf9fcadb44" sha1="9bf8bae1488f859f607acaf280229b492365bab1" />
<rom name="MARTYMEDIA (Track 30).bin" size="1166592" crc="c5357bc3" md5="358f339ae0bda8f54a282eaee3d7c028" sha1="2b9acaa643d48eba06a942d066cc091301d0927c" />
<rom name="MARTYMEDIA (Track 31).bin" size="6562080" crc="91a469b1" md5="b749d300a125643d63328e2fc5b0f8f5" sha1="2ae5f8d88b5f762abf8af3109bb6fbeca4f962ad" />
<rom name="MARTYMEDIA (Track 32).bin" size="53802000" crc="b3efc1d5" md5="965e87b72994ca790e8c00caf5c76726" sha1="bc80878fee728ebbe194f769f0a8d4385b9c9725" />
<rom name="MARTYMEDIA (Track 33).bin" size="7251216" crc="8c1b456f" md5="2761adab0ed19788a7678248120e074b" sha1="0a7eb906893cc080ca041d4ec771567b15b86510" />
<rom name="MARTYMEDIA (Track 34).bin" size="3363360" crc="ca662fc4" md5="68d8eb43c8db3907be371ec94650c785" sha1="d15eb1da9801e9a6ba1fd5d52405b7f12004ff71" />
<rom name="MARTYMEDIA (Track 35).bin" size="10654560" crc="71d49246" md5="d854b5c757ff1569b2ae0e4cac68e881" sha1="970c1d898029a225953116f28e8c82dc0e011c4c" />
<rom name="MARTYMEDIA (Track 36).bin" size="10007760" crc="b829d452" md5="60a4f3c179a8d41be627475831a2d5ed" sha1="1c13fbf74a9695f18973ceeb9f9f88c1e32402b3" />
<rom name="MARTYMEDIA (Track 37).bin" size="70383600" crc="91933cf8" md5="26744efcd1a3958f2a6f15318b9f5957" sha1="77a2f43d2704f03795f191c02765b84f9a1cdd1c" />
<rom name="MARTYMEDIA (Track 38).bin" size="12348000" crc="89a44c94" md5="6bc30b2827dfd5ae8732e89d03506c7e" sha1="2b3c6b22769c970ca8ce100872d958d5d7dee7ef" />
<rom name="MARTYMEDIA (Track 39).bin" size="40219200" crc="fef448fa" md5="ddd6bd454b1943d6a4b8fa3fec46eb00" sha1="d7201bf386007c55d7ebcbf6159542be416fe8a3" />
<rom name="MARTYMEDIA (Track 40).bin" size="12877200" crc="519bff02" md5="6f3d073f12713c20bdd182b14af3d648" sha1="74c379136fcc5e91610da8340c8dc81c435aa35f" />
<rom name="MARTYMEDIA (Track 41).bin" size="33163200" crc="a3930720" md5="43730776761da5f7b752f5bc4f73df5c" sha1="391312ce1fe9ffbb90e3955b58e035d06e0ae0b2" />

    Cuesheet:

FILE "MARTYMEDIA (Track 01).bin" BINARY
  TRACK 01 MODE1/2352
    INDEX 01 00:00:00
FILE "MARTYMEDIA (Track 02).bin" BINARY
  TRACK 02 AUDIO
    INDEX 00 00:00:00
    INDEX 01 00:02:00
FILE "MARTYMEDIA (Track 03).bin" BINARY
  TRACK 03 AUDIO
    INDEX 00 00:00:00
    INDEX 01 00:02:00
FILE "MARTYMEDIA (Track 04).bin" BINARY
  TRACK 04 AUDIO
    INDEX 00 00:00:00
    INDEX 01 00:02:00
FILE "MARTYMEDIA (Track 05).bin" BINARY
  TRACK 05 AUDIO
    INDEX 00 00:00:00
    INDEX 01 00:02:00
FILE "MARTYMEDIA (Track 06).bin" BINARY
  TRACK 06 AUDIO
    INDEX 00 00:00:00
    INDEX 01 00:02:00
FILE "MARTYMEDIA (Track 07).bin" BINARY
  TRACK 07 AUDIO
    INDEX 00 00:00:00
    INDEX 01 00:02:00
FILE "MARTYMEDIA (Track 08).bin" BINARY
  TRACK 08 AUDIO
    INDEX 00 00:00:00
    INDEX 01 00:02:00
FILE "MARTYMEDIA (Track 09).bin" BINARY
  TRACK 09 AUDIO
    INDEX 00 00:00:00
    INDEX 01 00:02:00
FILE "MARTYMEDIA (Track 10).bin" BINARY
  TRACK 10 AUDIO
    INDEX 00 00:00:00
    INDEX 01 00:02:00
FILE "MARTYMEDIA (Track 11).bin" BINARY
  TRACK 11 AUDIO
    INDEX 00 00:00:00
    INDEX 01 00:02:00
FILE "MARTYMEDIA (Track 12).bin" BINARY
  TRACK 12 AUDIO
    INDEX 00 00:00:00
    INDEX 01 00:02:00
FILE "MARTYMEDIA (Track 13).bin" BINARY
  TRACK 13 AUDIO
    INDEX 00 00:00:00
    INDEX 01 00:02:00
FILE "MARTYMEDIA (Track 14).bin" BINARY
  TRACK 14 AUDIO
    INDEX 00 00:00:00
    INDEX 01 00:02:00
FILE "MARTYMEDIA (Track 15).bin" BINARY
  TRACK 15 AUDIO
    INDEX 00 00:00:00
    INDEX 01 00:02:00
FILE "MARTYMEDIA (Track 16).bin" BINARY
  TRACK 16 AUDIO
    INDEX 00 00:00:00
    INDEX 01 00:02:00
FILE "MARTYMEDIA (Track 17).bin" BINARY
  TRACK 17 AUDIO
    INDEX 00 00:00:00
    INDEX 01 00:02:00
FILE "MARTYMEDIA (Track 18).bin" BINARY
  TRACK 18 AUDIO
    INDEX 00 00:00:00
    INDEX 01 00:02:00
FILE "MARTYMEDIA (Track 19).bin" BINARY
  TRACK 19 AUDIO
    INDEX 00 00:00:00
    INDEX 01 00:02:00
FILE "MARTYMEDIA (Track 20).bin" BINARY
  TRACK 20 AUDIO
    INDEX 00 00:00:00
    INDEX 01 00:02:00
FILE "MARTYMEDIA (Track 21).bin" BINARY
  TRACK 21 AUDIO
    INDEX 00 00:00:00
    INDEX 01 00:02:00
FILE "MARTYMEDIA (Track 22).bin" BINARY
  TRACK 22 AUDIO
    INDEX 00 00:00:00
    INDEX 01 00:02:00
FILE "MARTYMEDIA (Track 23).bin" BINARY
  TRACK 23 AUDIO
    INDEX 00 00:00:00
    INDEX 01 00:02:00
FILE "MARTYMEDIA (Track 24).bin" BINARY
  TRACK 24 AUDIO
    INDEX 00 00:00:00
    INDEX 01 00:02:00
FILE "MARTYMEDIA (Track 25).bin" BINARY
  TRACK 25 AUDIO
    INDEX 00 00:00:00
    INDEX 01 00:02:00
FILE "MARTYMEDIA (Track 26).bin" BINARY
  TRACK 26 AUDIO
    INDEX 00 00:00:00
    INDEX 01 00:02:00
FILE "MARTYMEDIA (Track 27).bin" BINARY
  TRACK 27 AUDIO
    INDEX 00 00:00:00
    INDEX 01 00:02:00
FILE "MARTYMEDIA (Track 28).bin" BINARY
  TRACK 28 AUDIO
    INDEX 00 00:00:00
    INDEX 01 00:02:00
FILE "MARTYMEDIA (Track 29).bin" BINARY
  TRACK 29 AUDIO
    INDEX 00 00:00:00
    INDEX 01 00:02:00
FILE "MARTYMEDIA (Track 30).bin" BINARY
  TRACK 30 AUDIO
    INDEX 00 00:00:00
    INDEX 01 00:02:00
FILE "MARTYMEDIA (Track 31).bin" BINARY
  TRACK 31 AUDIO
    INDEX 00 00:00:00
    INDEX 01 00:11:38
FILE "MARTYMEDIA (Track 32).bin" BINARY
  TRACK 32 AUDIO
    INDEX 00 00:00:00
    INDEX 01 00:08:38
FILE "MARTYMEDIA (Track 33).bin" BINARY
  TRACK 33 AUDIO
    INDEX 00 00:00:00
    INDEX 01 00:10:61
FILE "MARTYMEDIA (Track 34).bin" BINARY
  TRACK 34 AUDIO
    INDEX 00 00:00:00
    INDEX 01 00:08:38
FILE "MARTYMEDIA (Track 35).bin" BINARY
  TRACK 35 AUDIO
    INDEX 00 00:00:00
    INDEX 01 00:08:38
FILE "MARTYMEDIA (Track 36).bin" BINARY
  TRACK 36 AUDIO
    INDEX 00 00:00:00
    INDEX 01 00:08:55
FILE "MARTYMEDIA (Track 37).bin" BINARY
  TRACK 37 AUDIO
    INDEX 00 00:00:00
    INDEX 01 00:02:00
FILE "MARTYMEDIA (Track 38).bin" BINARY
  TRACK 38 AUDIO
    INDEX 00 00:00:00
    INDEX 01 00:02:00
FILE "MARTYMEDIA (Track 39).bin" BINARY
  TRACK 39 AUDIO
    INDEX 00 00:00:00
    INDEX 01 00:02:00
FILE "MARTYMEDIA (Track 40).bin" BINARY
  TRACK 40 AUDIO
    INDEX 00 00:00:00
    INDEX 01 00:02:00
FILE "MARTYMEDIA (Track 41).bin" BINARY
  TRACK 41 AUDIO
    INDEX 00 00:00:00
    INDEX 01 00:07:00

    Write Offset: +2400

Dumping Info:
    Frontend Version: 3.1.8-96f826994adbbdb46ba3cb84a10bf6be38ab1a07
    Dumping Program: DiscImageCreator 20240401
    Date: 2024-05-20 02:36:28
    Manufacturer: ASUS
    Model: BW-16D1HT
    Firmware: 3.10
    Reported Disc Type: CD-DA or CD-ROM Disc

5

(0 replies, posted in Verifications)

Verification of http://redump.org/disc/110732

The ringcode differs from the one in the database, which has a comment indicating the existing one may be incorrect. Scan: https://tortoisewrath.com/logs/img20240525_16191622.jpg

Logs: https://tortoisewrath.com/logs/B276C021.7z

Common Disc Info:
    Title: F-BASIC386 Compiler V2.1 L20
    Foreign Title (Non-latin): F-BASIC386コンパイラV2.1L20
    Disc Number / Letter:
    Disc Title:
    System: Fujitsu FM Towns series
    Media Type: CD-ROM
    Category: Applications
    Fully Matching ID: 110732
    Partially Matching IDs: 72695, 80853
    Region: Japan
    Languages: Japanese
    Disc Serial: B276C021

    Ringcode Information:

Data Side Mastering Code (laser branded/etched): B276C021    COMP-A    06J402    .
Data Side Mastering SID Code:
Data Side Toolstamp or Mastering Code (engraved/stamped):
Data Side Mould SID Code:
Data Side Additional Mould:
Label Side Mould SID Code:

    Barcode:
    EXE/Build Date: 1994-09-28
    Error Count: 0
    Comments:

[T:VOL] FB386CPV21

    Contents:

Version and Editions:
    Version:
    Edition/Release: Original

Extras:
    Primary Volume Descriptor (PVD):

0320 : 20 20 20 20 20 20 20 20  20 20 20 20 20 30 30 30                000
0330 : 30 30 30 30 30 30 30 30  30 30 30 30 30 00 30 30   0000000000000.00
0340 : 30 30 30 30 30 30 30 30  30 30 30 30 30 30 00 30   00000000000000.0
0350 : 30 30 30 30 30 30 30 30  30 30 30 30 30 30 30 00   000000000000000.
0360 : 30 30 30 30 30 30 30 30  30 30 30 30 30 30 30 30   0000000000000000
0370 : 00 01 00 00 00 00 00 00  00 00 00 00 00 00 00 00   ................

Tracks and Write Offsets:
    DAT:

<rom name="F-BASIC386 Compiler V2.1L20 (Track 01).bin" size="263894400" crc="ecc88cb8" md5="8593cf831bf108da72f654646f7e1613" sha1="8b7bca2b4244985069c405a6322f2c72581566a4" />
<rom name="F-BASIC386 Compiler V2.1L20 (Track 02).bin" size="41729184" crc="dfdf5c43" md5="c21c834af42d37e2af7779c53f954e4c" sha1="07c632f89506d3a543ea3fcbfa22a49bd43961ee" />
<rom name="F-BASIC386 Compiler V2.1L20 (Track 03).bin" size="15059856" crc="cb66c765" md5="20b1c11c8e98465e691e0e43e77f9bd3" sha1="628f7b773a50a0b9b9011dc8602d8e12436da3fa" />
<rom name="F-BASIC386 Compiler V2.1L20 (Track 04).bin" size="24166800" crc="bd9213bc" md5="c4aadd42a016097ff6ece28ba0ccc483" sha1="006c5fcd90adff06b677b98017c4a69ef464b6de" />
<rom name="F-BASIC386 Compiler V2.1L20 (Track 05).bin" size="37330944" crc="5debd853" md5="94cce3cb254648c4d251166610c9b38d" sha1="23d9e5395780a406cfe3e20210d553d1cf0f7064" />
<rom name="F-BASIC386 Compiler V2.1L20 (Track 06).bin" size="9085776" crc="5e39e97a" md5="7d88877cdd78be4eac8b3ad5ba059f9a" sha1="72c227ba97d353aefba2431ac8a93c3b4915bebd" />
<rom name="F-BASIC386 Compiler V2.1L20 (Track 07).bin" size="5491920" crc="5500d74a" md5="e6d1ecfe0a1a53e67fd19f61a10b1b07" sha1="7274dbf63d2db90579f79f1fadb8a6a7977ae76d" />
<rom name="F-BASIC386 Compiler V2.1L20 (Track 08).bin" size="5120304" crc="34a73d87" md5="4b8d70fbde0cddef627f92290ee4933e" sha1="2a1cc41bf6b7f528efd77e38b539ea3f5e305780" />
<rom name="F-BASIC386 Compiler V2.1L20 (Track 09).bin" size="9478560" crc="547491a0" md5="1e07d5b2f26341e0666a1c88004b1f7b" sha1="acaa5f1933d0cd48f9270520092110d13ae3a80b" />
<rom name="F-BASIC386 Compiler V2.1L20 (Track 10).bin" size="4793376" crc="e20371ea" md5="d515a3565dd3e41e26bdca51154b40f0" sha1="55af96c06a9dad5c0d77caa8eb8705d3f90cb945" />
<rom name="F-BASIC386 Compiler V2.1L20 (Track 11).bin" size="16793280" crc="173b15bf" md5="7e3e071bce2f05d9a95639d8f90c7b9d" sha1="743c367f69136fb6e84c459dbce4d66cae7ca2ea" />
<rom name="F-BASIC386 Compiler V2.1L20 (Track 12).bin" size="34720224" crc="b51a094d" md5="775427bbee9f2b0301db07d63053b51b" sha1="bd08476b38823cefc6aa5edcaa07c42ebc889fa5" />
<rom name="F-BASIC386 Compiler V2.1L20 (Track 13).bin" size="20963376" crc="9e09fe32" md5="b521d45048e4b21584ae184a1b10c82a" sha1="2f63b84a1728104ebe2e2dae3b101c96b05a0279" />

    Cuesheet:

FILE "F-BASIC386 Compiler V2.1L20 (Track 01).bin" BINARY
  TRACK 01 MODE1/2352
    INDEX 01 00:00:00
FILE "F-BASIC386 Compiler V2.1L20 (Track 02).bin" BINARY
  TRACK 02 AUDIO
    INDEX 00 00:00:00
    INDEX 01 00:02:00
FILE "F-BASIC386 Compiler V2.1L20 (Track 03).bin" BINARY
  TRACK 03 AUDIO
    INDEX 00 00:00:00
    INDEX 01 00:02:50
FILE "F-BASIC386 Compiler V2.1L20 (Track 04).bin" BINARY
  TRACK 04 AUDIO
    INDEX 00 00:00:00
    INDEX 01 00:02:50
FILE "F-BASIC386 Compiler V2.1L20 (Track 05).bin" BINARY
  TRACK 05 AUDIO
    INDEX 00 00:00:00
    INDEX 01 00:02:50
FILE "F-BASIC386 Compiler V2.1L20 (Track 06).bin" BINARY
  TRACK 06 AUDIO
    INDEX 00 00:00:00
    INDEX 01 00:02:50
FILE "F-BASIC386 Compiler V2.1L20 (Track 07).bin" BINARY
  TRACK 07 AUDIO
    INDEX 00 00:00:00
    INDEX 01 00:02:50
FILE "F-BASIC386 Compiler V2.1L20 (Track 08).bin" BINARY
  TRACK 08 AUDIO
    INDEX 00 00:00:00
    INDEX 01 00:02:50
FILE "F-BASIC386 Compiler V2.1L20 (Track 09).bin" BINARY
  TRACK 09 AUDIO
    INDEX 00 00:00:00
    INDEX 01 00:02:50
FILE "F-BASIC386 Compiler V2.1L20 (Track 10).bin" BINARY
  TRACK 10 AUDIO
    INDEX 00 00:00:00
    INDEX 01 00:02:50
FILE "F-BASIC386 Compiler V2.1L20 (Track 11).bin" BINARY
  TRACK 11 AUDIO
    INDEX 00 00:00:00
    INDEX 01 00:02:50
FILE "F-BASIC386 Compiler V2.1L20 (Track 12).bin" BINARY
  TRACK 12 AUDIO
    INDEX 00 00:00:00
    INDEX 01 00:02:50
FILE "F-BASIC386 Compiler V2.1L20 (Track 13).bin" BINARY
  TRACK 13 AUDIO
    INDEX 00 00:00:00
    INDEX 01 00:02:50

    Write Offset: +1055

Dumping Info:
    Frontend Version: 3.1.8-96f826994adbbdb46ba3cb84a10bf6be38ab1a07
    Dumping Program: DiscImageCreator 20240401
    Date: 2024-05-22 04:43:11
    Manufacturer: ASUS
    Model: BW-16D1HT
    Firmware: 3.10
    Reported Disc Type: CD-DA or CD-ROM Disc

Verification of http://redump.org/disc/52797/

Logs: https://tortoisewrath.com/logs/ukiuki2.7z

Common Disc Info:
    Title: Ukiuki Tsuri Tengoku 2: Hato no Gomokuzuri
    Foreign Title (Non-latin): ウキウキ釣り天国2波止の五目釣り
    Disc Number / Letter:
    Disc Title:
    System: Apple Macintosh
    Media Type: CD-ROM
    Category: Games
    Fully Matching ID: 52797
    Region: Japan
    Languages: Japanese
    Disc Serial: TERM-5810

    Ringcode Information:

Data Side Mastering Code (laser branded/etched): TERM-5810 102 +++
Data Side Mastering SID Code: IFPI L251
Data Side Toolstamp or Mastering Code (engraved/stamped):
Data Side Mould SID Code: IFPI 42A3
Data Side Additional Mould:
Label Side Mould SID Code:

    Barcode: 4 988004 900785
    Error Count: 0
    Comments:

[T:VOL]  E L E L ނ V  
[T:ISBN] 4-924483-67-5 (9784924483675)

Version and Editions:
    Version:
    Edition/Release: Original

Extras:
    Primary Volume Descriptor (PVD):

0320 : 00 00 00 00 00 00 00 00  00 00 00 00 00 31 39 39   .............199
0330 : 33 30 33 30 33 31 30 30  37 30 37 30 30 30 31 39   3030310070700019
0340 : 39 33 30 33 30 33 31 30  30 37 30 37 30 30 30 31   9303031007070001
0350 : 39 39 33 30 33 30 33 31  30 30 37 30 37 30 30 30   9930303100707000
0360 : 31 39 39 33 30 33 30 33  31 30 30 37 30 37 30 30   1993030310070700
0370 : 30 01 00 00 00 00 00 00  00 00 00 00 00 00 00 00   0...............

Tracks and Write Offsets:
    DAT:

<rom name="ukiuki2.bin" size="617341200" crc="55802110" md5="2fd7667121035dd532a5190de259609e" sha1="5aaf5602d3103596c17deee6bc58fac7b205be55" />

    Cuesheet:

FILE "ukiuki2.bin" BINARY
  TRACK 01 MODE1/2352
    INDEX 01 00:00:00

    Write Offset: -22

Dumping Info:
    Frontend Version: 3.1.8-96f826994adbbdb46ba3cb84a10bf6be38ab1a07
    Dumping Program: DiscImageCreator 20240401
    Date: 2024-05-20 02:47:00
    Manufacturer: PLEXTOR
    Model: DVDR    PX-760A
    Firmware: 1.07
    Reported Disc Type: CD-DA or CD-ROM Disc