Disc 1:

Matches: http://redump.org/disc/79852/
Logs: HERE

Common Disc Info:
    Title: Gothic II: Gold Edition
    Disc Number / Letter: 1
    Disc Title: Disc One
    System: IBM PC compatible
    Media Type: CD-ROM
    Category: Games
    Fully Matching ID: 79852
    Region: USA
    Languages: English

    Ringcode Information:

Data Side Mastering Code (laser branded/etched): C40267    1155155    ZOMAX-MN
Data Side Mastering SID Code: IFPI LE31
Data Side Mould SID Code: IFPI 3B59

    Barcode: 6 18870 11131 5 (Cardboard Box, English)
    Error Count: 0
    Comments:

[T:VOL] /run/media/romatthe/Gothic II CD1/

Version and Editions:
    Version: (REQUIRED, IF EXISTS)
    Edition/Release: Original, Cardboard Box

Extras:
    Primary Volume Descriptor (PVD):

0320 : 20 20 20 20 20 20 20 20  20 20 20 20 20 32 30 30                200
0330 : 35 31 30 30 35 31 33 31  38 30 30 30 30 EC 32 30   5100513180000.20
0340 : 30 35 31 30 30 35 31 33  31 38 30 30 30 30 EC 30   05100513180000.0
0350 : 30 30 30 30 30 30 30 30  30 30 30 30 30 30 30 00   000000000000000.
0360 : 30 30 30 30 30 30 30 30  30 30 30 30 30 30 30 30   0000000000000000
0370 : 00 01 00 00 00 00 00 00  00 00 00 00 00 00 00 00   ................

Copy Protection:
    Copy Protection: JoWood X-Prot 1.6.4.23, SecuROM 7.06.0000
    SubIntention Data (SecuROM/LibCrypt):

MSF: 00:01:74 Q-Data: 410100 00:40:01 00 00:03:74 2EF1
MSF: 01:08:50 Q-Data: 410101 21:06:50 00 05:08:50 0A8F
MSF: 01:46:25 Q-Data: 410101 03:44:25 00 41:46:25 D5FF
MSF: 02:00:21 Q-Data: 410101 01:5C:21 00 02:20:21 F320
MSF: 02:04:62 Q-Data: 410101 00:02:62 00 42:04:62 96ED
MSF: 02:25:31 Q-Data: 410101 02:23:21 00 02:25:39 42E4
MSF: 02:41:34 Q-Data: 410101 02:3D:34 00 02:61:34 6A7E
MSF: 03:05:53 Q-Data: 410101 03:23:53 00 03:01:53 EFE0
MSF: 03:11:21 Q-Data: 410101 23:09:21 00 07:11:21 A185
MSF: 03:13:62 Q-Data: 410101 23:11:62 00 07:13:62 573C
MSF: 03:24:43 Q-Data: 410101 03:22:47 00 03:24:63 BCF4

Tracks and Write Offsets:
    DAT:

<rom name="G2GOLD-DISC1.bin" size="804917904" crc="ab5122d5" md5="ce8cf17e471228dd6c1e4f451a9a74ed" sha1="a139ff0398c609da9b8c3bffa62aeeb01558a7e5" />

    Cuesheet:

FILE "G2GOLD-DISC1.bin" BINARY
  TRACK 01 MODE1/2352
    INDEX 01 00:00:00

    Write Offset: -12

Dumping Info:
    Dumping Program: Redumper v2024.01.10 build_313
    Date: 2024-02-13 19:40:34
    Manufacturer: ASUS
    Model: BW-16D1HT
    Firmware: 3.10 (WM01601KL1N7F81700)
    Reported Disc Type: CD-ROM

Disc 2:

Matches: http://redump.org/disc/79855/
Logs: HERE

Common Disc Info:
    Title: Gothic II: Gold Edition
    Disc Number / Letter: 2
    Disc Title: Disc Two
    System: IBM PC compatible
    Media Type: CD-ROM
    Category: Games
    Fully Matching ID: 79855
    Region: USA
    Languages: English

    Ringcode Information:

Data Side Mastering Code (laser branded/etched): 1 C40213    1155158    ZOMAX-MN
Data Side Mastering SID Code: IFPI LE31
Data Side Mould SID Code: IFPI 3B85

    Barcode: 6 18870 11131 5 (Cardboard Box, English)
    Error Count: 0
    Comments:

[T:VOL] /run/media/romatthe/GOTHIC2_CD2/

Version and Editions:
    Version: (REQUIRED, IF EXISTS)
    Edition/Release: Original, Cardboard Box

Extras:
    Primary Volume Descriptor (PVD):

0320 : 20 20 20 20 20 20 20 20  20 20 20 20 20 32 30 30                200
0330 : 35 30 36 31 37 31 33 30  31 30 30 30 30 08 32 30   5061713010000.20
0340 : 30 35 30 36 31 37 31 33  30 31 30 30 30 30 08 30   05061713010000.0
0350 : 30 30 30 30 30 30 30 30  30 30 30 30 30 30 30 00   000000000000000.
0360 : 30 30 30 30 30 30 30 30  30 30 30 30 30 30 30 30   0000000000000000
0370 : 00 01 00 00 00 00 00 00  00 00 00 00 00 00 00 00   ................

Tracks and Write Offsets:
    DAT:

<rom name="G2GOLD-DISC2.bin" size="744081072" crc="f2f850aa" md5="d9cc23990f7abc28c80d2147936d7000" sha1="0b64e41e9f8b91d6ac45408a4cf03b007d622fa4" />

    Cuesheet:

FILE "G2GOLD-DISC2.bin" BINARY
  TRACK 01 MODE1/2352
    INDEX 01 00:00:00

    Write Offset: -12

Dumping Info:
    Dumping Program: Redumper v2024.01.10 build_313
    Date: 2024-02-13 20:17:47
    Manufacturer: ASUS
    Model: BW-16D1HT
    Firmware: 3.10 (WM01601KL1N7F81700)
    Reported Disc Type: CD-ROM

Disc 3:

Matches: http://redump.org/disc/79854/
Logs: HERE

Common Disc Info:
    Title: Gothic II: Gold Edition
    Disc Number / Letter: 3
    Disc Title: Disc Three
    System: IBM PC compatible
    Media Type: CD-ROM
    Category: Games
    Fully Matching ID: 79854
    Region: USA
    Languages: English

    Ringcode Information:

Data Side Mastering Code (laser branded/etched): 1 C40211    1155162        ZOMAX-MN
Data Side Mastering SID Code: IFPI LE31
Data Side Mould SID Code: IFPI 3B57

    Barcode: 6 18870 11131 5 (Cardboard Box, English)
    Error Count: 0
    Comments:

[T:VOL] /run/media/romatthe/GOTHIC2_CD3/

Version and Editions:
    Version: (REQUIRED, IF EXISTS)
    Edition/Release: Original, Cardboard Box

Extras:
    Primary Volume Descriptor (PVD):

0320 : 20 20 20 20 20 20 20 20  20 20 20 20 20 32 30 30                200
0330 : 35 30 36 31 37 31 33 30  31 30 30 30 30 08 32 30   5061713010000.20
0340 : 30 35 30 36 31 37 31 33  30 31 30 30 30 30 08 30   05061713010000.0
0350 : 30 30 30 30 30 30 30 30  30 30 30 30 30 30 30 00   000000000000000.
0360 : 30 30 30 30 30 30 30 30  30 30 30 30 30 30 30 30   0000000000000000
0370 : 00 01 00 00 00 00 00 00  00 00 00 00 00 00 00 00   ................

Tracks and Write Offsets:
    DAT:

<rom name="G2GOLD-DISC3.bin" size="483126672" crc="d5f2d464" md5="f69d5cb74aa1b3e40aa061e59dfccac4" sha1="7b301919d2df81275e73820bcd03c640512a876f" />

    Cuesheet:

FILE "G2GOLD-DISC3.bin" BINARY
  TRACK 01 MODE1/2352
    INDEX 01 00:00:00

    Write Offset: -12

Dumping Info:
    Dumping Program: Redumper v2024.01.10 build_313
    Date: 2024-02-13 20:37:45
    Manufacturer: ASUS
    Model: BW-16D1HT
    Firmware: 3.10 (WM01601KL1N7F81700)
    Reported Disc Type: CD-ROM

Disc 4:

Matches: http://redump.org/disc/79853/
Logs: HERE

Common Disc Info:
    Title: Gothic II: Gold Edition
    Disc Number / Letter: 4
    Disc Title: Disc Four
    System: IBM PC compatible
    Media Type: CD-ROM
    Category: Games
    Fully Matching ID: 79853
    Region: USA
    Languages: English

    Ringcode Information:

Data Side Mastering Code (laser branded/etched): C42209        1155166        ZOMAX-MN
Data Side Mastering SID Code: IFPI LE31
Data Side Mould SID Code: IFPI 3B85

    Barcode: 6 18870 11131 5 (Cardboard Box, English)
    Error Count: 0
    Comments:

[T:VOL] /run/media/romatthe/GOTHIC II CD1/

Version and Editions:
    Version: (REQUIRED, IF EXISTS)
    Edition/Release: Original, Cardboard Box

Extras:
    Primary Volume Descriptor (PVD):

0320 : 20 20 20 20 20 20 20 20  20 20 20 20 20 32 30 30                200
0330 : 35 30 38 31 31 31 34 34  38 30 30 30 30 08 32 30   5081114480000.20
0340 : 30 35 30 38 31 31 31 34  34 38 30 30 30 30 08 30   05081114480000.0
0350 : 30 30 30 30 30 30 30 30  30 30 30 30 30 30 30 00   000000000000000.
0360 : 30 30 30 30 30 30 30 30  30 30 30 30 30 30 30 30   0000000000000000
0370 : 00 01 00 00 00 00 00 00  00 00 00 00 00 00 00 00   ................

Copy Protection:
    Copy Protection: JoWood X-Prot 1.6.3.60, SecuROM 7.02.0001
    SubIntention Data (SecuROM/LibCrypt):

MSF: 00:01:74 Q-Data: 410100 00:40:01 00 00:03:74 2EF1
MSF: 01:08:50 Q-Data: 410101 21:06:50 00 05:08:50 0A8F
MSF: 01:18:04 Q-Data: 410101 01:14:04 00 01:58:04 953D
MSF: 01:30:12 Q-Data: 410101 01:68:12 00 01:32:12 0E75
MSF: 01:32:33 Q-Data: 410101 01:10:33 00 01:36:33 E977
MSF: 01:49:29 Q-Data: 410101 01:43:29 00 01:69:29 4186
MSF: 02:01:03 Q-Data: 410101 01:59:13 00 02:01:0B CDA6
MSF: 02:14:18 Q-Data: 410101 02:12:10 00 02:14:08 0BEF
MSF: 02:33:08 Q-Data: 410101 02:31:0A 00 02:33:48 791D
MSF: 02:42:71 Q-Data: 410101 02:40:70 00 02:42:F1 180D
MSF: 03:09:10 Q-Data: 410101 0B:07:10 00 13:09:10 2B31

Tracks and Write Offsets:
    DAT:

<rom name="G2GOLD-DISC4.bin" size="842241792" crc="48b3748b" md5="ca52f9b979162b41f90653d5cb595f7d" sha1="89443e48a2345c668a2b6d353c61ca163d9fe36a" />

    Cuesheet:

FILE "G2GOLD-DISC4.bin" BINARY
  TRACK 01 MODE1/2352
    INDEX 01 00:00:00

    Write Offset: -12

Dumping Info:
    Dumping Program: Redumper v2024.01.10 build_313
    Date: 2024-02-13 21:02:23
    Manufacturer: ASUS
    Model: BW-16D1HT
    Firmware: 3.10 (WM01601KL1N7F81700)
    Reported Disc Type: CD-ROM

Disc 1:

Matches: http://redump.org/disc/44286/
Logs: HERE

Common Disc Info:
    Title: Galactic Civilizations II: Gold Edition
    Disc Number / Letter: 1
    Disc Title: Disc 1 of 2
    System: IBM PC compatible
    Media Type: CD-ROM
    Category: Games
    Fully Matching ID: 44286
    Region: USA
    Languages: English

    Ringcode Information:

Data Side Mastering Code (laser branded/etched): SD01051-1.1    SONOPRESS ARVATO    + + G138001
Data Side Mastering SID Code: IFPI L028
Data Side Toolstamp or Mastering Code (engraved/stamped): A08
Data Side Mould SID Code: IFPI 1086 (Very difficult to read even with a good mangnifier)

    Barcode: 7 08192 01051 6 (Cardboard Box, English)
    Error Count: 0
    Comments:

[T:VOL] /run/media/romatthe/GalCiv2 Gold D1/

Version and Editions:
    Version: 1.5
    Edition/Release: Original, Cardboard Box (English)

Extras:
    Primary Volume Descriptor (PVD):

0320 : 20 20 20 20 20 20 20 20  20 20 20 20 20 32 30 30                200
0330 : 37 30 31 31 36 31 39 35  34 31 30 37 35 EC 32 30   7011619541075.20
0340 : 30 37 30 31 31 36 31 39  35 34 31 30 37 35 EC 32   07011619541075.2
0350 : 31 30 37 30 31 31 36 31  39 35 34 31 30 37 35 EC   107011619541075.
0360 : 32 30 30 37 30 31 31 36  31 39 35 34 31 30 37 35   2007011619541075
0370 : EC 01 00 00 00 00 00 00  00 00 00 00 00 00 00 00   ................

Tracks and Write Offsets:
    DAT:

<rom name="GALCIV2GOLD-DISC1.bin" size="766222800" crc="638a39bd" md5="233eb00582620c90b876083ddc130674" sha1="e93b3c1ab10941f4e1ee58bcfe1df5cb2b4c2811" />

    Cuesheet:

FILE "GALCIV2GOLD-DISC1.bin" BINARY
  TRACK 01 MODE1/2352
    INDEX 01 00:00:00

    Write Offset: -12

Dumping Info:
    Dumping Program: Redumper v2024.01.10 build_313
    Date: 2024-02-13 14:20:54
    Manufacturer: ASUS
    Model: BW-16D1HT
    Firmware: 3.10 (WM01601KL1N7F81700)
    Reported Disc Type: CD-ROM

Disc 2:

Matches: http://redump.org/disc/44287/
Logs: HERE

Common Disc Info:
    Title: Galactic Civilizations II: Gold Edition
    Disc Number / Letter: 2
    Disc Title: Disc 2 of 2
    System: IBM PC compatible
    Media Type: CD-ROM
    Category: Games
    Fully Matching ID: 44287
    Region: USA
    Languages: English

    Ringcode Information:

Data Side Mastering Code (laser branded/etched): SD01051-1.2    SONOPRESS ARVATO     + + G137901
Data Side Mastering SID Code: IFPI LB41
Data Side Toolstamp or Mastering Code (engraved/stamped): A05
Data Side Mould SID Code: IFPI 1086 (Very difficult to read even with a good mangnifier)

    Barcode: 7 08192 01051 6 (Cardboard Box, English)
    Error Count: 0
    Comments:

[T:VOL] /run/media/romatthe/GalCiv2 Gold D2/

Version and Editions:
    Version: 1.5
    Edition/Release: Original, Cardboard Box (English)

Extras:
    Primary Volume Descriptor (PVD):

0320 : 20 20 20 20 20 20 20 20  20 20 20 20 20 32 30 30                200
0330 : 37 30 31 31 36 31 39 34  32 33 30 38 31 EC 32 30   7011619423081.20
0340 : 30 37 30 31 31 36 31 39  34 32 33 30 38 31 EC 32   07011619423081.2
0350 : 31 30 37 30 31 31 36 31  39 34 32 33 30 38 31 EC   107011619423081.
0360 : 32 30 30 37 30 31 31 36  31 39 34 32 33 30 38 31   2007011619423081
0370 : EC 01 00 00 00 00 00 00  00 00 00 00 00 00 00 00   ................

Tracks and Write Offsets:
    DAT:

<rom name="GALCIV2GOLD-DISC2.bin" size="673017744" crc="1c5e5b3e" md5="a2df055e9af1f29b85a1771d1cb175ef" sha1="1ba3ba79b5529455d434e2c3b63862f1f277b502" />

    Cuesheet:

FILE "GALCIV2GOLD-DISC2.bin" BINARY
  TRACK 01 MODE1/2352
    INDEX 01 00:00:00

    Write Offset: -12

Dumping Info:
    Dumping Program: Redumper v2024.01.10 build_313
    Date: 2024-02-13 14:33:01
    Manufacturer: ASUS
    Model: BW-16D1HT
    Firmware: 3.10 (WM01601KL1N7F81700)
    Reported Disc Type: CD-ROM

Disc 1:

Matches: http://redump.org/disc/32027/
Logs: HERE

Common Disc Info:
    Title: Giants: Citizen Kabuto
    Disc Number / Letter: 1
    Disc Title: CD 1/2
    System: IBM PC compatible
    Media Type: CD-ROM
    Category: Games
    Fully Matching ID: 32027
    Region: Europe
    Languages: English, French, German, Italian, Spanish
    Disc Serial: CD1-C95-749-M26

    Ringcode Information:

Data Side Mastering Code (laser branded/etched): SONOPRESS ROM A-46570/C95749M261 B
Data Side Mastering SID Code: IFPI LB 47
Data Side Mould SID Code: IFPI 0741

    Barcode: 5 026102 002600 (English, Big Box)
    Error Count: 0
    Comments:
        Jewel Case Back Serial: INL-C95-749-GEN
        Jewel Case Front Serial: BKL-C95-749-GEN
        Big Box Serial: FG-W95-749-E

[T:VOL] /run/media/romatthe/GIANTS1/

Version and Editions:
    Version: 1.0
    Edition/Release: Original, Big Box

Extras:
    Primary Volume Descriptor (PVD):

0320 : 20 20 20 20 20 20 20 20  20 20 20 20 20 32 30 30                200
0330 : 30 31 32 30 31 31 36 30  33 31 35 30 30 00 32 30   0120116031500.20
0340 : 30 30 31 32 30 31 31 36  30 33 31 35 30 30 00 30   00120116031500.0
0350 : 30 30 30 30 30 30 30 30  30 30 30 30 30 30 30 00   000000000000000.
0360 : 30 30 30 30 30 30 30 30  30 30 30 30 30 30 30 30   0000000000000000
0370 : 00 01 00 00 00 00 00 00  00 00 00 00 00 00 00 00   ................

Tracks and Write Offsets:
    DAT:

<rom name="GIANTS-DISC1.bin" size="779643312" crc="bea52b9f" md5="91b1297985152da3819f4c137d48faf0" sha1="7ec58534be71feb321104194cf21715b8feaded1" />

    Cuesheet:

FILE "GIANTS-DISC1.bin" BINARY
  TRACK 01 MODE1/2352
    INDEX 01 00:00:00

    Write Offset: -12

Dumping Info:
    Dumping Program: Redumper v2024.01.10 build_313
    Date: 2024-02-04 13:32:04
    Manufacturer: ASUS
    Model: BW-16D1HT
    Firmware: 3.10 (WM01601KL1N7F81700)
    Reported Disc Type: CD-ROM

Disc 2:

Matches: http://redump.org/disc/32026/
Logs: HERE

Common Disc Info:
    Title: Giants: Citizen Kabuto
    Disc Number / Letter: 2
    Disc Title: CD 2/2
    System: IBM PC compatible
    Media Type: CD-ROM
    Category: Games
    Fully Matching ID: 32026
    Region: Europe
    Languages: English, French, German, Italian, Spanish
    Disc Serial: CD2-C95-749-M26

    Ringcode Information:

Data Side Mastering Code (laser branded/etched): SONOPRESS ROM A-46572/C95749M262 B
Data Side Mastering SID Code: IFPI L0 30
Data Side Mould SID Code: IFPI 0725

    Barcode: 5 026102 002600 (English, Big Box)
    Error Count: 0
    Comments:
        Jewel Case Back Serial: INL-C95-749-GEN
        Jewel Case Front Serial: BKL-C95-749-GEN
        Big Box Serial: FG-W95-749-E

[T:VOL] /run/media/romatthe/GIANTS2/

Version and Editions:
    Version: 1.0
    Edition/Release: Original, Big Box

Extras:
    Primary Volume Descriptor (PVD):

0320 : 20 20 20 20 20 20 20 20  20 20 20 20 20 32 30 30                200
0330 : 30 31 32 30 31 31 36 32  35 31 34 00 00 04 32 30   01201162514...20
0340 : 30 30 31 32 30 31 31 36  32 35 31 34 00 00 04 33   001201162514...3
0350 : 30 30 30 31 32 30 31 31  36 32 35 31 33 00 00 04   0001201162513...
0360 : 32 30 30 30 31 32 30 31  31 36 32 35 31 33 00 00   20001201162513..
0370 : 04 01 00 54 61 6C 65 6E  00 00 00 00 00 00 00 00   ...Talen........

Tracks and Write Offsets:
    DAT:

<rom name="GIANTS-DISC2.bin" size="783098400" crc="a7d603de" md5="7db0fd48c1c5ae867d6d5e3efd56b3ed" sha1="08a1fd9b2ae4f66f3ea40052c7fa8d46d625593f" />

    Cuesheet:

FILE "GIANTS-DISC2.bin" BINARY
  TRACK 01 MODE1/2352
    INDEX 01 00:00:00

    Write Offset: -12

Dumping Info:
    Dumping Program: Redumper v2024.01.10 build_313
    Date: 2024-02-04 13:44:28
    Manufacturer: ASUS
    Model: BW-16D1HT
    Firmware: 3.10 (WM01601KL1N7F81700)
    Reported Disc Type: CD-ROM

Matches: http://redump.org/disc/21802/
Logs: HERE

Common Disc Info:
    Title: The Elder Scrolls III: Morrowind
    System: IBM PC compatible
    Media Type: CD-ROM
    Category: Games
    Fully Matching ID: 21802
    Region: USA
    Languages: English

    Ringcode Information:

Data Side Mastering Code (laser branded/etched): (H4804) MORROWIND CD 1 02    Technicolor
Data Side Mastering SID Code: IFPI L127
Data Side Mould SID Code: IFPI 2406

    Barcode: 0 93155 11630 6 (Jewel Case, English)
    Error Count: 574
    Comments:

[T:VOL] /run/media/romatthe/MORROWIND/

Version and Editions:
    Version: 1.00.417
    Edition/Release: Original, Cardboard Box

Extras:
    Primary Volume Descriptor (PVD):

0320 : 20 20 20 20 20 20 20 20  20 20 20 20 20 32 30 30                200
0330 : 32 30 34 32 36 31 36 30  32 30 34 30 30 00 32 30   2042616020400.20
0340 : 30 32 30 34 32 36 31 36  30 32 30 34 30 30 00 30   02042616020400.0
0350 : 30 30 30 30 30 30 30 30  30 30 30 30 30 30 30 00   000000000000000.
0360 : 30 30 30 30 30 30 30 30  30 30 30 30 30 30 30 30   0000000000000000
0370 : 00 01 00 00 00 00 00 00  00 00 00 00 00 00 00 00   ................

Tracks and Write Offsets:
    DAT:

<rom name="TES3-DISC1 (Track 0).bin" size="174048" crc="422f0149" md5="9ef7fb08873e2ac96a7c7ea118802bf9" sha1="f6fa1cf0832ce6e7681506dabaf659fd8b86c3a3" />
<rom name="TES3-DISC1.bin" size="788886672" crc="52b483c8" md5="2b602cc8367af59dc045865ae4cffaf4" sha1="4915cac13adb24901c6b4a6b8b96d9f4eaaccc33" />

    Cuesheet:

FILE "TES3-DISC1.bin" BINARY
  TRACK 01 MODE1/2352
    INDEX 01 00:00:00

    Write Offset: -12

Dumping Info:
    Dumping Program: Redumper v2024.01.10 build_313
    Date: 2024-02-12 12:22:06
    Manufacturer: ASUS
    Model: BW-16D1HT
    Firmware: 3.10 (WM01601KL1N7F81700)
    Reported Disc Type: CD-ROM

Matches: http://redump.org/disc/21803/
Logs: HERE

Common Disc Info:
    Title: The Elder Scrolls Construction Set
    System: IBM PC compatible
    Media Type: CD-ROM
    Category: Applications
    Fully Matching ID: 21803
    Region: USA
    Languages: English

    Ringcode Information:

Data Side Mastering Code (laser branded/etched): MW-CD2        + +     BB187-01
Data Side Mastering SID Code: IFPI L028
Data Side Mould SID Code: IFPI 1081

    Barcode: 0 93155 11630 6 (Jewel Case, English)
    Error Count: 0
    Comments:

[T:VOL] /run/media/romatthe/TES CS/

Version and Editions:
    Version: 1.20
    Edition/Release: Original, Cardboard Box

Extras:
    Primary Volume Descriptor (PVD):

0320 : 20 20 20 20 20 20 20 20  20 20 20 20 20 32 30 30                200
0330 : 32 30 34 31 38 31 38 35  33 30 30 30 30 F0 32 30   2041818530000.20
0340 : 30 32 30 34 31 38 31 38  35 33 30 30 30 30 F0 30   02041818530000.0
0350 : 30 30 30 30 30 30 30 30  30 30 30 30 30 30 30 00   000000000000000.
0360 : 30 30 30 30 30 30 30 30  30 30 30 30 30 30 30 30   0000000000000000
0370 : 00 01 00 00 00 00 00 00  00 00 00 00 00 00 00 00   ................

Tracks and Write Offsets:
    DAT:

<rom name="TES3-DISC2.bin" size="717719856" crc="d1e71da6" md5="44dadfb50dd791c869f5ecbcc708a7fc" sha1="ed84046280ca25a8734c31c5e46fec0b259881da" />

    Cuesheet:

FILE "TES3-DISC2.bin" BINARY
  TRACK 01 MODE1/2352
    INDEX 01 00:00:00

    Write Offset: -12

Dumping Info:
    Dumping Program: Redumper v2024.01.10 build_313
    Date: 2024-02-12 12:33:14
    Manufacturer: ASUS
    Model: BW-16D1HT
    Firmware: 3.10 (WM01601KL1N7F81700)
    Reported Disc Type: CD-ROM

Matches: http://redump.org/disc/9745/
Logs: HERE

Common Disc Info:
    Title: Dungeon Keeper
    System: IBM PC compatible
    Media Type: CD-ROM
    Category: Games
    Fully Matching ID: 9745
    Partially Matching IDs: 65965, 71092
    Region: Europe
    Languages: Dutch, English, French, Polish, Spanish, Swedish
    Disc Serial: BFX05100349D

    Ringcode Information:

Data Side Mastering Code (laser branded/etched): NIMBUS    CDD17461 BFX05100346D
Data Side Mastering SID Code: IFPI L123
Data Side Toolstamp or Mastering Code (engraved/stamped): 1:2
Data Side Mould SID Code: IFPI 2304

    Barcode: 5 030930 349448 > 
    Error Count: 0
    Comments:

[T:VOL] /run/media/romatthe/KEEPER/

Version and Editions:
    Version: (REQUIRED, IF EXISTS)
    Edition/Release: Original, Big Box (English)

Extras:
    Primary Volume Descriptor (PVD):

0320 : 20 20 20 20 20 20 20 20  20 20 20 20 20 31 39 39                199
0330 : 37 30 36 31 34 31 36 33  30 33 36 30 30 20 31 39   7061416303600 19
0340 : 39 37 30 36 31 34 31 36  33 30 33 36 30 30 20 00   97061416303600 .
0350 : 00 00 00 00 00 00 00 00  00 00 00 00 00 00 00 00   ................
0360 : 00 00 00 00 00 00 00 00  00 00 00 00 00 00 00 00   ................
0370 : 00 01 00 00 00 00 00 00  00 00 00 00 00 00 00 00   ................

Tracks and Write Offsets:
    DAT:

<rom name="KEEPER1 (Track 1).bin" size="357424032" crc="736acc46" md5="487e47b905bbb87bb62d7b81fbc9284c" sha1="b8d2405d94139865a9838c93535cd254727334e9" />
<rom name="KEEPER1 (Track 2).bin" size="46200336" crc="bb3d4528" md5="e5dde9f21476e635617f9a11212f64bf" sha1="d09f2c1159991de2014f610a729d47117d2f1ced" />
<rom name="KEEPER1 (Track 3).bin" size="57685152" crc="e3d74a9d" md5="5f1dfe51abcd2d64bb66f52b08104d9c" sha1="16166aa9d4268a26a067e63c6661a57f7a836635" />
<rom name="KEEPER1 (Track 4).bin" size="54251232" crc="3cb4dc35" md5="8db3bf402faa209d687346f7b69c0c50" sha1="11ded595de9c3b23fcf1332c20f2026a79ab51fb" />
<rom name="KEEPER1 (Track 5).bin" size="53077584" crc="96e91e72" md5="8de99c17bafd04e86fb4100c94867c0d" sha1="233aeea3a8613f5004900d7b81fab2e82deab24e" />
<rom name="KEEPER1 (Track 6).bin" size="50563296" crc="0949dc05" md5="09554c229912f1aab20c373d06381c9e" sha1="202af7717cb4bd4d0af789eb41457832f7fdd240" />
<rom name="KEEPER1 (Track 7).bin" size="33356064" crc="e0ef2e66" md5="59207ba7df090c62bd209e61ee411390" sha1="914c470a48f9e5a3d41103d8a7f24e27b6c2a9c4" />

    Cuesheet:

CATALOG 0000000000000
FILE "KEEPER1 (Track 1).bin" BINARY
  TRACK 01 MODE1/2352
    INDEX 01 00:00:00
FILE "KEEPER1 (Track 2).bin" BINARY
  TRACK 02 AUDIO
    INDEX 00 00:00:00
    INDEX 01 00:02:00
FILE "KEEPER1 (Track 3).bin" BINARY
  TRACK 03 AUDIO
    INDEX 01 00:00:00
FILE "KEEPER1 (Track 4).bin" BINARY
  TRACK 04 AUDIO
    INDEX 01 00:00:00
FILE "KEEPER1 (Track 5).bin" BINARY
  TRACK 05 AUDIO
    INDEX 01 00:00:00
FILE "KEEPER1 (Track 6).bin" BINARY
  TRACK 06 AUDIO
    INDEX 01 00:00:00
FILE "KEEPER1 (Track 7).bin" BINARY
  TRACK 07 AUDIO
    INDEX 01 00:00:00

    Write Offset: 0

Dumping Info:
    Dumping Program: Redumper v2024.01.10 build_313
    Date: 2024-02-04 06:43:48
    Manufacturer: ASUS
    Model: BW-16D1HT
    Firmware: 3.10 (WM01601KL1N7F81700)
    Reported Disc Type: CD-ROM

Disc 1 (Installation Disc 1):

Matches: http://redump.org/disc/79901/
Logs: HERE

Common Disc Info:
    Title: Divine Divinity
    Disc Title: Installation Disc 1
    System: IBM PC compatible
    Media Type: CD-ROM
    Category: Games
    Fully Matching ID: 79901
    Region: USA, Europe
    Languages: English
    Disc Serial: Art.Nr.CDR7006/UK2

    Ringcode Information:

Data Side Mastering Code (laser branded/etched): SONOPRESS 50483066/7066UK2DV1 01
Data Side Mastering SID Code: IFPI L0 30
Data Side Mould SID Code: IFPI 0725

    Barcode: 4 015756 106162 (DVD Case, Dutch)
    Error Count: 0
    Comments:
        DVD Case Serial: Art.Nr.CDR7066/BE2

[T:VOL] /run/media/romatthe/LARIAN_DIV1/

Version and Editions:
    Version: (REQUIRED, IF EXISTS)
    Edition/Release: Rerelease, Beyond Divinity Deluxe Edition

Extras:
    Primary Volume Descriptor (PVD):

0320 : 20 20 20 20 20 20 20 20  20 20 20 20 20 32 30 30                200
0330 : 32 30 38 32 32 31 37 31  38 32 36 33 32 08 32 30   2082217182632.20
0340 : 30 32 30 38 32 32 31 37  31 39 30 37 30 32 88 00   02082217190702..
0350 : 00 00 00 00 00 00 00 00  00 00 00 00 00 00 00 00   ................
0360 : 00 00 00 00 00 00 00 00  00 00 00 00 00 00 00 00   ................
0370 : 00 01 00 00 00 00 00 00  00 00 00 00 00 00 00 00   ................

Copy Protection:
    Copy Protection: SafeDisc 2.70.030
    SubIntention Data (SecuROM/LibCrypt): 

Tracks and Write Offsets:
    DAT:

<rom name="DIVDIV-DISC1.bin" size="627904032" crc="a33f85ad" md5="0a05a59fc37d467813cca251fb0fb0e5" sha1="5d495288205e68215ae1a9c6508e4968af274ecc" />

    Cuesheet:

FILE "DIVDIV-DISC1.bin" BINARY
  TRACK 01 MODE1/2352
    INDEX 01 00:00:00

    Write Offset: -12

Dumping Info:
    Dumping Program: Redumper v2024.01.10 build_313
    Date: 2024-02-11 08:45:31
    Manufacturer: ASUS
    Model: BW-16D1HT
    Firmware: 3.10 (WM01601KL1N7F81700)
    Reported Disc Type: CD-ROM

Disc 2 (Installation Disc 2):

Matches: http://redump.org/disc/79902/
Logs: HERE

Common Disc Info:
    Title: Divine Divinity
    Disc Title: Installation Disc 2
    System: IBM PC compatible
    Media Type: CD-ROM
    Category: Games
    Fully Matching ID: 79902
    Region: USA, Europe
    Languages: English
    Disc Serial: Art.Nr.CDR7066/UK2

    Ringcode Information:

Data Side Mastering Code (laser branded/etched): SONOPRESS 50483069/7066UK2DV2 02
Data Side Mastering SID Code: IFPI LB 73
Data Side Mould SID Code: IFPI 0761

    Barcode: 4 015756 106162 (DVD Case, Dutch)
    Error Count: 0
    Comments:
        DVD Case Serial: Art.Nr.CDR7066/BE2

[T:VOL] /run/media/romatthe/LARIAN_DIV2/

Version and Editions:
    Version: (REQUIRED, IF EXISTS)
    Edition/Release: Rerelease, Beyond Divinity Deluxe Edition

Extras:
    Primary Volume Descriptor (PVD):

0320 : 20 20 20 20 20 20 20 20  20 20 20 20 20 32 30 30                200
0330 : 32 30 38 32 30 30 32 33  36 30 30 30 30 08 32 30   2082002360000.20
0340 : 30 32 30 38 32 30 30 32  33 36 30 30 30 30 08 30   02082002360000.0
0350 : 30 30 30 30 30 30 30 30  30 30 30 30 30 30 30 00   000000000000000.
0360 : 30 30 30 30 30 30 30 30  30 30 30 30 30 30 30 30   0000000000000000
0370 : 00 01 00 00 00 00 00 00  00 00 00 00 00 00 00 00   ................

Tracks and Write Offsets:
    DAT:

<rom name="DIVDIV-DISC2.bin" size="785958432" crc="ef361971" md5="7236ec1256a8afc9815888fc9d9d4fc8" sha1="243daa49c6563180e9e32624ab0f744a0173d243" />

    Cuesheet:

FILE "DIVDIV-DISC2.bin" BINARY
  TRACK 01 MODE1/2352
    INDEX 01 00:00:00

    Write Offset: 0

Dumping Info:
    Dumping Program: Redumper v2024.01.10 build_313
    Date: 2024-02-11 08:56:11
    Manufacturer: ASUS
    Model: BW-16D1HT
    Firmware: 3.10 (WM01601KL1N7F81700)
    Reported Disc Type: CD-ROM

Disc 3 (Game Disc):

Matches: http://redump.org/disc/79903/
Logs: HERE

Common Disc Info:
    Title: Divine Divinity
    Disc Title: Game Disc
    System: IBM PC compatible
    Media Type: CD-ROM
    Category: Games
    Fully Matching ID: 79903
    Region: USA, Europe
    Languages: English
    Disc Serial: Art.Nr.CDR7066/UK2

    Ringcode Information:

Data Side Mastering Code (laser branded/etched): SONOPRESS 50483073/7066UK2DV3 01
Data Side Mastering SID Code: IFPI LB 47
Data Side Mould SID Code: IFPI 0781

    Barcode: 4 015756 106162 (DVD Case, Dutch)
    Error Count: 0
    Comments:
        DVD Case Serial: Art.Nr.CDR7066/BE2

[T:VOL] /run/media/romatthe/LARIAN_DIV3/

Version and Editions:
    Version: (REQUIRED, IF EXISTS)
    Edition/Release: Rerelease, Beyond Divinity Deluxe Edition

Extras:
    Primary Volume Descriptor (PVD):

0320 : 20 20 20 20 20 20 20 20  20 20 20 20 20 32 30 30                200
0330 : 32 30 38 32 32 31 37 31  31 34 37 30 30 00 32 30   2082217114700.20
0340 : 30 32 30 38 32 32 31 37  31 31 34 37 30 30 00 30   02082217114700.0
0350 : 30 30 30 30 30 30 30 30  30 30 30 30 30 30 30 00   000000000000000.
0360 : 30 30 30 30 30 30 30 30  30 30 30 30 30 30 30 30   0000000000000000
0370 : 00 01 00 00 00 00 00 00  00 00 00 00 00 00 00 00   ................

Copy Protection:
    Copy Protection: SafeDisc 2.70.030
    SubIntention Data (SecuROM/LibCrypt): 

Tracks and Write Offsets:
    DAT:

<rom name="DIVDIV-DISC3 (Track 0).bin" size="178752" crc="d23c81f4" md5="b363a2eed5437edac845a09d86d27043" sha1="ed71beaaca4a5ff19a5dfdb7ff6f6e499a4e4114" />
<rom name="DIVDIV-DISC3.bin" size="788886672" crc="c37d21f2" md5="f4812409f48e86fa8c5f0fe23f0296c9" sha1="210d1d7a215b7af086a9755b0f88035b196f47b0" />

    Cuesheet:

FILE "DIVDIV-DISC3.bin" BINARY
  TRACK 01 MODE1/2352
    INDEX 01 00:00:00

    Write Offset: -12

Dumping Info:
    Dumping Program: Redumper v2024.01.10 build_313
    Date: 2024-02-11 09:32:17
    Manufacturer: ASUS
    Model: BW-16D1HT
    Firmware: 3.10 (WM01601KL1N7F81700)
    Reported Disc Type: CD-ROM

8

(0 replies, posted in Verifications)

Matches: http://redump.org/disc/14933/
Logs: HERE

Common Disc Info:
    Title: Deus Ex
    Foreign Title (Non-latin): 데이어스 Ex
    System: IBM PC compatible
    Media Type: CD-ROM
    Category: Games
    Fully Matching ID: 14933
    Region: Europe, Asia
    Languages: English

    Ringcode Information:

Data Side Mastering Code (laser branded/etched): DISCTRONICS    MDEUSPEN 02 01
Data Side Mastering SID Code: IFPI L503
Data Side Mould SID Code: IFPI 8725

    Barcode: 5 032921 01057 3
    Error Count: 0

[T:VOL] /run/media/romatthe/DeusEx_v1002f/

Version and Editions:
    Version: 1.002f
    Edition/Release: Original, Big Box (English)

Extras:
    Primary Volume Descriptor (PVD):

0320 : 20 20 20 20 20 20 20 20  20 20 20 20 20 32 30 30                200
0330 : 30 30 36 31 34 31 34 32  34 30 33 30 30 00 32 30   0061414240300.20
0340 : 30 30 30 36 31 34 31 34  32 34 30 33 30 30 00 30   00061414240300.0
0350 : 30 30 30 30 30 30 30 30  30 30 30 30 30 30 30 00   000000000000000.
0360 : 30 30 30 30 30 30 30 30  30 30 30 30 30 30 30 30   0000000000000000
0370 : 00 01 00 00 00 00 00 00  00 00 00 00 00 00 00 00   ................

Tracks and Write Offsets:
    DAT:

<rom name="DEUS-EX.bin" size="791104608" crc="dbb491b5" md5="0c1b78bf5b015eb5523022b7d304a558" sha1="52456617f8dafb30c724a789e96951d2c8e3603a" />

    Cuesheet:

FILE "DEUS-EX.bin" BINARY
  TRACK 01 MODE1/2352
    INDEX 01 00:00:00

    Write Offset: -12

Dumping Info:
    Dumping Program: Redumper v2024.01.10 build_313
    Date: 2024-02-04 06:10:25
    Manufacturer: ASUS
    Model: BW-16D1HT
    Firmware: 3.10 (WM01601KL1N7F81700)
    Reported Disc Type: CD-ROM

9

(0 replies, posted in Verifications)

Matches: http://redump.org/disc/42721/
Logs: HERE

Common Disc Info:
    Title: Descent
    System: IBM PC compatible
    Media Type: CD-ROM
    Category: Games
    Fully Matching ID: 42721
    Region: Europe
    Languages: English

    Ringcode Information:

Data Side Mastering Code (laser branded/etched): DISCTRONICS    S GAME 1 01    INTERPLAY
Data Side Additional Mould: 8

    Barcode: 5 026102 025036 (English, Big Box) 
    Error Count: 0

[T:VOL] /run/media/romatthe/DESCENT/

Version and Editions:
    Version: 1.0
    Edition/Release: Original, Big Box

Extras:
    Primary Volume Descriptor (PVD):

0320 : 20 20 20 20 20 20 20 20  20 20 20 20 20 31 39 39                199
0330 : 35 30 32 31 35 31 37 35  35 34 35 30 30 00 31 39   5021517554500.19
0340 : 39 35 30 32 31 35 31 37  35 35 34 35 30 30 00 00   95021517554500..
0350 : 00 00 00 00 00 00 00 00  00 00 00 00 00 00 00 00   ................
0360 : 31 39 39 35 30 32 31 35  31 37 35 35 34 35 30 30   1995021517554500
0370 : 00 01 00 00 00 00 00 00  00 00 00 00 00 00 00 00   ................

Tracks and Write Offsets:
    DAT:

<rom name="DESCENT1.bin" size="19857936" crc="47c0ae74" md5="23fee4e6484bcc0226aeb7dafd4bc174" sha1="27c31467bc56bcaa2b2d6d97c8a8a61c8c64b482" />

    Cuesheet:

CATALOG 0000000000000
FILE "DESCENT1.bin" BINARY
  TRACK 01 MODE1/2352
    INDEX 01 00:00:00

    Write Offset: +222

Dumping Info:
    Dumping Program: Redumper v2024.01.10 build_313
    Date: 2024-02-05 19:56:25
    Manufacturer: ASUS
    Model: BW-16D1HT
    Firmware: 3.10 (WM01601KL1N7F81700)
    Reported Disc Type: CD-ROM

Disc 1:

Matches: http://redump.org/disc/73565/
Logs: HERE

Common Disc Info:
    Title: Dark Earth
    Disc Number / Letter: 1
    Disc Title: Upper City
    System: IBM PC compatible
    Media Type: CD-ROM
    Category: Games
    Fully Matching ID: 73565
    Region: USA
    Languages: English
    Disc Serial: 0-527-47-101

    Ringcode Information:

Data Side Mastering Code (laser branded/etched): Technicolor C1.1 124209-04 0-527-47-101 V1.0
Data Side Mastering SID Code: IFPI L891
Data Side Mould SID Code: IFPI 2T09

    Barcode: 0 19703 52747 9 (English, Big Box)
    Error Count: 0
    Comments:
        ISBN: 1-55884-578-X

[T:VOL] /run/media/romatthe/Dark Earth/

Version and Editions:
    Version: 1.0
    Edition/Release: Original, Big Box (English)

Extras:
    Primary Volume Descriptor (PVD):

0320 : 20 20 20 20 20 20 20 20  20 20 20 20 20 31 39 39                199
0330 : 37 30 39 31 36 31 32 31  35 34 39 30 30 00 31 39   7091612154900.19
0340 : 39 37 30 39 31 36 31 32  31 35 34 39 30 30 00 32   97091612154900.2
0350 : 30 30 37 30 39 31 34 31  32 31 35 34 39 30 30 00   007091412154900.
0360 : 31 39 39 37 30 39 31 36  31 32 31 35 34 39 30 30   1997091612154900
0370 : 00 01 00 00 00 00 00 00  00 00 00 00 00 00 00 00   ................

Tracks and Write Offsets:
    DAT:

<rom name="DA-DISC1.bin" size="740468400" crc="20f6c7a2" md5="141452170cb8a7671b96474440548273" sha1="95f704a796e7f9a9f84ae73a44043d89a2747daa" />

    Cuesheet:

FILE "DA-DISC1.bin" BINARY
  TRACK 01 MODE1/2352
    INDEX 01 00:00:00

    Write Offset: -22

Dumping Info:
    Dumping Program: Redumper v2024.01.10 build_313
    Date: 2024-02-04 05:12:13
    Manufacturer: ASUS
    Model: BW-16D1HT
    Firmware: 3.10 (WM01601KL1N7F81700)
    Reported Disc Type: CD-ROM

Disc 2:

Matches: http://redump.org/disc/73566/
Logs: HERE

Common Disc Info:
    Title: Dark Earth
    Disc Number / Letter: 2
    Disc Title: Lower City
    System: IBM PC compatible
    Media Type: CD-ROM
    Category: Games
    Fully Matching ID: 73566
    Region: USA
    Languages: English
    Disc Serial: 0-527-47-102

    Ringcode Information:

Data Side Mastering Code (laser branded/etched): Technicolor C2 124214-01 0-527-47-102 V1.0
Data Side Mastering SID Code: IFPI L892
Data Side Mould SID Code: IFPI 2T0I

    Barcode: 0 19703 52747 9 (English, Big Box)
    Error Count: 0
    Comments:
        ISBN: 1-55884-578-X

[T:VOL] /run/media/romatthe/Dark Earth/

Version and Editions:
    Version: 1.0
    Edition/Release: Original, Big Box (English)

Extras:
    Primary Volume Descriptor (PVD):

0320 : 20 20 20 20 20 20 20 20  20 20 20 20 20 31 39 39                199
0330 : 37 30 39 31 36 31 32 34  30 35 35 30 30 00 31 39   7091612405500.19
0340 : 39 37 30 39 31 36 31 32  34 30 35 35 30 30 00 32   97091612405500.2
0350 : 30 30 37 30 39 31 34 31  32 34 30 35 35 30 30 00   007091412405500.
0360 : 31 39 39 37 30 39 31 36  31 32 34 30 35 35 30 30   1997091612405500
0370 : 00 01 00 00 00 00 00 00  00 00 00 00 00 00 00 00   ................

Tracks and Write Offsets:
    DAT:

<rom name="DA-DISC2.bin" size="690483696" crc="5c34aa7d" md5="121cea6ee6f4740618e50afdad3c30c9" sha1="08cc2f735792c5720bc9c46f9a033123e65c0512" />

    Cuesheet:

FILE "DA-DISC2.bin" BINARY
  TRACK 01 MODE1/2352
    INDEX 01 00:00:00

    Write Offset: -22

Dumping Info:
    Dumping Program: Redumper v2024.01.10 build_313
    Date: 2024-02-04 05:35:14
    Manufacturer: ASUS
    Model: BW-16D1HT
    Firmware: 3.10 (WM01601KL1N7F81700)
    Reported Disc Type: CD-ROM

Matches: http://redump.org/disc/48062/
Logs: HERE

Common Disc Info:
    Title: Crusader: No Remorse
    Disc Number / Letter: 1
    System: IBM PC compatible
    Media Type: CD-ROM
    Category: Games
    Fully Matching ID: 48062
    Region: Europe
    Languages: English
    Disc Serial: R8815CED

    Ringcode Information:

Data Side Mastering Code (laser branded/etched): CDR00795 CRUSADER ENGLISH PC WISE
Data Side Mastering SID Code: IFPI L041

    Barcode: 5 015839 881442 >
    Error Count: 0

[T:VOL] /run/media/romatthe/CRUSADER/

Version and Editions:
    Edition/Release: Original, Big Box (English)

Extras:
    Primary Volume Descriptor (PVD):

0320 : 20 20 20 20 20 20 20 20  20 20 20 20 20 31 39 39                199
0330 : 35 30 39 31 34 31 37 31  32 30 33 30 30 00 31 39   5091417120300.19
0340 : 39 35 30 39 31 34 31 37  31 32 30 33 30 30 00 30   95091417120300.0
0350 : 30 30 30 30 30 30 20 30  30 30 30 30 30 30 30 00   000000 00000000.
0360 : 31 39 39 35 30 39 31 34  31 37 31 32 30 33 30 30   1995091417120300
0370 : 00 01 00 00 00 00 00 00  00 00 00 00 00 00 00 00   ................

Tracks and Write Offsets:
    DAT:

<rom name="CRUSADER1.bin" size="635221104" crc="1e4e28ba" md5="a82f575c60e2554eff74161b8c9aa6a1" sha1="1ee2699abdcdd7360ab8a4dec4bb3040f09cba5d" />

    Cuesheet:

FILE "CRUSADER1.bin" BINARY
  TRACK 01 MODE1/2352
    FLAGS DCP
    INDEX 01 00:00:00

    Write Offset: -22

Dumping Info:
    Dumping Program: Redumper v2024.01.10 build_313
    Date: 2024-02-04 04:41:39
    Manufacturer: ASUS
    Model: BW-16D1HT
    Firmware: 3.10 (WM01601KL1N7F81700)
    Reported Disc Type: CD-ROM

Matches: http://redump.org/disc/67864/
Logs: HERE

Common Disc Info:
    Title: Close Combat III: The Russian Front
    Disc Number / Letter: 1
    System: IBM PC compatible
    Media Type: CD-ROM
    Category: Games
    Fully Matching ID: 67864
    Region: Europe
    Languages: English
    Disc Serial: 1098 Part No. X03-86743

    Ringcode Information:

Data Side Mastering Code (laser branded/etched): DADC X03-86742 14
Data Side Mastering SID Code: IFPI L554
Data Side Toolstamp or Mastering Code (engraved/stamped): A5
Data Side Mould SID Code: IFPI 94Z8

    Barcode: 6 59556 07017 5 (English, Big Box)
    Error Count: 0
    Comments:
        Jewel Case labelled as "CD SET X03-96768"
        Box Labelled as "Origin: Ireland"

[T:VOL] /run/media/romatthe/CC3_TRF/

Version and Editions:
    Version: 3.0
    Edition/Release: Original, Big Box (English)

Extras:
    Primary Volume Descriptor (PVD):

0320 : 20 20 20 20 20 20 20 20  20 20 20 20 20 31 39 39                199
0330 : 38 31 32 31 31 31 32 30  36 30 38 30 30 E0 31 39   8121112060800.19
0340 : 39 38 31 32 31 31 31 32  30 36 30 38 30 30 E0 32   98121112060800.2
0350 : 30 30 38 31 32 31 31 31  32 30 36 30 38 30 30 E0   008121112060800.
0360 : 31 39 39 38 31 32 31 31  31 32 30 36 30 38 30 30   1998121112060800
0370 : E0 01 00 43 44 20 52 65  70 20 31 2E 35 2E 30 39   ...CD Rep 1.5.09

Tracks and Write Offsets:
    DAT:

<rom name="CC3.bin" size="718521888" crc="e27973e3" md5="5db7f664b5617ffdb734d3e8926ca278" sha1="388324d2e74ea9f80c6c6b97aefb6e0c0343e969" />

    Cuesheet:

FILE "CC3.bin" BINARY
  TRACK 01 MODE1/2352
    INDEX 01 00:00:00

    Write Offset: -22

Dumping Info:
    Dumping Program: Redumper v2024.01.10 build_313
    Date: 2024-02-04 04:08:09
    Manufacturer: ASUS
    Model: BW-16D1HT
    Firmware: 3.10 (WM01601KL1N7F81700)
    Reported Disc Type: CD-ROM

Disc 1:

Matches: http://redump.org/disc/1801/
Logs: HERE

Common Disc Info:
    Title: Baldur's Gate II: Shadows of Amn
    Disc Number / Letter: 1
    Disc Title: CD1
    System: IBM PC compatible
    Media Type: CD-ROM
    Category: Games
    Fully Matching ID: 1801
    Region: Europe
    Languages: English
    Disc Serial: CD-C95-1098-E1

    Ringcode Information:

Data Side Mastering Code (laser branded/etched): SONOPRESS XA A-34787/ C951098E1 C
Data Side Mastering SID Code: IFPI LB 45
Data Side Mould SID Code: IFPI 0707

    Barcode: 5 026102 004130 (English, Big Box)
    Error Count: 0
    Comments:
        Jewel Case Front Serial: BLK-C95-1098-GEN
        Jewel Case Back Serial: INL-C95-1098-GEN
        Big Box Serial: U-FG-C95-1098-E

Version and Editions:
    Version: 1.3.0.1
    Edition/Release: Original, Big Box (English)

Extras:
    Primary Volume Descriptor (PVD):

0320 : 20 20 20 20 20 20 20 20  20 20 20 20 20 32 30 30                200
0330 : 30 30 39 31 34 32 32 35  31 35 39 30 30 00 32 30   0091422515900.20
0340 : 30 30 30 39 31 34 32 32  35 31 35 39 30 30 00 30   00091422515900.0
0350 : 30 30 30 30 30 30 30 30  30 30 30 30 30 30 30 00   000000000000000.
0360 : 30 30 30 30 30 30 30 30  30 30 30 30 30 30 30 30   0000000000000000
0370 : 00 01 00 00 00 00 00 00  00 00 00 00 00 00 00 00   ................

Tracks and Write Offsets:
    DAT:

<rom name="BG2-DISC1.bin" size="746442480" crc="34db78e8" md5="5c1e8fa9021d7e869a2ec061309c0f1c" sha1="5b5d37d5bbe2c2b106ec6d98da711368ffab85ad" />

    Cuesheet:

FILE "BG2-DISC1.bin" BINARY
  TRACK 01 MODE2/2352
    INDEX 01 00:00:00

    Write Offset: -12

Dumping Info:
    Dumping Program: Redumper v2024.01.10 build_313
    Date: 2024-02-04 01:53:53
    Manufacturer: ASUS
    Model: BW-16D1HT
    Firmware: 3.10 (WM01601KL1N7F81700)
    Reported Disc Type: CD-ROM

Disc 2:

Matches: http://redump.org/disc/1802/
Logs: HERE

Common Disc Info:
    Title: Baldur's Gate II: Shadows of Amn
    Disc Number / Letter: 2
    Disc Title: CD2
    System: IBM PC compatible
    Media Type: CD-ROM
    Category: Games
    Fully Matching ID: 1802
    Region: Europe
    Languages: English
    Disc Serial: CD-C95-1098-E2

    Ringcode Information:

Data Side Mastering Code (laser branded/etched): SONOPRESS ROM A-34765/ C951098E2 B
Data Side Mastering SID Code: IFPI LB 45
Data Side Mould SID Code: IFPI 0707

    Barcode: 5 026102 004130 (English, Big Box)
    Error Count: 0
    Comments:
        Jewel Case Front Serial: BLK-C95-1098-GEN
        Jewel Case Back Serial: INL-C95-1098-GEN
        Big Box Serial: U-FG-C95-1098-E

Version and Editions:
    Version: 1.3.0.1
    Edition/Release: Original, Big Box (English)

Extras:
    Primary Volume Descriptor (PVD):

0320 : 20 20 20 20 20 20 20 20  20 20 20 20 20 32 30 30                200
0330 : 30 30 39 30 32 30 32 30  39 30 30 30 30 E4 32 30   0090202090000.20
0340 : 30 30 30 39 30 32 30 32  30 39 30 30 30 30 E4 30   00090202090000.0
0350 : 30 30 30 30 30 30 30 30  30 30 30 30 30 30 30 00   000000000000000.
0360 : 30 30 30 30 30 30 30 30  30 30 30 30 30 30 30 30   0000000000000000
0370 : 00 01 00 00 00 00 00 00  00 00 00 00 00 00 00 00   ................

Tracks and Write Offsets:
    DAT:

<rom name="BG2-DISC2.bin" size="754486320" crc="f9b073c4" md5="dd6980a86d750c1c54c38fbc1cf15e4c" sha1="f4db0a65c2b1b1e1383b82bbd1994eb221044606" />

    Cuesheet:

FILE "BG2-DISC2.bin" BINARY
  TRACK 01 MODE1/2352
    INDEX 01 00:00:00

    Write Offset: -12

Dumping Info:
    Dumping Program: Redumper v2024.01.10 build_313
    Date: 2024-02-04 02:12:55
    Manufacturer: ASUS
    Model: BW-16D1HT
    Firmware: 3.10 (WM01601KL1N7F81700)
    Reported Disc Type: CD-ROM

Disc 3:

Matches: http://redump.org/disc/1803/
Logs: HERE

Common Disc Info:
    Title: Baldur's Gate II: Shadows of Amn
    Disc Number / Letter: 3
    Disc Title: CD3
    System: IBM PC compatible
    Media Type: CD-ROM
    Category: Games
    Fully Matching ID: 1803
    Region: Europe
    Languages: English
    Disc Serial: CD-C95-1098-E3

    Ringcode Information:

Data Side Mastering Code (laser branded/etched): SONOPRESS ROM A-34766/ C951098E3 A
Data Side Mastering SID Code: IFPI LB 47
Data Side Mould SID Code: IFPI 0788

    Barcode: 5 026102 004130 (English, Big Box)
    Error Count: 0
    Comments:
        Jewel Case Front Serial: BLK-C95-1098-GEN
        Jewel Case Back Serial: INL-C95-1098-GEN
        Big Box Serial: U-FG-C95-1098-E

Version and Editions:
    Version: 1.3.0.1
    Edition/Release: Original, Big Box (English)

Extras:
    Primary Volume Descriptor (PVD):

0320 : 20 20 20 20 20 20 20 20  20 20 20 20 20 32 30 30                200
0330 : 30 30 39 30 32 30 34 34  36 30 30 30 30 E4 32 30   0090204460000.20
0340 : 30 30 30 39 30 32 30 34  34 36 30 30 30 30 E4 30   00090204460000.0
0350 : 30 30 30 30 30 30 30 30  30 30 30 30 30 30 30 00   000000000000000.
0360 : 30 30 30 30 30 30 30 30  30 30 30 30 30 30 30 30   0000000000000000
0370 : 00 01 00 00 00 00 00 00  00 00 00 00 00 00 00 00   ................

Tracks and Write Offsets:
    DAT:

<rom name="BG2-DISC3.bin" size="783171312" crc="1603b23a" md5="61f7de3844d09882a9a18ed28dc6128c" sha1="ea4ad996bc42543a8803f25fdf9f30f187a70330" />

    Cuesheet:

FILE "BG2-DISC3.bin" BINARY
  TRACK 01 MODE1/2352
    INDEX 01 00:00:00

    Write Offset: -12

Dumping Info:
    Dumping Program: Redumper v2024.01.10 build_313
    Date: 2024-02-04 02:32:02
    Manufacturer: ASUS
    Model: BW-16D1HT
    Firmware: 3.10 (WM01601KL1N7F81700)
    Reported Disc Type: CD-ROM

Disc 4:

Matches: http://redump.org/disc/1804/
Logs: HERE

Common Disc Info:
    Title: Baldur's Gate II: Shadows of Amn
    Disc Number / Letter: 4
    Disc Title: CD4
    System: IBM PC compatible
    Media Type: CD-ROM
    Category: Games
    Fully Matching ID: 1804
    Region: Europe
    Languages: English
    Disc Serial: CD-C95-1098-E4

    Ringcode Information:

Data Side Mastering Code (laser branded/etched): SONOPRESS ROM A-34767/ C951098E4 B
Data Side Mastering SID Code: IFPI LB 47
Data Side Mould SID Code: IFPI 0761

    Barcode: 5 026102 004130 (English, Big Box)
    Error Count: 0
    Comments:
        Jewel Case Front Serial: BLK-C95-1098-GEN
        Jewel Case Back Serial: INL-C95-1098-GEN
        Big Box Serial: U-FG-C95-1098-E

Version and Editions:
    Version: 1.3.0.1
    Edition/Release: Original, Big Box (English)

Extras:
    Primary Volume Descriptor (PVD):

0320 : 20 20 20 20 20 20 20 20  20 20 20 20 20 32 30 30                200
0330 : 30 30 39 30 32 30 37 34  38 30 30 30 30 E4 32 30   0090207480000.20
0340 : 30 30 30 39 30 32 30 37  34 38 30 30 30 30 E4 30   00090207480000.0
0350 : 30 30 30 30 30 30 30 30  30 30 30 30 30 30 30 00   000000000000000.
0360 : 30 30 30 30 30 30 30 30  30 30 30 30 30 30 30 30   0000000000000000
0370 : 00 01 00 00 00 00 00 00  00 00 00 00 00 00 00 00   ................

Tracks and Write Offsets:
    DAT:

<rom name="BG2-DISC4.bin" size="719199264" crc="77b7321c" md5="a1492c0d4c39e832f90ba90c7ba71cb9" sha1="57e655c27cb354565d0a9f34596c2a13b023df5a" />

    Cuesheet:

FILE "BG2-DISC4.bin" BINARY
  TRACK 01 MODE1/2352
    INDEX 01 00:00:00

    Write Offset: -12

Dumping Info:
    Dumping Program: Redumper v2024.01.10 build_313
    Date: 2024-02-04 02:43:42
    Manufacturer: ASUS
    Model: BW-16D1HT
    Firmware: 3.10 (WM01601KL1N7F81700)
    Reported Disc Type: CD-ROM

Matches: http://redump.org/disc/67717/
Logs: HERE

Common Disc Info:
    Title: Baldur's Gate: Tales of the Sword Coast
    System: IBM PC compatible
    Media Type: CD-ROM
    Category: Add-Ons
    Fully Matching ID: 67717
    Region: Europe
    Languages: English
    Disc Serial: CD-W95-898-E

    Ringcode Information:

Data Side Mastering Code (laser branded/etched): SONOPRESS ROM Z-5594-2/ W95-898-E K
Data Side Mastering SID Code: IFPI LB 45
Data Side Mould SID Code: IFPI 0714

    Barcode: 5 026102 002037 (UK, Big Box)
    Error Count: 0
    Comments:
        Jewel Case Serial: INL-W95-898-GEN
        Jewel Case Booklet Serial: BLK-W95-898-GEN 
        Big Box Serial: FG-W95-898-E

Version and Editions:
    Version: 1.3.5508
    Edition/Release: Original, Big Box (UK)

Extras:
    Primary Volume Descriptor (PVD):

0320 : 20 20 20 20 20 20 20 20  20 20 20 20 20 31 39 39                199
0330 : 39 30 34 32 39 31 38 30  38 34 32 30 30 FC 31 39   9042918084200.19
0340 : 39 39 30 34 32 39 31 38  30 38 34 32 30 30 FC 32   99042918084200.2
0350 : 39 39 39 30 34 32 39 31  38 30 38 34 30 30 30 FC   999042918084000.
0360 : 31 39 39 39 30 34 32 39  31 38 30 38 34 30 30 30   1999042918084000
0370 : FC 01 00 00 00 00 00 00  00 00 00 00 00 00 00 00   ................

Tracks and Write Offsets:
    DAT:

<rom name="BG-TOTSC.bin" size="713606208" crc="2a383aa6" md5="3c43480e3a483ab0f596aabe88c487b7" sha1="7178d31de1a23e01db4764cfc443c87de6a9cc82" />

    Cuesheet:

FILE "BG-TOTSC.bin" BINARY
  TRACK 01 MODE1/2352
    INDEX 01 00:00:00

    Write Offset: -12

Dumping Info:
    Dumping Program: Redumper v2024.01.10 build_313
    Date: 2024-02-04 01:17:38
    Manufacturer: ASUS
    Model: BW-16D1HT
    Firmware: 3.10 (WM01601KL1N7F81700)
    Reported Disc Type: CD-ROM

Disc 1:

Matches: http://redump.org/disc/37497/
Logs: HERE

Common Disc Info:
    Title: Baldur's Gate
    Disc Number / Letter: 1
    Disc Title: Disc 1/5
    System: IBM PC compatible
    Media Type: CD-ROM
    Category: Games
    Fully Matching ID: 37497
    Region: Europe
    Languages: English
    Disc Serial: CD-W95-625-E1

    Ringcode Information:

Data Side Mastering Code (laser branded/etched): E1CDW95625    SONOPRESS
Data Side Mastering SID Code: IFPI L041
Data Side Toolstamp or Mastering Code (engraved/stamped): 1:1:4
Data Side Mould SID Code: IFPI 1440

    Barcode: 5 026102 001894 (Dutch, Big Box)
    Error Count: 0
    Comments:
        Digipack Serial: CDH-W95-625-GEN
        Big Box Serial: FG-W95-625-DU

Version and Editions:
    Version: 1.0.4309
    Edition/Release: Original, Big Box (Dutch)

Extras:
    Primary Volume Descriptor (PVD):

0320 : 20 20 20 20 20 20 20 20  20 20 20 20 20 31 39 39                199
0330 : 38 31 32 31 38 31 38 31  33 32 37 39 35 E5 31 39   8121818132795.19
0340 : 39 38 31 32 31 38 31 38  31 36 35 32 33 33 C0 00   98121818165233..
0350 : 00 00 00 00 00 00 00 00  00 00 00 00 00 00 00 00   ................
0360 : 00 00 00 00 00 00 00 00  00 00 00 00 00 00 00 00   ................
0370 : 00 01 00 00 00 00 00 00  00 00 00 00 00 00 00 00   ................

Tracks and Write Offsets:
    DAT:

<rom name="BG-DISC1.bin" size="671451312" crc="349283e4" md5="7d070f6ae3812bfab44a6de7e17ad47c" sha1="74422af6521370ee2d5926c93c668c7f665ba39e" />

    Cuesheet:

FILE "BG-DISC1.bin" BINARY
  TRACK 01 MODE1/2352
    INDEX 01 00:00:00

    Write Offset: -22

Dumping Info:
    Dumping Program: Redumper v2024.01.10 build_313
    Date: 2024-02-03 23:12:03
    Manufacturer: ASUS
    Model: BW-16D1HT
    Firmware: 3.10 (WM01601KL1N7F81700)
    Reported Disc Type: CD-ROM

Disc 2:

Matches: http://redump.org/disc/8716/
Logs: HERE

Common Disc Info:
    Title: Baldur's Gate
    Disc Number / Letter: 2
    Disc Title: Disc 2/5 
    System: IBM PC compatible
    Media Type: CD-ROM
    Category: Games
    Fully Matching ID: 8716
    Region: Europe
    Languages: English
    Disc Serial: CD-W95-625-E2

    Ringcode Information:

Data Side Mastering Code (laser branded/etched): E2CDW95625    SONOPRESS
Data Side Mastering SID Code: IFPI L041
Data Side Toolstamp or Mastering Code (engraved/stamped): 2:2:5
Data Side Mould SID Code: IFPI 1448

    Barcode: 5 026102 001894 (Dutch, Big Box)
    Error Count: 0
    Comments:
        Digipack Serial: CDH-W95-625-GEN
        Big Box Serial: FG-W95-625-DU

Version and Editions:
    Version: 1.0.4309
    Edition/Release: Original, Big Box (Dutch)

Extras:
    Primary Volume Descriptor (PVD):

0320 : 20 20 20 20 20 20 20 20  20 20 20 20 20 31 39 39                199
0330 : 38 31 32 31 38 31 39 34  36 31 33 38 38 E5 31 39   8121819461388.19
0340 : 39 38 31 32 31 38 31 39  34 37 32 39 32 39 C0 00   98121819472929..
0350 : 00 00 00 00 00 00 00 00  00 00 00 00 00 00 00 00   ................
0360 : 00 00 00 00 00 00 00 00  00 00 00 00 00 00 00 00   ................
0370 : 00 01 00 00 00 00 00 00  00 00 00 00 00 00 00 00   ................

Tracks and Write Offsets:
    DAT:

<rom name="BG-DISC2.bin" size="691478592" crc="d3caaae1" md5="ac4736d0b519021aa3881912f52a0a38" sha1="fd770a84346abc1f3dc7c1f6efadeb24668a858b" />

    Cuesheet:

FILE "BG-DISC2.bin" BINARY
  TRACK 01 MODE1/2352
    INDEX 01 00:00:00

    Write Offset: -22

Dumping Info:
    Dumping Program: Redumper v2024.01.10 build_313
    Date: 2024-02-03 23:25:07
    Manufacturer: ASUS
    Model: BW-16D1HT
    Firmware: 3.10 (WM01601KL1N7F81700)
    Reported Disc Type: CD-ROM

Disc 3:

Matches: http://redump.org/disc/8717/
Logs: HERE

Common Disc Info:
    Title: Baldur's Gate
    Disc Number / Letter: 3
    Disc Title: Disc 3/5
    System: IBM PC compatible
    Media Type: CD-ROM
    Category: Games
    Fully Matching ID: 8717
    Region: Europe
    Languages: English
    Disc Serial: CD-W95-625-E3

    Ringcode Information:

Data Side Mastering Code (laser branded/etched): E3CDW95625    SONOPRESS
Data Side Mastering SID Code: IFPI L041
Data Side Toolstamp or Mastering Code (engraved/stamped): :1:1:12:
Data Side Mould SID Code: IFPI 1429

    Barcode: 5 026102 001894 (Dutch, Big Box)
    Error Count: 0
    Comments:
        Digipack Serial: CDH-W95-625-GEN
        Big Box Serial: FG-W95-625-DU

Version and Editions:
    Version: 1.0.4309
    Edition/Release: Original, Big Box (Dutch)

Extras:
    Primary Volume Descriptor (PVD):

0320 : 20 20 20 20 20 20 20 20  20 20 20 20 20 31 39 39                199
0330 : 38 31 32 31 38 31 39 30  36 31 36 39 33 E5 31 39   8121819061693.19
0340 : 39 38 31 32 31 38 31 39  30 36 35 33 34 30 C0 00   98121819065340..
0350 : 00 00 00 00 00 00 00 00  00 00 00 00 00 00 00 00   ................
0360 : 00 00 00 00 00 00 00 00  00 00 00 00 00 00 00 00   ................
0370 : 00 01 00 00 00 00 00 00  00 00 00 00 00 00 00 00   ................

Tracks and Write Offsets:
    DAT:

<rom name="BG-DISC3.bin" size="667904496" crc="43d33c91" md5="fb78f6afe321c769f27a426b0685adfc" sha1="46ad07b1f2f8237d43a839d24f49d95a4a81d366" />

    Cuesheet:

FILE "BG-DISC3.bin" BINARY
  TRACK 01 MODE1/2352
    INDEX 01 00:00:00

    Write Offset: -22

Dumping Info:
    Dumping Program: Redumper v2024.01.10 build_313
    Date: 2024-02-03 23:35:23
    Manufacturer: ASUS
    Model: BW-16D1HT
    Firmware: 3.10 (WM01601KL1N7F81700)
    Reported Disc Type: CD-ROM

Disc 4:

Matches: http://redump.org/disc/8718/
Logs: HERE

Common Disc Info:
    Title: Baldur's Gate
    Disc Number / Letter: 4
    Disc Title: Disc 4/5
    System: IBM PC compatible
    Media Type: CD-ROM
    Category: Games
    Fully Matching ID: 8718
    Region: Europe
    Languages: English
    Disc Serial: CD-W95-625-E4

    Ringcode Information:

Data Side Mastering Code (laser branded/etched): E4CDW95625    SONOPRESS
Data Side Mastering SID Code: IFPI L042
Data Side Toolstamp or Mastering Code (engraved/stamped): 1:2:4
Data Side Mould SID Code: IFPI 1448

    Barcode: 5 026102 001894 (Dutch, Big Box)
    Error Count: 0
    Comments:
        Digipack Serial: CDH-W95-625-GEN
        Big Box Serial: FG-W95-625-DU

Version and Editions:
    Version: 1.0.4309
    Edition/Release: Original, Big Box (Dutch)

Extras:
    Primary Volume Descriptor (PVD):

0320 : 20 20 20 20 20 20 20 20  20 20 20 20 20 31 39 39                199
0330 : 38 31 32 31 38 31 39 34  37 30 31 37 32 E5 31 39   8121819470172.19
0340 : 39 38 31 32 31 38 31 39  34 37 35 30 32 37 C0 00   98121819475027..
0350 : 00 00 00 00 00 00 00 00  00 00 00 00 00 00 00 00   ................
0360 : 00 00 00 00 00 00 00 00  00 00 00 00 00 00 00 00   ................
0370 : 00 01 00 00 00 00 00 00  00 00 00 00 00 00 00 00   ................

Tracks and Write Offsets:
    DAT:

<rom name="BG-DISC4.bin" size="724025568" crc="d9acd4f9" md5="bddb0d5bebc1697959e0e3c485455536" sha1="c3b7fb85bb222b0750d0a1f66fe8b6f9468f9aa7" />

    Cuesheet:

FILE "BG-DISC4.bin" BINARY
  TRACK 01 MODE1/2352
    INDEX 01 00:00:00

    Write Offset: -22

Dumping Info:
    Dumping Program: Redumper v2024.01.10 build_313
    Date: 2024-02-04 00:06:58
    Manufacturer: ASUS
    Model: BW-16D1HT
    Firmware: 3.10 (WM01601KL1N7F81700)
    Reported Disc Type: CD-ROM

Disc 5:

Matches: http://redump.org/disc/8719/
Logs: HERE

Common Disc Info:
    Title: Baldur's Gate
    Disc Number / Letter: 5
    Disc Title: Disc 5/5
    System: IBM PC compatible
    Media Type: CD-ROM
    Category: Games
    Fully Matching ID: 8719
    Region: Europe
    Languages: English
    Disc Serial: CD-W95-625-E5

    Ringcode Information:

Data Side Mastering Code (laser branded/etched): E5CDW95625    SONOPRESS
Data Side Mastering SID Code: IFPI L041
Data Side Toolstamp or Mastering Code (engraved/stamped): :2:1:5:
Data Side Mould SID Code: IFPI 1440

    Barcode: 5 026102 001894 (Dutch, Big Box)
    Error Count: 0
    Comments:
        Digipack Serial: CDH-W95-625-GEN
        Big Box Serial: FG-W95-625-DU

Version and Editions:
    Version: 1.0.4309
    Edition/Release: Original, Big Box (Dutch)

Extras:
    Primary Volume Descriptor (PVD):

0320 : 20 20 20 20 20 20 20 20  20 20 20 20 20 31 39 39                199
0330 : 38 31 32 31 38 32 30 32  36 30 34 34 35 E5 31 39   8121820260445.19
0340 : 39 38 31 32 31 38 32 30  32 36 34 32 32 34 C0 00   98121820264224..
0350 : 00 00 00 00 00 00 00 00  00 00 00 00 00 00 00 00   ................
0360 : 00 00 00 00 00 00 00 00  00 00 00 00 00 00 00 00   ................
0370 : 00 01 00 00 00 00 00 00  00 00 00 00 00 00 00 00   ................

Tracks and Write Offsets:
    DAT:

<rom name="BG-DISC5.bin" size="703624320" crc="5b5d50be" md5="c7489a19bee282a617e275eaff3c9626" sha1="2cab9e66cb090851cc0b42371a73aff4605bea5f" />

    Cuesheet:

FILE "BG-DISC5.bin" BINARY
  TRACK 01 MODE1/2352
    INDEX 01 00:00:00

    Write Offset: -22

Dumping Info:
    Dumping Program: Redumper v2024.01.10 build_313
    Date: 2024-02-04 00:18:03
    Manufacturer: ASUS
    Model: BW-16D1HT
    Firmware: 3.10 (WM01601KL1N7F81700)
    Reported Disc Type: CD-ROM