Bonjour Aureoletaxe4!

Je te répond sur ton post en français au cas ou si tu a du mal avec l'anglais ou si tu a besoin d'aide pour comprendre certains trucs/comment faire, hésite pas a me demander! si tu a discord tu peut rejoindre le server redump et me demander de l'aide smile

De ce qu'on peut voir, ton disque a l'air d'être nouveau, c'est pas totalement confirmer, mais le sérial du disque est en effet nouveau et pas encore dump sur Redump, (confirmer par Deterous)

Si tu veut contribuer ton disque a la communauté, le plus facile est d'utiliser une WII hacker avec un custom firmware, et le programme d'homebrew 'CleanRip'

CleanRip va faire un dump de ton disque de gamecube (ça fonctionne aussi pour les disques de Wii) et te donner 3 fichiers,
un fichier .iso, un fichier .bca, et un fichier .txt

Deterous a linker un lien pour le guide de comment faire tous ça, mais en gros quand tu a tes fichiers, ce qui nous interesse c'est les fichiers .bca et .txt, ainsi que les codes qui sont écris a l'arrière de ton disque (c'est écris en petit)

Pour l'instant tant que n'a pas encore de compte "verifier", le mieux est que tu poste ces 2 fichiers et les codes du disque (ce qu'on apelle 'Ring codes') dans ce post.

Merci beaucoup pour ton temps! on apprécie l'aide smile

Matches : http://redump.org/disc/11527/

Logs : https://mega.nz/file/ydEDkCjA#9vqD8Wwft … ABu5Bcv8Pg

Users who wish to submit this information to Redump must ensure that all of the fields below are accurate for the exact media they have.
Please double-check to ensure that there are no fields that need verification, such as the version or copy protection.
If there are no fields in need of verification or all fields are accurate, this preamble can be removed before submission.

Common Disc Info:
    Title: Call of Duty 2: Big Red One
    Disc Number / Letter: (OPTIONAL)
    Disc Title: (OPTIONAL)
    System: Sony PlayStation 2
    Media Type: DVD-ROM-5
    Category: Games
    Fully Matching ID: 11527
    Region: Europe
    Languages: SILENCE! (CHANGE THIS)
    Disc Serial: SLES-53416/P

    Ringcode Information:

Data Side Mastering Code (laser branded/etched): Sony DADC    A0100644142-A511    16
Data Side Mastering SID Code: IFPI L556
Data Side Toolstamp or Mastering Code (engraved/stamped): A7
Data Side Mould SID Code: IFPI 949W
Data Side Additional Mould: (REQUIRED, IF EXISTS)
Label Side Mould SID Code: (REQUIRED, IF EXISTS)

    Barcode: 5 030917 037764
    EXE/Build Date: 2005-09-29
    Comments:

[T:ISN] SLES-53416
(OPTIONAL)

    Contents: (OPTIONAL)

Version and Editions:
    Version: 1.01
    Edition/Release: (VERIFY THIS) Original

Extras:
    Primary Volume Descriptor (PVD):

0320 : 20 20 20 20 20 20 20 20  20 20 20 20 20 32 30 30                200
0330 : 35 30 39 33 30 31 39 31  34 34 30 30 30 24 30 30   5093019144000$00
0340 : 30 30 30 30 30 30 30 30  30 30 30 30 30 30 00 30   00000000000000.0
0350 : 30 30 30 30 30 30 30 30  30 30 30 30 30 30 30 00   000000000000000.
0360 : 30 30 30 30 30 30 30 30  30 30 30 30 30 30 30 30   0000000000000000
0370 : 00 01 00 00 00 00 00 00  00 00 00 00 00 00 00 00   ................

Size & Checksum:
    Size: 3138879488
    CRC32: d4a90bd4
    MD5: bba9b126e06e940f862d9f40f9189a4c
    SHA1: 62b659af87c5f29febde822b9b7bd0fab422117c

Dumping Info:
    Frontend Version: 3.1.5-771483ac146302cf6634037db23cd336b0d1c97a
    Dumping Program: Redumper v2024.01.08 build_311
    Date: 2024-04-10 14:23:01
    Manufacturer: TS8XDVDS
    Model: TRANSCEND
    Firmware: 1.02 (J045803 K0NL4LA2347)
    Reported Disc Type: DVD-ROM

3

(0 replies, posted in Verifications)

Logs : https://mega.nz/file/PAEmRYTR#uHMKvStqc … naCd84Xdaw

Matches : http://redump.org/disc/28191/

Common Disc Info:
    Title: Warzone 2100
    Disc Number / Letter: (OPTIONAL)
    Disc Title: (OPTIONAL)
    System: Sony PlayStation
    Media Type: CD-ROM
    Category: Games
    Fully Matching ID: 28191
    Region: Europe
    Languages: SILENCE! (CHANGE THIS)
    Disc Serial: SLES-01742#

    Ringcode Information:

Data Side Mastering Code (laser branded/etched): (REQUIRED, IF EXISTS)
Data Side Mastering SID Code: (REQUIRED, IF EXISTS)
Data Side Toolstamp or Mastering Code (engraved/stamped): (REQUIRED, IF EXISTS)
Data Side Mould SID Code: IFPI 942Q
Data Side Additional Mould: (REQUIRED, IF EXISTS)
Label Side Mould SID Code: (REQUIRED, IF EXISTS)

    Barcode: 5 032921 011624
    EXE/Build Date: 1999-03-29
    Error Count: 0
    Comments:

[T:ISN] SLES-01742
(OPTIONAL)

    Contents: (OPTIONAL)

Version and Editions:
    Version: (REQUIRED, IF EXISTS)
    Edition/Release: (VERIFY THIS) Original

EDC:
    EDC: Yes

Extras:
    Primary Volume Descriptor (PVD):

0320 : 20 20 20 20 20 20 20 20  20 20 20 20 20 31 39 39                199
0330 : 39 30 33 32 39 31 37 33  33 35 36 39 31 24 30 30   9032917335691$00
0340 : 30 30 30 30 30 30 30 30  30 30 30 30 30 30 00 30   00000000000000.0
0350 : 30 30 30 30 30 30 30 30  30 30 30 30 30 30 30 00   000000000000000.
0360 : 30 30 30 30 30 30 30 30  30 30 30 30 30 30 30 30   0000000000000000
0370 : 00 01 00 00 00 00 00 00  00 00 00 00 00 00 00 00   ................

Copy Protection:
    Anti-modchip: No
    LibCrypt: No
    SubIntention Data (SecuROM/LibCrypt):

Tracks and Write Offsets:
    DAT:

<rom name="SLES-01742.bin" size="703414992" crc="7a6f171a" md5="f81605298c2824280802f53082b7e227" sha1="c98faa569334cbf2b503a97f291bcf1e1519e363" />

    Cuesheet:

FILE "SLES-01742.bin" BINARY
  TRACK 01 MODE2/2352
    INDEX 01 00:00:00

    Write Offset: -647

Dumping Info:
    Frontend Version: 3.1.5-771483ac146302cf6634037db23cd336b0d1c97a
    Dumping Program: Redumper v2024.01.08 build_311
    Date: 2024-04-05 22:51:40
    Manufacturer: PLEXTOR
    Model: DVDR PX-712A
    Firmware: 1.09 (03/31/06 10:00)
    Reported Disc Type: CD-ROM
    C2 Error Count: 0

Logs : https://mega.nz/file/eV0yDABI#w8g84MmJb … _QJ8FLCiVs

Matches : http://redump.org/disc/27191/

Common Disc Info:
    Title: Driver 2: Back on the Streets
    Disc Number / Letter: 2
    Disc Title: (OPTIONAL)
    System: Sony PlayStation
    Media Type: CD-ROM
    Category: Games
    Fully Matching ID: 27191
    Region: Europe
    Languages: SILENCE! (CHANGE THIS)
    Disc Serial: SLES-12994#

    Ringcode Information:

Data Side Mastering Code (laser branded/etched): (REQUIRED, IF EXISTS)
Data Side Mastering SID Code: (REQUIRED, IF EXISTS)
Data Side Toolstamp or Mastering Code (engraved/stamped): (REQUIRED, IF EXISTS)
Data Side Mould SID Code: IFPI 947Q
Data Side Additional Mould: (REQUIRED, IF EXISTS)
Label Side Mould SID Code: (REQUIRED, IF EXISTS)

    Barcode: 3 546430 012734
    EXE/Build Date: 2000-10-31
    Error Count: 0
    Comments:

[T:ISN] SLES-12994
[T:VOL] DRIVER2
(OPTIONAL)

    Contents: (OPTIONAL)

Version and Editions:
    Version: (REQUIRED, IF EXISTS)
    Edition/Release: (VERIFY THIS) Original

EDC:
    EDC: Yes

Extras:
    Primary Volume Descriptor (PVD):

0320 : 20 20 20 20 20 20 20 20  20 20 20 20 20 30 30 30                000
0330 : 30 31 31 30 31 31 36 30  30 30 30 30 30 00 30 30   0110116000000.00
0340 : 30 30 30 30 30 30 30 30  30 30 30 30 30 30 00 30   00000000000000.0
0350 : 30 30 30 30 30 30 30 30  30 30 30 30 30 30 30 00   000000000000000.
0360 : 30 30 30 30 30 30 30 30  30 30 30 30 30 30 30 30   0000000000000000
0370 : 00 01 00 00 00 00 00 00  00 00 00 00 00 00 00 00   ................

Copy Protection:
    Anti-modchip: No
    LibCrypt: No
    SubIntention Data (SecuROM/LibCrypt):

Tracks and Write Offsets:
    DAT:

<rom name="DRIVER2.bin" size="622628496" crc="5deb871e" md5="75f6389d04ad44148b871c6b3bf789c1" sha1="81814f4ad82ddb43af60997db0076d479a64eb2f" />

    Cuesheet:

FILE "DRIVER2.bin" BINARY
  TRACK 01 MODE2/2352
    INDEX 01 00:00:00

    Write Offset: -647

Dumping Info:
    Frontend Version: 3.1.5-771483ac146302cf6634037db23cd336b0d1c97a
    Dumping Program: Redumper v2024.01.08 build_311
    Date: 2024-04-05 21:25:24
    Manufacturer: PLEXTOR
    Model: DVDR PX-712A
    Firmware: 1.09 (03/31/06 10:00)
    Reported Disc Type: CD-ROM
    C2 Error Count: 0

Matches : http://redump.org/disc/510/

Photo of disc Serial included !

Logs : https://cdn.discordapp.com/attachments/ … 4219c&


Common Disc Info:
    Title: Grand Theft Auto III
    Disc Number / Letter: (OPTIONAL)
    Disc Title: (OPTIONAL)
    System: Sony PlayStation 2
    Media Type: DVD-ROM-5
    Category: Games
    Fully Matching ID: 510
    Region: Europe
    Languages: SILENCE! (CHANGE THIS)
    Language Selection Via: Bios settings, Language selector, Options menu
    Disc Serial: SLES-50330/EURO#

    Ringcode Information:

Data Side Mastering Code (laser branded/etched): Sony DADC    A0100387509-A511    47
Data Side Mastering SID Code: IFPI L557
Data Side Toolstamp or Mastering Code (engraved/stamped): B1
Data Side Mould SID Code:
Data Side Additional Mould: (REQUIRED, IF EXISTS)
Label Side Mould SID Code: (REQUIRED, IF EXISTS)

    Barcode: (OPTIONAL)
    EXE/Build Date: 2001-10-07
    Comments:

[T:ISN] SLES-50330
[T:VOL] GTA3
(OPTIONAL)

    Contents: (OPTIONAL)

Version and Editions:
    Version: 1.60
    Edition/Release: (VERIFY THIS) Original

Extras:
    Primary Volume Descriptor (PVD):

0320 : 20 20 20 20 20 20 20 20  20 20 20 20 20 32 30 30                200
0330 : 31 31 30 30 37 32 33 30  34 30 32 30 30 24 30 30   1100723040200$00
0340 : 30 30 30 30 30 30 30 30  30 30 30 30 30 30 00 30   00000000000000.0
0350 : 30 30 30 30 30 30 30 30  30 30 30 30 30 30 30 00   000000000000000.
0360 : 30 30 30 30 30 30 30 30  30 30 30 30 30 30 30 30   0000000000000000
0370 : 00 01 00 00 00 00 00 00  00 00 00 00 00 00 00 00   ................

Size & Checksum:
    Size: 4698767360
    CRC32: 1582e336
    MD5: df2302b38dc447e0f63a0336e759fb46
    SHA1: 8eddc0d173a889bac2afd4650ae97cd17b7566e9

Dumping Info:
    Dumping Program: Redumper v2024.01.08 build_311
    Date: 2024-03-11 21:41:35
    Manufacturer: TS8XDVDS
    Model: TRANSCEND
    Firmware: 1.02 (J045803 K0NL4LA2347)
    Reported Disc Type: DVD-ROM

6

(0 replies, posted in Verifications)

Just dumped Disc 1 of a 2 Disc box, the second disc (the one here) is already dumped.

Logs : https://cdn.discordapp.com/attachments/ … e6a4d&

Matching : http://redump.org/disc/62039/

IT SAYS PLAYSTATION IN THE LOGS BECAUSE I FORGOT TO CHANGE THE PLATFORM (MPF auto Put it as playstation and i didn't realise)

Common Disc Info:
    Title: Rayman M
    Foreign Title (Non-latin): 雷曼竞技场
    Disc Number / Letter: 2
    Disc Title: (OPTIONAL)
    System: IBM PC compatible
    Media Type: CD-ROM
    Category: Games
    Fully Matching ID: 62039
    Region: World
    Languages: SILENCE! (CHANGE THIS)
    Disc Serial: (REQUIRED, IF EXISTS)

    Ringcode Information:

Data Side Mastering Code (laser branded/etched): MPO    5001350CD2 01 AOUT 02 @@    20020807 0543 @@ 4
Data Side Mastering SID Code: IFPI L032
Data Side Toolstamp or Mastering Code (engraved/stamped): 01
Data Side Mould SID Code: IFPI 1211
Data Side Additional Mould: (REQUIRED, IF EXISTS)
Label Side Mould SID Code: (REQUIRED, IF EXISTS)

    Barcode: 3 307210 115034
    Error Count: 0
    Comments:

[T:VOL] RAYMANM2
(OPTIONAL)

    Contents: (OPTIONAL)

Version and Editions:
    Version: (REQUIRED, IF EXISTS)
    Edition/Release: Ubisoft eXclusive

EDC:
    EDC: No

Extras:
    Primary Volume Descriptor (PVD):

0320 : 20 20 20 20 20 20 20 20  20 20 20 20 20 32 30 30                200
0330 : 31 31 31 32 30 31 33 31  33 30 38 30 30 04 32 30   1112013130800.20
0340 : 30 31 31 31 32 30 31 33  31 33 30 38 30 30 04 32   01112013130800.2
0350 : 30 31 31 31 31 32 30 31  33 31 33 30 38 30 30 04   011112013130800.
0360 : 32 30 30 31 31 31 32 30  31 33 31 33 30 38 30 30   2001112013130800
0370 : 04 01 00 43 44 20 52 65  70 20 32 2E 30 2E 31 34   ...CD Rep 2.0.14

Copy Protection:
    Anti-modchip: No
    LibCrypt: No

Tracks and Write Offsets:
    DAT:

<rom name="RAYMANM2.bin" size="676155312" crc="7312d316" md5="11da123fa37e2cd26b2c23ef494683e9" sha1="e4ceb5f08a50a8ccbc20e02ffa47e889b2f36d98" />

    Cuesheet:

FILE "RAYMANM2.bin" BINARY
  TRACK 01 MODE1/2352
    INDEX 01 00:00:00

    Write Offset: -12

Dumping Info:
    Dumping Program: Redumper v2024.01.08 build_311
    Date: 2024-02-07 00:59:06
    Manufacturer: PLEXTOR
    Model: DVDR PX-712A
    Firmware: 1.09 (03/31/06 10:00)
    Reported Disc Type: CD-ROM