http://redump.org/disc/65675/


Common Disc Info:
    Title: Bloodstained: Ritual Of The Night Original Soundtrack
    Foreign Title (Non-latin): 
    Disc Number / Letter: 2
    Disc Title: 
    System: Audio CD
    Media Type: CD-ROM
    Category: Audio
    Region: USA
    Languages: 
    Disc Serial: 

    Ringcode Information:
        Data Side Mastering Code (laser branded/etched): 7203 BLOODSTD2 H90721-03C 4032
        Data Side Mastering SID Code: IFPIL248
        Data Side Toolstamp or Mastering Code (engraved/stamped): 101
        Data Side Mould SID Code: IFPI 2F29
        Data Side Additional Mould: 
        Label Side Mould SID Code: 
        Label Side Additional Mould: 
    Barcode: 
    Error Count: 0
    Comments: 
    Contents:

01 Theme of Gebel [Keisuke Ito]
02 Theme of Dominique [Michiru Yamane]
03 Theme of Johannes [Keisuke Ito]
04 Theme of Zangetsu [Keisuke Ito]
05 Theme of Alfred [Michiru Yamane]
06 Theme of OD [Ryusuke Fujioka]
07 In Peace's Embrace [Keisuke Ito]
08 Foreboding [Ryusuke Fujioka]
09 Surpassing Grief [Keisuke Ito]
10 Attack of the Grotesque [Michiru Yamane]
11 The Executioners [Ryusuke Fujioka]
12 Honoring the Oath [Michiru Yamane]
13 Exorschism [Keisuke Ito]
14 Silent Howling [Ryusuke Fujioka]
15 Repentance [Michiru Yamane]
16 King of Kings [Keisuke Ito]
17 Theme of Bloodstained (Piano) [Michiru Yamane]
18 Theme of Bloodstained (Vocal) [Michiru Yamane]
19 An Unclouded Sky [Ryusuke Fujioka]
20 End Credits [Michiru Yamane]
21 Valiant Stride [Atsuhiro Ishizuna]
22 Silent Howling (8-Bit) [Keisuke Ito]
23 Game Over [Keisuke Ito]
24 Theme of Tamako [Ryusuke Fujioka]
25 Brave Trigger [Michiru Yamane]
26 Sinister Sign [Michiru Yamane]
27 Everblack [Atsuhiro Ishizuna]
28 Fear [Keisuke Ito]

Version and Editions:
    Version: 
    Edition/Release: Kickstarter Limited Edition

Extras:
    Primary Volume Descriptor (PVD): Disc has no PVD

Tracks and Write Offsets:
    DAT:

<rom name="Bloodstained - Ritual Of The Night Soundtrack (Disc 2) (Track 01).bin" size="22266384" crc="d3226005" md5="f71ca833b826188aa315cb30976d918e" sha1="84d4a1813d53a8ca6863a9e3299e0f641893250c" />
<rom name="Bloodstained - Ritual Of The Night Soundtrack (Disc 2) (Track 02).bin" size="49039200" crc="1cc77211" md5="b5c158c2d203579196e0a230f7a292c3" sha1="b2e5c6c4a3cb51c03b6b5c495148001d88343f73" />
<rom name="Bloodstained - Ritual Of The Night Soundtrack (Disc 2) (Track 03).bin" size="20311872" crc="a4a94992" md5="ea9bc3b126115092fe28e193f9b6d4d7" sha1="7b76d2e97c48be8ff87b64a6e946015b9173363a" />
<rom name="Bloodstained - Ritual Of The Night Soundtrack (Disc 2) (Track 04).bin" size="23734032" crc="64cae2a1" md5="53521d9896445d9a77d11f5a18f5f1d0" sha1="7e21ca666aee2533bf4af0df243907de38f370ec" />
<rom name="Bloodstained - Ritual Of The Night Soundtrack (Disc 2) (Track 05).bin" size="33762960" crc="820f1d09" md5="70d9d0cc207ab4b0e01ca782e005b0d2" sha1="3b43534e8093500df6dceac242668f51c8fefb98" />
<rom name="Bloodstained - Ritual Of The Night Soundtrack (Disc 2) (Track 06).bin" size="23047248" crc="3e9e6981" md5="1ee8aa24f3aa39074746b264d30ba628" sha1="2f323c814bf8cf096463cffb219b55ba65c47ef3" />
<rom name="Bloodstained - Ritual Of The Night Soundtrack (Disc 2) (Track 07).bin" size="21029232" crc="ca193421" md5="34fef1848ed2e0dc3d10dbfb81ac6e24" sha1="c19a366ae9d1aa1f814ffdf1fa0d31af7cc76938" />
<rom name="Bloodstained - Ritual Of The Night Soundtrack (Disc 2) (Track 08).bin" size="8989344" crc="4d53006f" md5="d2ffb906b8d3e8a31069a400d27f71fa" sha1="98f33be4bf862b9b62d28e676d6c85c8cb4b772c" />
<rom name="Bloodstained - Ritual Of The Night Soundtrack (Disc 2) (Track 09).bin" size="24138576" crc="cbb1598f" md5="5e2f3056e00a171c415e1c04afa3a626" sha1="66eac65a2c634c83db8a6d4c70389b1c14656f4c" />
<rom name="Bloodstained - Ritual Of The Night Soundtrack (Disc 2) (Track 10).bin" size="34574400" crc="58779c8b" md5="8257c76a35d91666232270e4e80867c4" sha1="9863680e3b41285081a17f08c4722d89e6703f9f" />
<rom name="Bloodstained - Ritual Of The Night Soundtrack (Disc 2) (Track 11).bin" size="20001408" crc="f515f6e7" md5="50b3a6ae345860b569d33dfaadfc928b" sha1="7323c5e55b8c21f37d1f781a5a3212bb6275e10f" />
<rom name="Bloodstained - Ritual Of The Night Soundtrack (Disc 2) (Track 12).bin" size="42512400" crc="7abc2509" md5="25ebdc2ea6a35c434c391ee651e40757" sha1="a0b4bd19e8357b0a1efbd82a21ebf5589ea10a4d" />
<rom name="Bloodstained - Ritual Of The Night Soundtrack (Disc 2) (Track 13).bin" size="24402000" crc="bb5e92af" md5="6759e5e555ba2cf0f043ae35f79ac940" sha1="760eb3d2159d412dc609797fd0b465156fffc005" />
<rom name="Bloodstained - Ritual Of The Night Soundtrack (Disc 2) (Track 14).bin" size="22233456" crc="538eb272" md5="64d8b3db37ecff713183c033cd4b4fcd" sha1="8a0601b166da91b7576dfee91b86d487d972524c" />
<rom name="Bloodstained - Ritual Of The Night Soundtrack (Disc 2) (Track 15).bin" size="45758160" crc="a36fd679" md5="414e50c4dbfec88c62e1b169132c8618" sha1="e9e97f1f7cbb0e1541750962e79603c456cbb285" />
<rom name="Bloodstained - Ritual Of The Night Soundtrack (Disc 2) (Track 16).bin" size="22633296" crc="1be020d0" md5="d7d4b25f95454be1d007c765a7d52b48" sha1="b5c4909474144b6d2d8ed7e5a5bb533a3be81aab" />
<rom name="Bloodstained - Ritual Of The Night Soundtrack (Disc 2) (Track 17).bin" size="12653760" crc="0966d77f" md5="ca45a0a6272e16c0d45b6368e29164d2" sha1="9a0890712234bb1e966462f5218500d907527bbc" />
<rom name="Bloodstained - Ritual Of The Night Soundtrack (Disc 2) (Track 18).bin" size="12818400" crc="2141feff" md5="92d891b2f9b9783481a70661d2892878" sha1="55914322b80e497d990d708c55df9844d495d5cf" />
<rom name="Bloodstained - Ritual Of The Night Soundtrack (Disc 2) (Track 19).bin" size="18522000" crc="b584353c" md5="e177c0fc476783fe2fd1c2937c606169" sha1="5e8d13d969c43ad6955a0a4824aedfa7b468b2da" />
<rom name="Bloodstained - Ritual Of The Night Soundtrack (Disc 2) (Track 20).bin" size="41343456" crc="76a8ed6e" md5="b2938d404fcb6826eb4b692545e56ecc" sha1="433a41fa0ee951e784fa00f50df1cec07ec08a4e" />
<rom name="Bloodstained - Ritual Of The Night Soundtrack (Disc 2) (Track 21).bin" size="17719968" crc="d758ca27" md5="9cf2b7ba7776cbe87dbc2795773e3e14" sha1="1feb13c2737f386b67b978ef7d1db2d22ff3a227" />
<rom name="Bloodstained - Ritual Of The Night Soundtrack (Disc 2) (Track 22).bin" size="20177808" crc="943576cd" md5="b2b8aaf7be8d9b55f7a9018d4397e84a" sha1="ecff1551388d1be02b8f5cda223a94432b71cb3f" />
<rom name="Bloodstained - Ritual Of The Night Soundtrack (Disc 2) (Track 23).bin" size="1088976" crc="a23780d3" md5="4fa36579922dd25dbd082608ae4af7b6" sha1="b97d7cf8ccb7e5de5942115f452fb14c5ba413da" />
<rom name="Bloodstained - Ritual Of The Night Soundtrack (Disc 2) (Track 24).bin" size="6524448" crc="0cafdc89" md5="1bf8908037ba3c318e2c7625bd69b738" sha1="6bb3b8701305f626c61e36f0256ce37e29650637" />
<rom name="Bloodstained - Ritual Of The Night Soundtrack (Disc 2) (Track 25).bin" size="23404752" crc="81edcc28" md5="8a79fc19e6afc6d2fce0e220288eb159" sha1="a5f5416b88a6fb909d05b06ef111f03fef58d6a0" />
<rom name="Bloodstained - Ritual Of The Night Soundtrack (Disc 2) (Track 26).bin" size="23755200" crc="298d0fd9" md5="cee5ab63f98690bba14ec74d70bf1a5d" sha1="55db2c9079b74be44330b9a5bb275563ae336679" />
<rom name="Bloodstained - Ritual Of The Night Soundtrack (Disc 2) (Track 27).bin" size="16934400" crc="caed47c1" md5="c161d6e8b5dc05e8a4d61240d0bf3721" sha1="e371bc4b2100af2bcb8c884533b0aef572ef53de" />
<rom name="Bloodstained - Ritual Of The Night Soundtrack (Disc 2) (Track 28).bin" size="21344400" crc="037592e1" md5="20cafd9a5be715fae5f99b8cca2117d7" sha1="2ffce5406aa48d306a2a6d23166da32d2f694be8" />

    Cuesheet:

TITLE "Bloodstained: Ritual of the Night OST (Disc 2)"
PERFORMER "Various Artists"
FILE "Bloodstained - Ritual Of The Night Soundtrack (Disc 2) (Track 01).bin" BINARY
  TRACK 01 AUDIO
    TITLE "Theme of Gebel"
    PERFORMER "Keisuke Ito"
    INDEX 01 00:00:00
FILE "Bloodstained - Ritual Of The Night Soundtrack (Disc 2) (Track 02).bin" BINARY
  TRACK 02 AUDIO
    TITLE "Theme of Dominique"
    PERFORMER "Michiru Yamane"
    INDEX 01 00:00:00
FILE "Bloodstained - Ritual Of The Night Soundtrack (Disc 2) (Track 03).bin" BINARY
  TRACK 03 AUDIO
    TITLE "Theme of Johannes"
    PERFORMER "Keisuke Ito"
    INDEX 01 00:00:00
FILE "Bloodstained - Ritual Of The Night Soundtrack (Disc 2) (Track 04).bin" BINARY
  TRACK 04 AUDIO
    TITLE "Theme of Zangetsu"
    PERFORMER "Keisuke Ito"
    INDEX 01 00:00:00
FILE "Bloodstained - Ritual Of The Night Soundtrack (Disc 2) (Track 05).bin" BINARY
  TRACK 05 AUDIO
    TITLE "Theme of Alfred"
    PERFORMER "Michiru Yamane"
    INDEX 01 00:00:00
FILE "Bloodstained - Ritual Of The Night Soundtrack (Disc 2) (Track 06).bin" BINARY
  TRACK 06 AUDIO
    TITLE "Theme of OD"
    PERFORMER "Ryusuke Fujioka"
    INDEX 01 00:00:00
FILE "Bloodstained - Ritual Of The Night Soundtrack (Disc 2) (Track 07).bin" BINARY
  TRACK 07 AUDIO
    TITLE "In Peace's Embrace"
    PERFORMER "Keisuke Ito"
    INDEX 01 00:00:00
FILE "Bloodstained - Ritual Of The Night Soundtrack (Disc 2) (Track 08).bin" BINARY
  TRACK 08 AUDIO
    TITLE "Foreboding"
    PERFORMER "Ryusuke Fujioka"
    INDEX 01 00:00:00
FILE "Bloodstained - Ritual Of The Night Soundtrack (Disc 2) (Track 09).bin" BINARY
  TRACK 09 AUDIO
    TITLE "Surpassing Grief"
    PERFORMER "Keisuke Ito"
    INDEX 01 00:00:00
FILE "Bloodstained - Ritual Of The Night Soundtrack (Disc 2) (Track 10).bin" BINARY
  TRACK 10 AUDIO
    TITLE "Attack of the Grotesque"
    PERFORMER "Michiru Yamane"
    INDEX 01 00:00:00
FILE "Bloodstained - Ritual Of The Night Soundtrack (Disc 2) (Track 11).bin" BINARY
  TRACK 11 AUDIO
    TITLE "The Executioners"
    PERFORMER "Ryusuke Fujioka"
    INDEX 01 00:00:00
FILE "Bloodstained - Ritual Of The Night Soundtrack (Disc 2) (Track 12).bin" BINARY
  TRACK 12 AUDIO
    TITLE "Honoring the Oath"
    PERFORMER "Michiru Yamane"
    INDEX 01 00:00:00
FILE "Bloodstained - Ritual Of The Night Soundtrack (Disc 2) (Track 13).bin" BINARY
  TRACK 13 AUDIO
    TITLE "Exorschism"
    PERFORMER "Keisuke Ito"
    INDEX 01 00:00:00
FILE "Bloodstained - Ritual Of The Night Soundtrack (Disc 2) (Track 14).bin" BINARY
  TRACK 14 AUDIO
    TITLE "Silent Howling"
    PERFORMER "Ryusuke Fujioka"
    INDEX 01 00:00:00
FILE "Bloodstained - Ritual Of The Night Soundtrack (Disc 2) (Track 15).bin" BINARY
  TRACK 15 AUDIO
    TITLE "Repentance"
    PERFORMER "Michiru Yamane"
    INDEX 01 00:00:00
FILE "Bloodstained - Ritual Of The Night Soundtrack (Disc 2) (Track 16).bin" BINARY
  TRACK 16 AUDIO
    TITLE "King of Kings"
    PERFORMER "Keisuke Ito"
    INDEX 01 00:00:00
FILE "Bloodstained - Ritual Of The Night Soundtrack (Disc 2) (Track 17).bin" BINARY
  TRACK 17 AUDIO
    TITLE "Theme of Bloodstained (Piano)"
    PERFORMER "Michiru Yamane"
    INDEX 01 00:00:00
FILE "Bloodstained - Ritual Of The Night Soundtrack (Disc 2) (Track 18).bin" BINARY
  TRACK 18 AUDIO
    TITLE "Theme of Bloodstained (Vocal)"
    PERFORMER "Michiru Yamane"
    INDEX 01 00:00:00
FILE "Bloodstained - Ritual Of The Night Soundtrack (Disc 2) (Track 19).bin" BINARY
  TRACK 19 AUDIO
    TITLE "An Unclouded Sky"
    PERFORMER "Ryusuke Fujioka"
    INDEX 01 00:00:00
FILE "Bloodstained - Ritual Of The Night Soundtrack (Disc 2) (Track 20).bin" BINARY
  TRACK 20 AUDIO
    TITLE "End Credits"
    PERFORMER "Michiru Yamane"
    INDEX 01 00:00:00
FILE "Bloodstained - Ritual Of The Night Soundtrack (Disc 2) (Track 21).bin" BINARY
  TRACK 21 AUDIO
    TITLE "Valiant Stride"
    PERFORMER "Atsuhiro Ishizuna"
    INDEX 01 00:00:00
FILE "Bloodstained - Ritual Of The Night Soundtrack (Disc 2) (Track 22).bin" BINARY
  TRACK 22 AUDIO
    TITLE "Silent Howling (8-Bit)"
    PERFORMER "Keisuke Ito"
    INDEX 01 00:00:00
FILE "Bloodstained - Ritual Of The Night Soundtrack (Disc 2) (Track 23).bin" BINARY
  TRACK 23 AUDIO
    TITLE "Game Over"
    PERFORMER "Keisuke Ito"
    INDEX 01 00:00:00
FILE "Bloodstained - Ritual Of The Night Soundtrack (Disc 2) (Track 24).bin" BINARY
  TRACK 24 AUDIO
    TITLE "Theme of Tamako"
    PERFORMER "Ryusuke Fujioka"
    INDEX 01 00:00:00
FILE "Bloodstained - Ritual Of The Night Soundtrack (Disc 2) (Track 25).bin" BINARY
  TRACK 25 AUDIO
    TITLE "Brave Trigger"
    PERFORMER "Michiru Yamane"
    INDEX 01 00:00:00
FILE "Bloodstained - Ritual Of The Night Soundtrack (Disc 2) (Track 26).bin" BINARY
  TRACK 26 AUDIO
    TITLE "Sinister Sign"
    PERFORMER "Michiru Yamane"
    INDEX 01 00:00:00
FILE "Bloodstained - Ritual Of The Night Soundtrack (Disc 2) (Track 27).bin" BINARY
  TRACK 27 AUDIO
    TITLE "Everblack"
    PERFORMER "Atsuhiro Ishizuna"
    INDEX 01 00:00:00
FILE "Bloodstained - Ritual Of The Night Soundtrack (Disc 2) (Track 28).bin" BINARY
  TRACK 28 AUDIO
    TITLE "Fear"
    PERFORMER "Keisuke Ito"
    INDEX 01 00:00:00

    Write Offset: 0

Log files:
https://drive.google.com/file/d/1ToLZ-_ … drive_link

Redumper files:
https://drive.google.com/file/d/1evZR9U … drive_link

Photos:
https://drive.google.com/file/d/1mVZoWO … drive_link

http://redump.org/disc/65674/


Common Disc Info:
    Title: Bloodstained: Ritual Of The Night Original Soundtrack
    Foreign Title (Non-latin): 
    Disc Number / Letter: 1
    Disc Title: 
    System: Audio CD
    Media Type: CD-ROM
    Category: Audio
    Region: USA
    Languages: 
    Disc Serial: 

    Ringcode Information:
        Data Side Mastering Code (laser branded/etched): 7203 BLOODSTD1 H90721-02C 3861
        Data Side Mastering SID Code: IFPIL248
        Data Side Toolstamp or Mastering Code (engraved/stamped): 201
        Data Side Mould SID Code: IFPI 2F29
        Data Side Additional Mould: 
        Label Side Mould SID Code: 
        Label Side Additional Mould: 
    Barcode: 
    Error Count: 0
    Comments: 
    Contents:

01. Theme of Bloodstained [Michiru Yamane]
02. Call of Eternity [Michiru Yamane]
03. Prologue [Keisuke Ito]
04. Voyage of Promise [Michiru Yamane]
05. Luxurious Overture [Michiru Yamane]
06. Lost Garden [Michiru Yamane]
07. Holy Wisdom [Michiru Yamane]
08. Gears of Fortune [Ryusuke Fujioka]
09. Bibliotheca Ex Machina [Michiru Yamane]
10. Overdrive [Keisuke Ito]
11. Vestiges of Corruption [Ryusuke Fujioka]
12. Ritual of the Night [Michiru Yamane]
13. Forgotten Jade [Michiru Yamane]
14. Interred Glory [Michiru Yamane]
15. Cursed Orphan [Ippo Yamada]
16. Autumn's Desolation [Keisuke Ito]
17. Goliath [Ryusuke Fujioka]
18. Terminus [Ryusuke Fujioka]

Version and Editions:
    Version: 
    Edition/Release: Kickstarter Limited Edition

Extras:
    Primary Volume Descriptor (PVD): Disc has no PVD

Tracks and Write Offsets:
    DAT:

<rom name="Bloodstained - Ritual Of The Night Soundtrack (Disc 1) (Track 01).bin" size="31989552" crc="db58d7b4" md5="3b358fe71a20081b947f2fe5962ff972" sha1="dd6cbade4ff3c964d70718b6bd6a7eeed70c266a" />
<rom name="Bloodstained - Ritual Of The Night Soundtrack (Disc 1) (Track 02).bin" size="48510000" crc="709ff58c" md5="611135deb45b9773235638b26e6453d5" sha1="7e65a7dded5b676ddfe832b1de5a9d2cae8a43b9" />
<rom name="Bloodstained - Ritual Of The Night Soundtrack (Disc 1) (Track 03).bin" size="27250272" crc="8475c0e6" md5="581b03a3c8dffb302e9323e666003e8e" sha1="940200b4cab3fc93d3ac1e71d4033a5f39f7f414" />
<rom name="Bloodstained - Ritual Of The Night Soundtrack (Disc 1) (Track 04).bin" size="60599280" crc="d3b71732" md5="0f811aa97ad049da3ea1813e6a336d77" sha1="eef970be675d9e28f1b296398b8fe64d584ba64e" />
<rom name="Bloodstained - Ritual Of The Night Soundtrack (Disc 1) (Track 05).bin" size="45936912" crc="ad30a95d" md5="f59530be072cd5f47c47b3bf85de759f" sha1="75337e2ee56555b62d527052d4a0316624a7d2e2" />
<rom name="Bloodstained - Ritual Of The Night Soundtrack (Disc 1) (Track 06).bin" size="46183872" crc="d0e3fb24" md5="bc0cbd9e1762ad6f64085dab084a648d" sha1="114fbd89f5f72461195049b659ed6386e1d717cc" />
<rom name="Bloodstained - Ritual Of The Night Soundtrack (Disc 1) (Track 07).bin" size="52134432" crc="7f5b2c8c" md5="a0e65a851aabef7651876f32bdd71f49" sha1="b744eb0225efb559fcbb8073c239feefa75ba2ea" />
<rom name="Bloodstained - Ritual Of The Night Soundtrack (Disc 1) (Track 08).bin" size="30448992" crc="2572e5dd" md5="3add00b3057b095b5953f6d83c571330" sha1="7fea5cbf564890a0558dd40df6beba9679bbe5b9" />
<rom name="Bloodstained - Ritual Of The Night Soundtrack (Disc 1) (Track 09).bin" size="65206848" crc="90f01273" md5="5495a23cabbbe646df2c4ee3d3111fe4" sha1="daea3ac86f9f138c9e0598354c823b0a95dcd042" />
<rom name="Bloodstained - Ritual Of The Night Soundtrack (Disc 1) (Track 10).bin" size="34597920" crc="3a183ebc" md5="48d995b0c31a6651346785227bbc54ad" sha1="39fb5f05a0f26ae49aba06b1be624165640a6655" />
<rom name="Bloodstained - Ritual Of The Night Soundtrack (Disc 1) (Track 11).bin" size="22685040" crc="aa4a1f74" md5="f4f0775c591cf8ae0006f74324ae1570" sha1="f319af8ea0f7fdcd9fdfd09cb5401930da12a06b" />
<rom name="Bloodstained - Ritual Of The Night Soundtrack (Disc 1) (Track 12).bin" size="45511200" crc="b2974e5d" md5="2a72043f687223e364a75dc909bc8602" sha1="b5379078045f08cee706fdeddabc6730913cbe33" />
<rom name="Bloodstained - Ritual Of The Night Soundtrack (Disc 1) (Track 13).bin" size="68796000" crc="9b6cf9cc" md5="edee12c72a39af57960956b21064ae51" sha1="a6390b1f5db5b406b9eeca599ed3ab7312699188" />
<rom name="Bloodstained - Ritual Of The Night Soundtrack (Disc 1) (Track 14).bin" size="50274000" crc="46d3a4e9" md5="554b864b614c2d9ff2b3777e9f9d421c" sha1="05015ccf136baeb68a03fb00f4c02218dcca2e34" />
<rom name="Bloodstained - Ritual Of The Night Soundtrack (Disc 1) (Track 15).bin" size="12096336" crc="2aedabf5" md5="66dd11e1effe8b909c4d0f4efedaa853" sha1="e29bf8ae822d44ffa59ca938474a15fe70234cc2" />
<rom name="Bloodstained - Ritual Of The Night Soundtrack (Disc 1) (Track 16).bin" size="30011520" crc="48fc7f41" md5="1254bf34a72fe3eed1ab09774eff179c" sha1="64cb2299be32a691d2824286f226f7143fbb7f76" />
<rom name="Bloodstained - Ritual Of The Night Soundtrack (Disc 1) (Track 17).bin" size="27922944" crc="8367933e" md5="81c329212568bbf63c65602778cf0b91" sha1="c013b241311247e5b79b24ea93448fcfb7b3c3ae" />
<rom name="Bloodstained - Ritual Of The Night Soundtrack (Disc 1) (Track 18).bin" size="26227152" crc="fd760ea7" md5="c347b07470fed4519fd4ce77ffab0b64" sha1="cd7a13662eab6c9fc52009021a2c30139c645fe3" />

    Cuesheet:

TITLE "Bloodstained: Ritual of the Night OST (Disc 1)"
PERFORMER "Various Artists"
FILE "Bloodstained - Ritual Of The Night Soundtrack (Disc 1) (Track 01).bin" BINARY
  TRACK 01 AUDIO
    TITLE "Theme of Bloodstained"
    PERFORMER "Michiru Yamane"
    INDEX 01 00:00:00
FILE "Bloodstained - Ritual Of The Night Soundtrack (Disc 1) (Track 02).bin" BINARY
  TRACK 02 AUDIO
    TITLE "Call of Eternity"
    PERFORMER "Michiru Yamane"
    INDEX 01 00:00:00
FILE "Bloodstained - Ritual Of The Night Soundtrack (Disc 1) (Track 03).bin" BINARY
  TRACK 03 AUDIO
    TITLE "Prologue"
    PERFORMER "Keisuke Ito"
    INDEX 01 00:00:00
FILE "Bloodstained - Ritual Of The Night Soundtrack (Disc 1) (Track 04).bin" BINARY
  TRACK 04 AUDIO
    TITLE "Voyage of Promise"
    PERFORMER "Michiru Yamane"
    INDEX 01 00:00:00
FILE "Bloodstained - Ritual Of The Night Soundtrack (Disc 1) (Track 05).bin" BINARY
  TRACK 05 AUDIO
    TITLE "Luxurious Overture"
    PERFORMER "Michiru Yamane"
    INDEX 01 00:00:00
FILE "Bloodstained - Ritual Of The Night Soundtrack (Disc 1) (Track 06).bin" BINARY
  TRACK 06 AUDIO
    TITLE "Lost Garden"
    PERFORMER "Michiru Yamane"
    INDEX 01 00:00:00
FILE "Bloodstained - Ritual Of The Night Soundtrack (Disc 1) (Track 07).bin" BINARY
  TRACK 07 AUDIO
    TITLE "Holy Wisdom"
    PERFORMER "Michiru Yamane"
    INDEX 01 00:00:00
FILE "Bloodstained - Ritual Of The Night Soundtrack (Disc 1) (Track 08).bin" BINARY
  TRACK 08 AUDIO
    TITLE "Gears of Fortune"
    PERFORMER "Ryusuke Fujioka"
    INDEX 01 00:00:00
FILE "Bloodstained - Ritual Of The Night Soundtrack (Disc 1) (Track 09).bin" BINARY
  TRACK 09 AUDIO
    TITLE "Bibliotheca Ex Machina"
    PERFORMER "Michiru Yamane"
    INDEX 01 00:00:00
FILE "Bloodstained - Ritual Of The Night Soundtrack (Disc 1) (Track 10).bin" BINARY
  TRACK 10 AUDIO
    TITLE "Overdrive"
    PERFORMER "Keisuke Ito"
    INDEX 01 00:00:00
FILE "Bloodstained - Ritual Of The Night Soundtrack (Disc 1) (Track 11).bin" BINARY
  TRACK 11 AUDIO
    TITLE "Vestiges of Corruption"
    PERFORMER "Ryusuke Fujioka"
    INDEX 01 00:00:00
FILE "Bloodstained - Ritual Of The Night Soundtrack (Disc 1) (Track 12).bin" BINARY
  TRACK 12 AUDIO
    TITLE "Ritual of the Night"
    PERFORMER "Michiru Yamane"
    INDEX 01 00:00:00
FILE "Bloodstained - Ritual Of The Night Soundtrack (Disc 1) (Track 13).bin" BINARY
  TRACK 13 AUDIO
    TITLE "Forgotten Jade"
    PERFORMER "Michiru Yamane"
    INDEX 01 00:00:00
FILE "Bloodstained - Ritual Of The Night Soundtrack (Disc 1) (Track 14).bin" BINARY
  TRACK 14 AUDIO
    TITLE "Interred Glory"
    PERFORMER "Michiru Yamane"
    INDEX 01 00:00:00
FILE "Bloodstained - Ritual Of The Night Soundtrack (Disc 1) (Track 15).bin" BINARY
  TRACK 15 AUDIO
    TITLE "Cursed Orphan"
    PERFORMER "Ippo Yamada"
    INDEX 01 00:00:00
FILE "Bloodstained - Ritual Of The Night Soundtrack (Disc 1) (Track 16).bin" BINARY
  TRACK 16 AUDIO
    TITLE "Autumn's Desolation"
    PERFORMER "Keisuke Ito"
    INDEX 01 00:00:00
FILE "Bloodstained - Ritual Of The Night Soundtrack (Disc 1) (Track 17).bin" BINARY
  TRACK 17 AUDIO
    TITLE "Goliath"
    PERFORMER "Ryusuke Fujioka"
    INDEX 01 00:00:00
FILE "Bloodstained - Ritual Of The Night Soundtrack (Disc 1) (Track 18).bin" BINARY
  TRACK 18 AUDIO
    TITLE "Terminus"
    PERFORMER "Ryusuke Fujioka"
    INDEX 01 00:00:00

    Write Offset: 0

Log files:
https://drive.google.com/file/d/1HX_OYV … drive_link

Redumper files:
https://drive.google.com/file/d/1x0gchN … drive_link

Photos:
https://drive.google.com/file/d/1OJ6Ofq … drive_link

3

(0 replies, posted in Verifications)

http://redump.org/disc/39856/

Common Disc Info:
    Title: Tetsujin
    Foreign Title (Non-latin): 鉄人
    Disc Number / Letter: 
    Disc Title: 
    System: Panasonic 3DO Interactive Multiplayer
    Media Type: CD-ROM
    Category: Games
    Region: Japan
    Languages: Japanese
    Disc Serial: FZ-SJ1001

    Ringcode Information:
        Data Side Mastering Code (laser branded/etched): FZ-SJ1001    4
        Data Side Mastering SID Code: 
        Data Side Toolstamp or Mastering Code (engraved/stamped): 
        Data Side Mould SID Code: 
        Data Side Additional Mould: 
        Label Side Mould SID Code: 
        Label Side Additional Mould: 
    Barcode: 4 984824 030114
    Error Count: 0
    Comments: 
    Contents: 

Version and Editions:
    Version: 
    Edition/Release: Original

Extras:
    Primary Volume Descriptor (PVD): Disc has no PVD

Tracks and Write Offsets:
    DAT:

<rom name="Tetsujin (Japan).bin" size="434579040" crc="728de498" md5="e5c8517611b1813cd6302f29787c98e6" sha1="cb12c30da752612604145038764e27f08cfc77cc" />

    Cuesheet:

FILE "Tetsujin (Japan).bin" BINARY
  TRACK 01 MODE1/2352
    INDEX 01 00:00:00

    Write Offset: 178

Log files:
https://drive.google.com/file/d/1fcte_t … drive_link

Photos:
https://drive.google.com/file/d/1-fkQwZ … drive_link

4

(0 replies, posted in Verifications)

http://redump.org/disc/44527/

Common Disc Info:
    Title: Ultraman Powered
    Foreign Title (Non-latin): ウルトラ・マンパワード
    Disc Number / Letter: 
    Disc Title: 
    System: Panasonic 3DO Interactive Multiplayer
    Media Type: CD-ROM
    Category: Games
    Region: Japan
    Languages: Japanese
    Disc Serial: FZ-SJ1451

    Ringcode Information:
        Data Side Mastering Code (laser branded/etched): FZ-SJ1451    2
        Data Side Mastering SID Code: 
        Data Side Toolstamp or Mastering Code (engraved/stamped): 
        Data Side Mould SID Code: 
        Data Side Additional Mould: 
        Label Side Mould SID Code: 
        Label Side Additional Mould: 
    Barcode: 
    Error Count: 0
    Comments: 
    Contents: 

Version and Editions:
    Version: 
    Edition/Release: Original

Extras:
    Primary Volume Descriptor (PVD): Disc has no PVD

Tracks and Write Offsets:
    DAT:

<rom name="Ultraman Powered (Japan).bin" size="723592800" crc="063782ae" md5="f62017dcb4ccee801b190b7ba0087400" sha1="bffad219840fd6287017d6d5f42a0aacfe5430ba" />

    Cuesheet:

FILE "Ultraman Powered (Japan).bin" BINARY
  TRACK 01 MODE1/2352
    INDEX 01 00:00:00

    Write Offset: 624

Log files:
https://drive.google.com/file/d/1gBdG4D … drive_link

Photos:
https://drive.google.com/file/d/1cbCLMJ … drive_link

http://redump.org/disc/55338/

Common Disc Info:
    Title: Pretty Soldier Sailor Moon S
    Foreign Title (Non-latin): 美少女戦士セーラームーンS
    Disc Number / Letter: 
    Disc Title: 
    System: Panasonic 3DO Interactive Multiplayer
    Media Type: CD-ROM
    Category: Games
    Region: Japan
    Languages: Japanese
    Disc Serial: FZ-SJ1453

    Ringcode Information:
        Data Side Mastering Code (laser branded/etched): FZ-SJ1453    1
        Data Side Mastering SID Code: IFPI L251
        Data Side Toolstamp or Mastering Code (engraved/stamped): 
        Data Side Mould SID Code: IFPI 42A3
        Data Side Additional Mould: 
        Label Side Mould SID Code: 
        Label Side Additional Mould: 
    Barcode: 
    Error Count: 0
    Comments: 
    Contents: 

Version and Editions:
    Version: 
    Edition/Release: Original

Extras:
    Primary Volume Descriptor (PVD): Disc has no PVD

Tracks and Write Offsets:
    DAT:

<rom name="Pretty Soldier Sailor Moon S (Japan).bin" size="686765184" crc="926d3eca" md5="285ec465b40cccc212ef0fb4bc243fbe" sha1="849e04b1698e841488f2cb528a4b956e77e4fdf6" />

    Cuesheet:

FILE "Pretty Soldier Sailor Moon S (Japan).bin" BINARY
  TRACK 01 MODE1/2352
    INDEX 01 00:00:00

    Write Offset: -22

Log files:
https://drive.google.com/file/d/1NqX29t … drive_link

Photos:
https://drive.google.com/file/d/10xCsk9 … drive_link

http://redump.org/disc/63415/

Common Disc Info:
    Title: Pretty Soldier Sailor Moon S
    Foreign Title (Non-latin): 美少女戦士セーラームーンS
    Disc Number / Letter: 
    Disc Title: 
    System: Panasonic 3DO Interactive Multiplayer
    Media Type: CD-ROM
    Category: Demos
    Region: Japan
    Languages: Japanese
    Disc Serial: FZ-JJ9DSB-5B

    Ringcode Information:
        Data Side Mastering Code (laser branded/etched): FZ-JJ9DSB-5B    2
        Data Side Mastering SID Code: 
        Data Side Toolstamp or Mastering Code (engraved/stamped): 
        Data Side Mould SID Code: IFPI 42A5
        Data Side Additional Mould: 
        Label Side Mould SID Code: 
        Label Side Additional Mould: 
    Barcode: 
    Error Count: 0
    Comments: 
    Contents: 

Version and Editions:
    Version: 
    Edition/Release: Demonstration-ban

Extras:
    Primary Volume Descriptor (PVD): Disc has no PVD

Tracks and Write Offsets:
    DAT:

<rom name="Pretty Soldier Sailor Moon S (Demo) (Japan).bin" size="223487040" crc="1c318ccb" md5="66f6aa2940ee532fd5e552e1eabbc951" sha1="53088bb162054377815d12478207b7b1d1e39644" />

    Cuesheet:

CATALOG 0000000000000
FILE "Pretty Soldier Sailor Moon S (Demo) (Japan).bin" BINARY
  TRACK 01 MODE1/2352
    INDEX 01 00:00:00
    INDEX 02 21:02:71

    Write Offset: 885

Log files:
https://drive.google.com/file/d/1zZYnJ3 … drive_link

Photos:
https://drive.google.com/file/d/16hlBXT … drive_link

http://redump.org/disc/63682/


Common Disc Info:
    Title: Anno Mitsumasa Pepperon-mura no Shiki
    Foreign Title (Non-latin): 安野光雅ペペロン村の四季
    Disc Number / Letter: 
    Disc Title: 
    System: Panasonic 3DO Interactive Multiplayer
    Media Type: CD-ROM
    Category: Educational
    Region: Japan
    Languages: Japanese
    Disc Serial: FZ-SJ6351

    Ringcode Information:
        Data Side Mastering Code (laser branded/etched): FZ-SJ6351    1 +++
        Data Side Mastering SID Code: IFPI L251
        Data Side Toolstamp or Mastering Code (engraved/stamped): 
        Data Side Mould SID Code: IFPI 42A3
        Data Side Additional Mould: 
        Label Side Mould SID Code: 
        Label Side Additional Mould: 
    Barcode: 
    Error Count: 0
    Comments: 
    Contents: 

Version and Editions:
    Version: 
    Edition/Release: Original

Extras:
    Primary Volume Descriptor (PVD): Disc has no PVD

Tracks and Write Offsets:
    DAT:

<rom name="Anno Mitsumasa Pepperon-mura no Shiki (Japan).bin" size="422184000" crc="445e80f9" md5="9d2295d20446c75c4278cf8fecad3fcb" sha1="4c5306566eca1800e3f80ac36ef429de6711cf8c" />

    Cuesheet:

FILE "Anno Mitsumasa Pepperon-mura no Shiki (Japan).bin" BINARY
  TRACK 01 MODE1/2352
    INDEX 01 00:00:00
    INDEX 02 39:49:25

    Write Offset: -22

Log files:
https://drive.google.com/file/d/1vKcl6j … drive_link

Disc photos:
https://drive.google.com/file/d/1KIJHoT … drive_link

http://redump.org/disc/3304/


Official UK long box import, identical to the USA release but with BBFC "PG" rating stickers on the box, disc, and manual. Additional sticker on box reads "OFFICIAL UK VERSION". Comes with UK registration card. See photos.


Common Disc Info:
    Title: Sewer Shark
    Foreign Title (Non-latin): 
    Disc Number / Letter: 
    Disc Title: 
    System: Panasonic 3DO Interactive Multiplayer
    Media Type: CD-ROM
    Category: Games
    Region: Europe
    Languages: English
    Disc Serial: 

    Ringcode Information:
        Data Side Mastering Code (laser branded/etched): Allied Record Company    A292 DA 93002-2 R71
        Data Side Mastering SID Code: 
        Data Side Toolstamp or Mastering Code (engraved/stamped): ARC   *M1 S1
        Data Side Mould SID Code: 
        Data Side Additional Mould: 
        Label Side Mould SID Code: 
        Label Side Additional Mould: 
    Barcode: 0 52145 93002 5
    Error Count: 0
    Comments: Official UK long box import, identical to the USA release but with BBFC "PG" rating stickers on the box, disc, and manual. Additional sticker on box reads "OFFICIAL UK VERSION". Comes with UK registration card.
    Contents: 

Version and Editions:
    Version: 
    Edition/Release: Original

Extras:
    Primary Volume Descriptor (PVD): Disc has no PVD

Tracks and Write Offsets:
    DAT:

<rom name="Sewer Shark (Europe).bin" size="777218400" crc="dcd0586f" md5="9d4effda9392fc94a9e8d76b95aa7745" sha1="02886b4b34fded3b768df0a7a6d5bdd793c8ca6d" />

    Cuesheet:

CATALOG 0000000000000
FILE "Sewer Shark (Europe).bin" BINARY
  TRACK 01 MODE1/2352
    INDEX 01 00:00:00

    Write Offset: 0

Log files:
https://drive.google.com/file/d/1jeancs … drive_link

Photos:
https://drive.google.com/file/d/1-cudFk … drive_link

http://redump.org/disc/67394/


Official UK long box import, identical to the USA release but with several stickers added to the box:

Imported to Europe by
Virgin Interactive Entertainment
(Europe) Ltd
338a Ladbrooke Grove, London, W105AH
This product is exempt from classification under U.K. Law. In accordance with The Video Standards Council Code of Practice it is considered suitable for viewing by the age range(s) indicated.
ELSPA rating sticker (suitable for ages 3 and above)

Common Disc Info:
    Title: Digital Dreamware
    Foreign Title (Non-latin): 
    Disc Number / Letter: 
    Disc Title: 
    System: Panasonic 3DO Interactive Multiplayer
    Media Type: CD-ROM
    Category: Multimedia
    Region: Europe
    Languages: English
    Disc Serial: 

    Ringcode Information:
        Data Side Mastering Code (laser branded/etched): DIG93007 R1J    MFD BY JVC
        Data Side Mastering SID Code: 
        Data Side Toolstamp or Mastering Code (engraved/stamped): 12
        Data Side Mould SID Code: 
        Data Side Additional Mould: 
        Label Side Mould SID Code: 
        Label Side Additional Mould: 
    Barcode: 0 52145 93007 0
    Error Count: 0
    Comments:

Official UK long box import, identical to the USA release but with several stickers added to the box:

Imported to Europe by
Virgin Interactive Entertainment
(Europe) Ltd
338a Ladbrooke Grove, London, W105AH

This product is exempt from classification under U.K. Law. In accordance with The Video Standards Council Code of Practice it is considered suitable for viewing by the age range(s) indicated.

ELSPA rating sticker (suitable for ages 3 and above)

    Contents: 

Version and Editions:
    Version: 
    Edition/Release: Original

Extras:
    Primary Volume Descriptor (PVD): Disc has no PVD

Tracks and Write Offsets:
    DAT:

<rom name="Digital Dreamware (Europe).bin" size="506479680" crc="21acaa5f" md5="2fbe821ee7d1f55f4e48acb32435405c" sha1="b32f27db06e77adda345142c41fd712a376b2ceb" />

    Cuesheet:

CATALOG 0000000000000
FILE "Digital Dreamware (Europe).bin" BINARY
  TRACK 01 MODE1/2352
    INDEX 01 00:00:00

    Write Offset: 222

Log files:
https://drive.google.com/file/d/1qNDV_2 … drive_link

Photos:
https://drive.google.com/file/d/1HluaPZ … drive_link

10

(0 replies, posted in Verifications)

http://redump.org/disc/65794/


Common Disc Info:
    Title: Power Slide
    Foreign Title (Non-latin): 
    Disc Number / Letter: 
    Disc Title: 
    System: Panasonic 3DO Interactive Multiplayer
    Media Type: CD-ROM
    Category: Games
    Region: USA
    Languages: English
    Disc Serial: 

    Ringcode Information:
        Data Side Mastering Code (laser branded/etched): 
        Data Side Mastering SID Code: 
        Data Side Toolstamp or Mastering Code (engraved/stamped): 
        Data Side Mould SID Code: 
        Data Side Additional Mould: 
        Label Side Mould SID Code: 
        Label Side Additional Mould: 
    Barcode: 
    Error Count: 0
    Comments: Unlicensed CD-R.
    Contents: 

Version and Editions:
    Version: 
    Edition/Release: Unlicensed (Good Deal Games Double Header! Two Game Set)

Extras:
    Primary Volume Descriptor (PVD): Disc has no PVD

Tracks and Write Offsets:
    DAT:

<rom name="Power Slide (Unlicensed).bin" size="26575248" crc="002bd60a" md5="3eb71a7ba00d66539a171585b276476e" sha1="8efd5ec804b02b7e4dfc4158d58f740d7c36665e" />

    Cuesheet:

FILE "Power Slide (Unlicensed).bin" BINARY
  TRACK 01 MODE1/2352
    INDEX 01 00:00:00

    Write Offset: 6

Log files:
https://drive.google.com/file/d/1nQbXnR … drive_link

Photos:
https://drive.google.com/file/d/13b2cV7 … drive_link

http://redump.org/disc/65793/


Common Disc Info:
    Title: Complete Onside Soccer
    Foreign Title (Non-latin): 
    Disc Number / Letter: 
    Disc Title: 
    System: Panasonic 3DO Interactive Multiplayer
    Media Type: CD-ROM
    Category: Games
    Region: USA
    Languages: English
    Disc Serial: 

    Ringcode Information:
        Data Side Mastering Code (laser branded/etched): 
        Data Side Mastering SID Code: 
        Data Side Toolstamp or Mastering Code (engraved/stamped): 
        Data Side Mould SID Code: 
        Data Side Additional Mould: 
        Label Side Mould SID Code: 
        Label Side Additional Mould: 
    Barcode: 
    Error Count: 0
    Comments: Unlicensed CD-R.
    Contents: 

Version and Editions:
    Version: 
    Edition/Release: Unlicensed (Good Deal Games Double Header! Two Game Set)

Extras:
    Primary Volume Descriptor (PVD): Disc has no PVD

Tracks and Write Offsets:
    DAT:

<rom name="Complete Onside Soccer (Unlicensed).bin" size="83446608" crc="af94b0b1" md5="1b52ce7d111d928e721a5919eff93dac" sha1="40d81b8cc5ffc166f969ba3ff32a080acad7119d" />

    Cuesheet:

FILE "Complete Onside Soccer (Unlicensed).bin" BINARY
  TRACK 01 MODE1/2352
    INDEX 01 00:00:00

    Write Offset: 6

Log files:
https://drive.google.com/file/d/1VhTz7E … drive_link

Photos:
https://drive.google.com/file/d/1a0aBbx … drive_link

superg wrote:

Hey olaf, can you try redumper on this disc using the same drive where you get "This error can't be fixed by plextor drive. Needs to dump it by non-plextor drive and replace it"?

Redumper files:
https://drive.google.com/file/d/1_Gaol2 … share_link

http://redump.org/disc/52127/


This disc had the same problematic sectors mentioned on the disc page, and gave the following error message:

This error can't be fixed by plextor drive. Needs to dump it by non-plextor drive and replace it

I then dumped it using an LG WH14NS40 drive, and it appears to have dumped successfully.


Common Disc Info:
    Title: Chiki Chiki Boys
    Foreign Title (Non-latin): チキチキボーイズ
    Disc Number / Letter: 
    Disc Title: 
    System: NEC PC-Engine / TurboGrafx CD
    Media Type: CD-ROM
    Category: Games
    Region: Japan
    Languages: English
    Disc Serial: NAPR-1033

    Ringcode Information:
        Data Side Mastering Code (laser branded/etched): LLLFL NA331216-1    TCV5
        Data Side Mastering SID Code: 
        Data Side Toolstamp or Mastering Code (engraved/stamped): 
        Data Side Mould SID Code: 
        Data Side Additional Mould: 
        Label Side Mould SID Code: 
        Label Side Additional Mould: 
    Barcode: 
    Error Count: 0
    Comments: Required dumping with a non-Plextor drive. Dumped using an LG WH14NS40 drive.
    Contents: 

Version and Editions:
    Version: 
    Edition/Release: Original

Extras:
    Primary Volume Descriptor (PVD): Disc has no PVD

Tracks and Write Offsets:
    DAT:

<rom name="Chiki Chiki Boys (Track 01).bin" size="8354304" crc="cc391e99" md5="0bf13061363b53958ee9aa835f27d988" sha1="99e11cd26e32d50fcade3721ee81991508883360" />
<rom name="Chiki Chiki Boys (Track 02).bin" size="8413104" crc="0a632279" md5="7c34f7cef3de69f11e3459436ec4d283" sha1="4c9c219caa511560ca6f3348494282f65bf412ba" />
<rom name="Chiki Chiki Boys (Track 03).bin" size="12131616" crc="8195d426" md5="91fffca15c10e7662372731b60453b97" sha1="489cf8cf214dbe4e6fd7b7f6c611f457705ba99d" />
<rom name="Chiki Chiki Boys (Track 04).bin" size="24917088" crc="b648cb8a" md5="6a37c08b13da71b13554d33511abc041" sha1="f257a4c93f4d1e44e23b55a3bd7d58cee9192981" />
<rom name="Chiki Chiki Boys (Track 05).bin" size="6573840" crc="a43baa87" md5="ef20cc02d20a99a9d0643197ebc253e5" sha1="c503ac1a27c515e97d9da50f74b75488e068f022" />
<rom name="Chiki Chiki Boys (Track 06).bin" size="10332336" crc="b35f30bb" md5="fda68e35a1f8c6cb0322f41e2ba84fcf" sha1="e2900cc6219e2c7cea37e7cfcd112d7ab753a7c5" />
<rom name="Chiki Chiki Boys (Track 07).bin" size="25813200" crc="2ce1d486" md5="5c3bada64d1eb7db8e8bd1596fcede2e" sha1="558fe363d707f0057438a87fe1e8e0151f2214a0" />
<rom name="Chiki Chiki Boys (Track 08).bin" size="20972784" crc="6441f1dc" md5="806c0e5f9688c3ac58328b30bbc6ab70" sha1="c286b699e59d5bc2df13d7df1945f92c1ba131b3" />
<rom name="Chiki Chiki Boys (Track 09).bin" size="21342048" crc="ca05d794" md5="dc6cf1cfaec25852bd02aed814f19244" sha1="f3ba625af0543fafd9e0807c0784fe281e7c479e" />
<rom name="Chiki Chiki Boys (Track 10).bin" size="29378832" crc="a9f255b5" md5="3e675974fa4f6be92395064f1777415c" sha1="d95d994742c9ecd51ade8c337a4d8c9a5697df3d" />
<rom name="Chiki Chiki Boys (Track 11).bin" size="27687744" crc="0b44232d" md5="d603dc8ecf0095971c1719256bd580e4" sha1="7685c0aed9fc73d714e0e19982fd54c3560d2b66" />
<rom name="Chiki Chiki Boys (Track 12).bin" size="22659168" crc="cb0c8af5" md5="93591131c82afb5855637cd7f7335f37" sha1="f38fde1ed5fadec8b93c32b3dae1a796a8b69280" />
<rom name="Chiki Chiki Boys (Track 13).bin" size="25100544" crc="616a3088" md5="2d3af4339bfdcae2e6d940277c49f82c" sha1="f4bcdf4083bdd76455b8c30bc8c7040205c33b52" />
<rom name="Chiki Chiki Boys (Track 14).bin" size="26130720" crc="7e87e87b" md5="a040f4aa674b364819dde8650fec5241" sha1="3462ad8c63ce80ab3399a4953f11c168d0b1454a" />
<rom name="Chiki Chiki Boys (Track 15).bin" size="24432576" crc="1897384a" md5="199bdb7a0f0dba744ec9702f42ea7b3a" sha1="a2f8cb7d06718fe8bd8c2385f9592b1b261ddff0" />
<rom name="Chiki Chiki Boys (Track 16).bin" size="25213440" crc="5480ceb9" md5="4e34bcfd3751a89ed1510533a3ac3fa8" sha1="06573f697f6cf22ce62669aa14c6f17fda62259c" />
<rom name="Chiki Chiki Boys (Track 17).bin" size="18851280" crc="c1309986" md5="5e1bef98abd124f7ed5d2b1118c75c5e" sha1="589033758ff08fdf5a953d6ac582a08900faa9c4" />
<rom name="Chiki Chiki Boys (Track 18).bin" size="19928496" crc="b4090a33" md5="d098e2c5daab16b4800df3a24f31f26e" sha1="518b9ea43d94e4cdc27cc21f078da1f51841b16f" />
<rom name="Chiki Chiki Boys (Track 19).bin" size="19380480" crc="b3fb7ecd" md5="12409f18d27ad62d5361ffa3d28454ee" sha1="df59333caf825b8f66d17f41e989aa446e95d1c4" />
<rom name="Chiki Chiki Boys (Track 20).bin" size="5273184" crc="293393db" md5="3a6841de709bb97b39922640817491be" sha1="0decf89733cf6dd0f0c917806d8161e1c5055911" />
<rom name="Chiki Chiki Boys (Track 21).bin" size="54855696" crc="67751989" md5="3dda48bad1265259cae2d32e66799163" sha1="faa4a0b4bbcc7c866db9754178fce180b4fe7f89" />
<rom name="Chiki Chiki Boys (Track 22).bin" size="55542480" crc="d675f4af" md5="3d053132fe29a03526f526259adecaa2" sha1="d1e0d7059bb771f512fb24ec530215095aea8288" />
<rom name="Chiki Chiki Boys (Track 23).bin" size="12738432" crc="22604490" md5="203a2156b9f1fe18926f70f802d984e9" sha1="6f97eedf01e3e99bf3e12ec18c3cef9f8e6c370d" />
<rom name="Chiki Chiki Boys (Track 24).bin" size="21946512" crc="2d25c057" md5="ca428e44c2d8a31222ca4a76fc5823d8" sha1="452d6d23e703fe3ac29924447dc5582115e0746f" />
<rom name="Chiki Chiki Boys (Track 25).bin" size="10120656" crc="766a5df4" md5="da0b656872d4eddffe0a5e7b648272a9" sha1="481042a734bf1e8e548e1834f2f9a67fc2775636" />
<rom name="Chiki Chiki Boys (Track 26).bin" size="10551072" crc="12c7a672" md5="c836c4734d4f7e7698915ca70f9574bb" sha1="fd88bc6e3c3a70926bcede8e70fff4484decd118" />

    Cuesheet:

CATALOG 0000000000000
FILE "Chiki Chiki Boys (Track 01).bin" BINARY
  TRACK 01 AUDIO
    INDEX 01 00:00:00
FILE "Chiki Chiki Boys (Track 02).bin" BINARY
  TRACK 02 MODE1/2352
    INDEX 00 00:00:00
    INDEX 01 00:03:00
FILE "Chiki Chiki Boys (Track 03).bin" BINARY
  TRACK 03 AUDIO
    INDEX 00 00:00:00
    INDEX 01 00:02:00
FILE "Chiki Chiki Boys (Track 04).bin" BINARY
  TRACK 04 AUDIO
    INDEX 01 00:00:00
FILE "Chiki Chiki Boys (Track 05).bin" BINARY
  TRACK 05 AUDIO
    INDEX 01 00:00:00
FILE "Chiki Chiki Boys (Track 06).bin" BINARY
  TRACK 06 AUDIO
    INDEX 01 00:00:00
FILE "Chiki Chiki Boys (Track 07).bin" BINARY
  TRACK 07 AUDIO
    INDEX 01 00:00:00
FILE "Chiki Chiki Boys (Track 08).bin" BINARY
  TRACK 08 AUDIO
    INDEX 01 00:00:00
FILE "Chiki Chiki Boys (Track 09).bin" BINARY
  TRACK 09 AUDIO
    INDEX 01 00:00:00
FILE "Chiki Chiki Boys (Track 10).bin" BINARY
  TRACK 10 AUDIO
    INDEX 01 00:00:00
FILE "Chiki Chiki Boys (Track 11).bin" BINARY
  TRACK 11 AUDIO
    INDEX 01 00:00:00
FILE "Chiki Chiki Boys (Track 12).bin" BINARY
  TRACK 12 AUDIO
    INDEX 01 00:00:00
FILE "Chiki Chiki Boys (Track 13).bin" BINARY
  TRACK 13 AUDIO
    INDEX 01 00:00:00
FILE "Chiki Chiki Boys (Track 14).bin" BINARY
  TRACK 14 AUDIO
    INDEX 01 00:00:00
FILE "Chiki Chiki Boys (Track 15).bin" BINARY
  TRACK 15 AUDIO
    INDEX 01 00:00:00
FILE "Chiki Chiki Boys (Track 16).bin" BINARY
  TRACK 16 AUDIO
    INDEX 01 00:00:00
FILE "Chiki Chiki Boys (Track 17).bin" BINARY
  TRACK 17 AUDIO
    INDEX 01 00:00:00
FILE "Chiki Chiki Boys (Track 18).bin" BINARY
  TRACK 18 AUDIO
    INDEX 01 00:00:00
FILE "Chiki Chiki Boys (Track 19).bin" BINARY
  TRACK 19 AUDIO
    INDEX 01 00:00:00
FILE "Chiki Chiki Boys (Track 20).bin" BINARY
  TRACK 20 AUDIO
    INDEX 01 00:00:00
FILE "Chiki Chiki Boys (Track 21).bin" BINARY
  TRACK 21 AUDIO
    INDEX 01 00:00:00
FILE "Chiki Chiki Boys (Track 22).bin" BINARY
  TRACK 22 AUDIO
    INDEX 01 00:00:00
FILE "Chiki Chiki Boys (Track 23).bin" BINARY
  TRACK 23 AUDIO
    INDEX 01 00:00:00
FILE "Chiki Chiki Boys (Track 24).bin" BINARY
  TRACK 24 AUDIO
    INDEX 01 00:00:00
FILE "Chiki Chiki Boys (Track 25).bin" BINARY
  TRACK 25 AUDIO
    INDEX 01 00:00:00
FILE "Chiki Chiki Boys (Track 26).bin" BINARY
  TRACK 26 MODE1/2352
    INDEX 00 00:00:00
    INDEX 01 00:03:00

    Write Offset: -1288

Log files:
https://drive.google.com/file/d/14MTxxG … sp=sharing

Disc photos:
https://drive.google.com/file/d/18qZmNz … sp=sharing