1

(0 replies, posted in Verifications)

http://redump.org/disc/59854/


Note: previous dump has a likely typo on the Data Side Mastering Code - "A112" should probably be "A1112" (see linked photos).

Common Disc Info:
    Title: John Madden Football
    Foreign Title (Non-latin): 
    Disc Number / Letter: 
    Disc Title: 
    System: Panasonic 3DO Interactive Multiplayer
    Media Type: CD-ROM
    Category: Games
    Region: USA
    Languages: English
    Disc Serial: 7220

    Ringcode Information:
        Data Side Mastering Code (laser branded/etched): Allied Record Company    A1112 CC 722007-2 R73
        Data Side Mastering SID Code: 
        Data Side Toolstamp or Mastering Code (engraved/stamped): ARC *M1 S3
        Data Side Mould SID Code: 
        Data Side Additional Mould: 
        Label Side Mould SID Code: 
        Label Side Additional Mould: 
    Barcode: 
    Error Count: 0
    Comments: 
    Contents: 

Version and Editions:
    Version: 
    Edition/Release: Original

Extras:
    Primary Volume Descriptor (PVD): Disc has no PVD

Tracks and Write Offsets:
    DAT:

<rom name="John Madden Football.bin" size="482395200" crc="6a88d877" md5="448a9867c37a3d346e1758aec7265a58" sha1="b3f20507440f0bdf7488e56a124fe0d1f6b78e43" />

    Cuesheet:

CATALOG 0000000000000
FILE "John Madden Football.bin" BINARY
  TRACK 01 MODE1/2352
    INDEX 01 00:00:00

    Write Offset: 222

Log files:
https://drive.google.com/file/d/1ucxQyf … share_link

Disc photos:
https://drive.google.com/file/d/186-yBr … share_link

http://redump.org/disc/52127/


This disc had the same problematic sectors mentioned on the disc page, and gave the following error message:

This error can't be fixed by plextor drive. Needs to dump it by non-plextor drive and replace it

I then dumped it using an LG WH14NS40 drive, and it appears to have dumped successfully.


Common Disc Info:
    Title: Chiki Chiki Boys
    Foreign Title (Non-latin): チキチキボーイズ
    Disc Number / Letter: 
    Disc Title: 
    System: NEC PC-Engine / TurboGrafx CD
    Media Type: CD-ROM
    Category: Games
    Region: Japan
    Languages: English
    Disc Serial: NAPR-1033

    Ringcode Information:
        Data Side Mastering Code (laser branded/etched): LLLFL NA331216-1    TCV5
        Data Side Mastering SID Code: 
        Data Side Toolstamp or Mastering Code (engraved/stamped): 
        Data Side Mould SID Code: 
        Data Side Additional Mould: 
        Label Side Mould SID Code: 
        Label Side Additional Mould: 
    Barcode: 
    Error Count: 0
    Comments: Required dumping with a non-Plextor drive. Dumped using an LG WH14NS40 drive.
    Contents: 

Version and Editions:
    Version: 
    Edition/Release: Original

Extras:
    Primary Volume Descriptor (PVD): Disc has no PVD

Tracks and Write Offsets:
    DAT:

<rom name="Chiki Chiki Boys (Track 01).bin" size="8354304" crc="cc391e99" md5="0bf13061363b53958ee9aa835f27d988" sha1="99e11cd26e32d50fcade3721ee81991508883360" />
<rom name="Chiki Chiki Boys (Track 02).bin" size="8413104" crc="0a632279" md5="7c34f7cef3de69f11e3459436ec4d283" sha1="4c9c219caa511560ca6f3348494282f65bf412ba" />
<rom name="Chiki Chiki Boys (Track 03).bin" size="12131616" crc="8195d426" md5="91fffca15c10e7662372731b60453b97" sha1="489cf8cf214dbe4e6fd7b7f6c611f457705ba99d" />
<rom name="Chiki Chiki Boys (Track 04).bin" size="24917088" crc="b648cb8a" md5="6a37c08b13da71b13554d33511abc041" sha1="f257a4c93f4d1e44e23b55a3bd7d58cee9192981" />
<rom name="Chiki Chiki Boys (Track 05).bin" size="6573840" crc="a43baa87" md5="ef20cc02d20a99a9d0643197ebc253e5" sha1="c503ac1a27c515e97d9da50f74b75488e068f022" />
<rom name="Chiki Chiki Boys (Track 06).bin" size="10332336" crc="b35f30bb" md5="fda68e35a1f8c6cb0322f41e2ba84fcf" sha1="e2900cc6219e2c7cea37e7cfcd112d7ab753a7c5" />
<rom name="Chiki Chiki Boys (Track 07).bin" size="25813200" crc="2ce1d486" md5="5c3bada64d1eb7db8e8bd1596fcede2e" sha1="558fe363d707f0057438a87fe1e8e0151f2214a0" />
<rom name="Chiki Chiki Boys (Track 08).bin" size="20972784" crc="6441f1dc" md5="806c0e5f9688c3ac58328b30bbc6ab70" sha1="c286b699e59d5bc2df13d7df1945f92c1ba131b3" />
<rom name="Chiki Chiki Boys (Track 09).bin" size="21342048" crc="ca05d794" md5="dc6cf1cfaec25852bd02aed814f19244" sha1="f3ba625af0543fafd9e0807c0784fe281e7c479e" />
<rom name="Chiki Chiki Boys (Track 10).bin" size="29378832" crc="a9f255b5" md5="3e675974fa4f6be92395064f1777415c" sha1="d95d994742c9ecd51ade8c337a4d8c9a5697df3d" />
<rom name="Chiki Chiki Boys (Track 11).bin" size="27687744" crc="0b44232d" md5="d603dc8ecf0095971c1719256bd580e4" sha1="7685c0aed9fc73d714e0e19982fd54c3560d2b66" />
<rom name="Chiki Chiki Boys (Track 12).bin" size="22659168" crc="cb0c8af5" md5="93591131c82afb5855637cd7f7335f37" sha1="f38fde1ed5fadec8b93c32b3dae1a796a8b69280" />
<rom name="Chiki Chiki Boys (Track 13).bin" size="25100544" crc="616a3088" md5="2d3af4339bfdcae2e6d940277c49f82c" sha1="f4bcdf4083bdd76455b8c30bc8c7040205c33b52" />
<rom name="Chiki Chiki Boys (Track 14).bin" size="26130720" crc="7e87e87b" md5="a040f4aa674b364819dde8650fec5241" sha1="3462ad8c63ce80ab3399a4953f11c168d0b1454a" />
<rom name="Chiki Chiki Boys (Track 15).bin" size="24432576" crc="1897384a" md5="199bdb7a0f0dba744ec9702f42ea7b3a" sha1="a2f8cb7d06718fe8bd8c2385f9592b1b261ddff0" />
<rom name="Chiki Chiki Boys (Track 16).bin" size="25213440" crc="5480ceb9" md5="4e34bcfd3751a89ed1510533a3ac3fa8" sha1="06573f697f6cf22ce62669aa14c6f17fda62259c" />
<rom name="Chiki Chiki Boys (Track 17).bin" size="18851280" crc="c1309986" md5="5e1bef98abd124f7ed5d2b1118c75c5e" sha1="589033758ff08fdf5a953d6ac582a08900faa9c4" />
<rom name="Chiki Chiki Boys (Track 18).bin" size="19928496" crc="b4090a33" md5="d098e2c5daab16b4800df3a24f31f26e" sha1="518b9ea43d94e4cdc27cc21f078da1f51841b16f" />
<rom name="Chiki Chiki Boys (Track 19).bin" size="19380480" crc="b3fb7ecd" md5="12409f18d27ad62d5361ffa3d28454ee" sha1="df59333caf825b8f66d17f41e989aa446e95d1c4" />
<rom name="Chiki Chiki Boys (Track 20).bin" size="5273184" crc="293393db" md5="3a6841de709bb97b39922640817491be" sha1="0decf89733cf6dd0f0c917806d8161e1c5055911" />
<rom name="Chiki Chiki Boys (Track 21).bin" size="54855696" crc="67751989" md5="3dda48bad1265259cae2d32e66799163" sha1="faa4a0b4bbcc7c866db9754178fce180b4fe7f89" />
<rom name="Chiki Chiki Boys (Track 22).bin" size="55542480" crc="d675f4af" md5="3d053132fe29a03526f526259adecaa2" sha1="d1e0d7059bb771f512fb24ec530215095aea8288" />
<rom name="Chiki Chiki Boys (Track 23).bin" size="12738432" crc="22604490" md5="203a2156b9f1fe18926f70f802d984e9" sha1="6f97eedf01e3e99bf3e12ec18c3cef9f8e6c370d" />
<rom name="Chiki Chiki Boys (Track 24).bin" size="21946512" crc="2d25c057" md5="ca428e44c2d8a31222ca4a76fc5823d8" sha1="452d6d23e703fe3ac29924447dc5582115e0746f" />
<rom name="Chiki Chiki Boys (Track 25).bin" size="10120656" crc="766a5df4" md5="da0b656872d4eddffe0a5e7b648272a9" sha1="481042a734bf1e8e548e1834f2f9a67fc2775636" />
<rom name="Chiki Chiki Boys (Track 26).bin" size="10551072" crc="12c7a672" md5="c836c4734d4f7e7698915ca70f9574bb" sha1="fd88bc6e3c3a70926bcede8e70fff4484decd118" />

    Cuesheet:

CATALOG 0000000000000
FILE "Chiki Chiki Boys (Track 01).bin" BINARY
  TRACK 01 AUDIO
    INDEX 01 00:00:00
FILE "Chiki Chiki Boys (Track 02).bin" BINARY
  TRACK 02 MODE1/2352
    INDEX 00 00:00:00
    INDEX 01 00:03:00
FILE "Chiki Chiki Boys (Track 03).bin" BINARY
  TRACK 03 AUDIO
    INDEX 00 00:00:00
    INDEX 01 00:02:00
FILE "Chiki Chiki Boys (Track 04).bin" BINARY
  TRACK 04 AUDIO
    INDEX 01 00:00:00
FILE "Chiki Chiki Boys (Track 05).bin" BINARY
  TRACK 05 AUDIO
    INDEX 01 00:00:00
FILE "Chiki Chiki Boys (Track 06).bin" BINARY
  TRACK 06 AUDIO
    INDEX 01 00:00:00
FILE "Chiki Chiki Boys (Track 07).bin" BINARY
  TRACK 07 AUDIO
    INDEX 01 00:00:00
FILE "Chiki Chiki Boys (Track 08).bin" BINARY
  TRACK 08 AUDIO
    INDEX 01 00:00:00
FILE "Chiki Chiki Boys (Track 09).bin" BINARY
  TRACK 09 AUDIO
    INDEX 01 00:00:00
FILE "Chiki Chiki Boys (Track 10).bin" BINARY
  TRACK 10 AUDIO
    INDEX 01 00:00:00
FILE "Chiki Chiki Boys (Track 11).bin" BINARY
  TRACK 11 AUDIO
    INDEX 01 00:00:00
FILE "Chiki Chiki Boys (Track 12).bin" BINARY
  TRACK 12 AUDIO
    INDEX 01 00:00:00
FILE "Chiki Chiki Boys (Track 13).bin" BINARY
  TRACK 13 AUDIO
    INDEX 01 00:00:00
FILE "Chiki Chiki Boys (Track 14).bin" BINARY
  TRACK 14 AUDIO
    INDEX 01 00:00:00
FILE "Chiki Chiki Boys (Track 15).bin" BINARY
  TRACK 15 AUDIO
    INDEX 01 00:00:00
FILE "Chiki Chiki Boys (Track 16).bin" BINARY
  TRACK 16 AUDIO
    INDEX 01 00:00:00
FILE "Chiki Chiki Boys (Track 17).bin" BINARY
  TRACK 17 AUDIO
    INDEX 01 00:00:00
FILE "Chiki Chiki Boys (Track 18).bin" BINARY
  TRACK 18 AUDIO
    INDEX 01 00:00:00
FILE "Chiki Chiki Boys (Track 19).bin" BINARY
  TRACK 19 AUDIO
    INDEX 01 00:00:00
FILE "Chiki Chiki Boys (Track 20).bin" BINARY
  TRACK 20 AUDIO
    INDEX 01 00:00:00
FILE "Chiki Chiki Boys (Track 21).bin" BINARY
  TRACK 21 AUDIO
    INDEX 01 00:00:00
FILE "Chiki Chiki Boys (Track 22).bin" BINARY
  TRACK 22 AUDIO
    INDEX 01 00:00:00
FILE "Chiki Chiki Boys (Track 23).bin" BINARY
  TRACK 23 AUDIO
    INDEX 01 00:00:00
FILE "Chiki Chiki Boys (Track 24).bin" BINARY
  TRACK 24 AUDIO
    INDEX 01 00:00:00
FILE "Chiki Chiki Boys (Track 25).bin" BINARY
  TRACK 25 AUDIO
    INDEX 01 00:00:00
FILE "Chiki Chiki Boys (Track 26).bin" BINARY
  TRACK 26 MODE1/2352
    INDEX 00 00:00:00
    INDEX 01 00:03:00

    Write Offset: -1288

Log files:
https://drive.google.com/file/d/14MTxxG … sp=sharing

Disc photos:
https://drive.google.com/file/d/18qZmNz … sp=sharing