1

(1 replies, posted in Verifications)

Disc 2
http://redump.org/disc/100713/

Common Disc Info:
    Title: Command & Conquer
    Foreign Title (Non-latin): コマンドアンドコンカー
    Disc Number / Letter: 2
    Disc Title: 
    System: IBM PC compatible
    Media Type: CD-ROM
    Category: Games
    Fully Matching ID: 100713
    Region: Japan
    Languages:
    Disc Serial: JJV-1005

    Ringcode Information:

Data Side Mastering Code (laser branded/etched): JJV-1005-R1M    V
Data Side Mastering SID Code: IFPI L233
Data Side Toolstamp or Mastering Code (engraved/stamped): 11
Data Side Mould SID Code: IFPI4011
Data Side Additional Mould: 
Label Side Mould SID Code: 

    Barcode: 4 988002 324651
    Error Count: 0
    Comments: [T:VOL] NOD
    Contents: 

Version and Editions:
    Version: 
    Edition/Release: Original

Extras:
    Primary Volume Descriptor (PVD):

0320 : 20 20 20 20 20 20 20 20  20 20 20 20 20 30 30 30                000
0330 : 30 30 30 30 30 30 30 30  30 30 30 30 30 00 30 30   0000000000000.00
0340 : 30 30 30 30 30 30 30 30  30 30 30 30 30 30 00 30   00000000000000.0
0350 : 30 30 30 30 30 30 30 30  30 30 30 30 30 30 30 00   000000000000000.
0360 : 30 30 30 30 30 30 30 30  30 30 30 30 30 30 30 30   0000000000000000
0370 : 00 01 00 00 00 00 00 00  00 00 00 00 00 00 00 00   ................

Copy Protection:
    Copy Protection: None found [OMIT FROM SUBMISSION]
    SubIntention Data (SecuROM/LibCrypt): 

Tracks and Write Offsets:
    DAT:

<rom name="NOD.bin" size="561048432" crc="2186eae4" md5="5d0ddc74cb9212ddd398c2640f6bb540" sha1="76f3bea160de2193680883ba4677bf86a879e6a1" />

    Cuesheet:

CATALOG 0000000000000
FILE "NOD.bin" BINARY
  TRACK 01 MODE1/2352
    INDEX 01 00:00:00

    Write Offset: 0

Dumping Info:
    Dumping Program: Redumper v2023.11.30 build_271
    Date: 2023-12-12 14.01.00
    Manufacturer: PLEXTOR
    Model: DVDR PX-755A
    Firmware: 1.08 (08/18/07 15:10)
    Reported Disc Type: CD-ROM

Logs: https://mega.nz/file/66xxgQaD#eUcsWR0Ev … FvIkApoeZM

2

(1 replies, posted in Verifications)

Disc 1
http://redump.org/disc/100712/

Common Disc Info:
    Title: Command & Conquer
    Foreign Title (Non-latin): コマンドアンドコンカー
    Disc Number / Letter: 1
    Disc Title: 
    System: IBM PC compatible
    Media Type: CD-ROM
    Category: Games
    Fully Matching ID: 100712
    Region: Japan
    Languages: 
    Disc Serial: JJV-1004

    Ringcode Information:

Data Side Mastering Code (laser branded/etched): JJV-1004-R1M    V
Data Side Mastering SID Code: IFPI L233
Data Side Toolstamp or Mastering Code (engraved/stamped): 11
Data Side Mould SID Code: IFPI4011
Data Side Additional Mould: 
Label Side Mould SID Code: 

    Barcode: 4 988002 324651
    Error Count: 0
    Comments: [T:VOL] GDI
    Contents: 

Version and Editions:
    Version: 
    Edition/Release: Original

Extras:
    Primary Volume Descriptor (PVD):

0320 : 20 20 20 20 20 20 20 20  20 20 20 20 20 30 30 30                000
0330 : 30 30 30 30 30 30 30 30  30 30 30 30 30 00 30 30   0000000000000.00
0340 : 30 30 30 30 30 30 30 30  30 30 30 30 30 30 00 30   00000000000000.0
0350 : 30 30 30 30 30 30 30 30  30 30 30 30 30 30 30 00   000000000000000.
0360 : 30 30 30 30 30 30 30 30  30 30 30 30 30 30 30 30   0000000000000000
0370 : 00 01 00 00 00 00 00 00  00 00 00 00 00 00 00 00   ................

Copy Protection:
    Copy Protection: None found [OMIT FROM SUBMISSION]
    SubIntention Data (SecuROM/LibCrypt): 

Tracks and Write Offsets:
    DAT:

<rom name="GDI.bin" size="580099632" crc="9072974c" md5="89548972b377d052dfe97ca8a0d50c20" sha1="50637ff6e039f7b7772f28d801898208ffcb4f11" />

    Cuesheet:

CATALOG 0000000000000
FILE "GDI.bin" BINARY
  TRACK 01 MODE1/2352
    INDEX 01 00:00:00

    Write Offset: 0

Dumping Info:
    Dumping Program: Redumper v2023.11.30 build_271
    Date: 2023-12-12 13.48.03
    Manufacturer: PLEXTOR
    Model: DVDR PX-755A
    Firmware: 1.08 (08/18/07 15:10)
    Reported Disc Type: CD-ROM

Logs: https://mega.nz/file/f7JCASrZ#BDi8WloYq … S4B8eQjeYo

http://redump.org/disc/104094/

Common Disc Info:
    Title: Emit Vol. 2: Inochigake no Tabi
    Foreign Title (Non-latin): エミットVol.2「命がけの旅」
    Disc Number / Letter: 
    Disc Title: 
    System: IBM PC compatible
    Media Type: CD-ROM
    Category: Educational
    Fully Matching ID: 104094
    Partially Matching IDs: 94519, 104095
    Region: Japan
    Languages: 
    Disc Serial: KN10-70104

    Ringcode Information:

Data Side Mastering Code (laser branded/etched): KN10-70104    1
Data Side Mastering SID Code: IFPI L275
Data Side Toolstamp or Mastering Code (engraved/stamped): 
Data Side Mould SID Code: IFPI 4505
Data Side Additional Mould: S M J
Label Side Mould SID Code: 

    Barcode: T4988615006791
    Error Count: 0
    Comments: [T:VOL] CD-ROM
Windows 3.1
    Contents: 

Version and Editions:
    Version: 
    Edition/Release: Original

Extras:
    Primary Volume Descriptor (PVD):

0320 : 20 20 20 20 20 20 20 20  20 20 20 20 20 31 39 39                199
0330 : 35 30 37 31 39 30 38 33  36 34 35 30 30 20 31 39   5071908364500 19
0340 : 39 35 30 37 31 39 30 38  33 36 34 35 30 30 20 00   95071908364500 .
0350 : 00 00 00 00 00 00 00 00  00 00 00 00 00 00 00 00   ................
0360 : 00 00 00 00 00 00 00 00  00 00 00 00 00 00 00 00   ................
0370 : 00 01 00 00 00 00 00 00  00 00 00 00 00 00 00 00   ................

Copy Protection:
    Copy Protection: None found [OMIT FROM SUBMISSION]

Tracks and Write Offsets:
    DAT:

<rom name="CD-ROM (Track 01).bin" size="24119760" crc="0a8c3c29" md5="dc524973dfcc7d67803fdeb4e86b3917" sha1="36d0f40670a17eb5fe2ebdfc806ebc1583b82b6e" />
<rom name="CD-ROM (Track 02).bin" size="43062768" crc="7edff02d" md5="3d893936ad759943dd73d42293500e6d" sha1="8c5d577213e5815c894830449e1de6affc93ac87" />
<rom name="CD-ROM (Track 03).bin" size="18086880" crc="89b14a06" md5="8ab84110dd0ace7042e7513b186ec67b" sha1="e6c38a99d848ee3bde776ed14ec5d1fb22433150" />
<rom name="CD-ROM (Track 04).bin" size="17360112" crc="d9f5baca" md5="591a9945b78ba2ab59911b67ee3486d2" sha1="842f1ea3c883c0283939a08f8293fd24f4a825d8" />
<rom name="CD-ROM (Track 05).bin" size="15530256" crc="e5fbf968" md5="6c2a58ee544a3e4d1936f5292015d09e" sha1="98fecfa9bffd49bf77e92347dfad2153900d51eb" />
<rom name="CD-ROM (Track 06).bin" size="19020624" crc="1a13cb6b" md5="087cd1b6229224d01b4143cb33a07b6f" sha1="b48b0e903f08a35703becfed570f40aaa8c58333" />
<rom name="CD-ROM (Track 07).bin" size="20104896" crc="2ac24940" md5="9e5bb4879c8957a3968ce0ecef246d8d" sha1="51c47fd74d897f493548371a032c10df39e1c6f0" />
<rom name="CD-ROM (Track 08).bin" size="22426320" crc="d6b96674" md5="8b6c9a79d49e13aec29cdbe49968cde6" sha1="485c11ca5d04349696e1d1900e381b8d55bd97e0" />
<rom name="CD-ROM (Track 09).bin" size="16400496" crc="8f52719e" md5="f0be134004423335a1fc8b75f20210cb" sha1="d15a0f31708177964b339c805592ad8b92dd5093" />
<rom name="CD-ROM (Track 10).bin" size="18757200" crc="44b46d0a" md5="5e2823fe52242c43af270b0ab84b1a0c" sha1="4d172f2df18b64a5937c9a8edba266680a2b89b3" />
<rom name="CD-ROM (Track 11).bin" size="12406800" crc="ad62ca4c" md5="ca035119035b549137ec3fff6968ddbd" sha1="cb1ce83bf45f1e67fd0b6a6adec322f23196d0ff" />
<rom name="CD-ROM (Track 12).bin" size="12258624" crc="83b65b01" md5="2460e7a17c4a0dc15fe7893fe0e3ae9b" sha1="5c29d05b3c20d99751bf3aa2d1c3f6883e752972" />
<rom name="CD-ROM (Track 13).bin" size="24780672" crc="64394adc" md5="7835edb9b2363b832b16362ddf40b16d" sha1="343db154c439f4cce9a1d89ca4e9e2eb27a5954b" />
<rom name="CD-ROM (Track 14).bin" size="25342800" crc="5982fdcd" md5="2d459ab9cec2e333765813e97d8226c9" sha1="14b6cfe272e7275579bff6b835bb391d0aeced81" />
<rom name="CD-ROM (Track 15).bin" size="11807040" crc="c5dca2b1" md5="3bbe92509ba62a5bc802d5294dbae6c3" sha1="ecc4fbf041f2753d0b37e2cc11844b091d13f45c" />
<rom name="CD-ROM (Track 16).bin" size="12505584" crc="5e892249" md5="f0147e856a4faaf0806d8e761d608c8e" sha1="f2884671d0d9f6eebefead8254dce5e9b52b58a7" />
<rom name="CD-ROM (Track 17).bin" size="14166096" crc="c4a3990a" md5="e41f84ec82d11e674f441db419257078" sha1="3fbeebc12ce03d2eac1748f4a41790a449602e43" />
<rom name="CD-ROM (Track 18).bin" size="13277040" crc="a9ae84d0" md5="45cd92c6545dd1a6f235836e8ab468e6" sha1="1440448bd6808268b51358888876840704e33b89" />
<rom name="CD-ROM (Track 19).bin" size="7248864" crc="37d7a2a0" md5="4e622df26e9a2c40ba3c039aad09b5b3" sha1="031b4faea0008b77e449225b2074afcec030a0ab" />
<rom name="CD-ROM (Track 20).bin" size="6889008" crc="bdd11318" md5="ccd38222ffcdcb20d02f1f575a1f179a" sha1="95ae9d2291fa5ec2775137e92de243824a34b03f" />
<rom name="CD-ROM (Track 21).bin" size="6776112" crc="f3d50539" md5="9dae67748ccf0f5170a29ca2eae3c47b" sha1="232e250033b3175f0a033fba31f36e5a012441fb" />
<rom name="CD-ROM (Track 22).bin" size="6924288" crc="ec7fa100" md5="a01bc239c51217a28616bd3e0f3ba2fe" sha1="3f61819c464884ee6c0c13871d10b4e3cbad4c2b" />
<rom name="CD-ROM (Track 23).bin" size="7328832" crc="cc6d55b6" md5="65d07acef2e45ad8b3a663bbf7192900" sha1="89bb00fa6ad62256256a774751218a5fa0708209" />
<rom name="CD-ROM (Track 24).bin" size="7126560" crc="127471d4" md5="b07aee53cf76d5f74824673d212f2a6d" sha1="b7123cfe998fde50b2c8bb99be687d3986845786" />
<rom name="CD-ROM (Track 25).bin" size="8947008" crc="2684224a" md5="7616de2106ceada62123d9a2a2d9cf44" sha1="cb7cdb526e8c1a2167fd53f9ece46556c0c0a349" />
<rom name="CD-ROM (Track 26).bin" size="9339792" crc="6572d3e6" md5="e558eb2dfcf8e61e7e37de9455ce74d5" sha1="4055a8c112309676c5fc5535f9e478435a0cff14" />
<rom name="CD-ROM (Track 27).bin" size="50579760" crc="b3982f47" md5="aa81b6b9f141ce1bf73be6fd4e3876aa" sha1="578340ed5fc033a98a6bcb494c5f6e645cd3d601" />
<rom name="CD-ROM (Track 28).bin" size="69915552" crc="b50c7bf7" md5="a375ddf90c973e1e7d8fc5e3ecec4c99" sha1="cdc57006a71488cf1b5cb59efb19f6081eb3574e" />
<rom name="CD-ROM (Track 29).bin" size="7058352" crc="bec6e1a9" md5="0d70cf088d39cbaee4af80e37dbcb74a" sha1="e9756df229eccca70b922f7da0fa9ff7ba632399" />
<rom name="CD-ROM (Track 30).bin" size="122049984" crc="e077cdea" md5="d42fe30a3a4706b8337107b0fd17a1d8" sha1="8438a9e19c42b2311ff74162d2cee56153987624" />
<rom name="CD-ROM (Track 31).bin" size="2076816" crc="9bdf2edb" md5="fb671033f2154b488834ae21f085fe02" sha1="736fc6569b72acdee9d1702b03d0a52f9e3c4d90" />

    Cuesheet:

FILE "CD-ROM (Track 01).bin" BINARY
  TRACK 01 MODE1/2352
    INDEX 01 00:00:00
FILE "CD-ROM (Track 02).bin" BINARY
  TRACK 02 AUDIO
    INDEX 00 00:00:00
    INDEX 01 00:02:00
FILE "CD-ROM (Track 03).bin" BINARY
  TRACK 03 AUDIO
    INDEX 00 00:00:00
    INDEX 01 00:02:00
FILE "CD-ROM (Track 04).bin" BINARY
  TRACK 04 AUDIO
    INDEX 00 00:00:00
    INDEX 01 00:02:00
FILE "CD-ROM (Track 05).bin" BINARY
  TRACK 05 AUDIO
    INDEX 00 00:00:00
    INDEX 01 00:02:00
FILE "CD-ROM (Track 06).bin" BINARY
  TRACK 06 AUDIO
    INDEX 00 00:00:00
    INDEX 01 00:02:00
FILE "CD-ROM (Track 07).bin" BINARY
  TRACK 07 AUDIO
    INDEX 00 00:00:00
    INDEX 01 00:02:00
FILE "CD-ROM (Track 08).bin" BINARY
  TRACK 08 AUDIO
    INDEX 00 00:00:00
    INDEX 01 00:02:00
FILE "CD-ROM (Track 09).bin" BINARY
  TRACK 09 AUDIO
    INDEX 00 00:00:00
    INDEX 01 00:02:00
FILE "CD-ROM (Track 10).bin" BINARY
  TRACK 10 AUDIO
    INDEX 00 00:00:00
    INDEX 01 00:02:00
FILE "CD-ROM (Track 11).bin" BINARY
  TRACK 11 AUDIO
    INDEX 00 00:00:00
    INDEX 01 00:02:00
FILE "CD-ROM (Track 12).bin" BINARY
  TRACK 12 AUDIO
    INDEX 00 00:00:00
    INDEX 01 00:02:00
FILE "CD-ROM (Track 13).bin" BINARY
  TRACK 13 AUDIO
    INDEX 00 00:00:00
    INDEX 01 00:02:00
FILE "CD-ROM (Track 14).bin" BINARY
  TRACK 14 AUDIO
    INDEX 00 00:00:00
    INDEX 01 00:02:00
FILE "CD-ROM (Track 15).bin" BINARY
  TRACK 15 AUDIO
    INDEX 00 00:00:00
    INDEX 01 00:02:00
FILE "CD-ROM (Track 16).bin" BINARY
  TRACK 16 AUDIO
    INDEX 00 00:00:00
    INDEX 01 00:02:00
FILE "CD-ROM (Track 17).bin" BINARY
  TRACK 17 AUDIO
    INDEX 00 00:00:00
    INDEX 01 00:02:00
FILE "CD-ROM (Track 18).bin" BINARY
  TRACK 18 AUDIO
    INDEX 00 00:00:00
    INDEX 01 00:02:00
FILE "CD-ROM (Track 19).bin" BINARY
  TRACK 19 AUDIO
    INDEX 00 00:00:00
    INDEX 01 00:02:00
FILE "CD-ROM (Track 20).bin" BINARY
  TRACK 20 AUDIO
    INDEX 00 00:00:00
    INDEX 01 00:02:00
FILE "CD-ROM (Track 21).bin" BINARY
  TRACK 21 AUDIO
    INDEX 00 00:00:00
    INDEX 01 00:02:00
FILE "CD-ROM (Track 22).bin" BINARY
  TRACK 22 AUDIO
    INDEX 00 00:00:00
    INDEX 01 00:02:00
FILE "CD-ROM (Track 23).bin" BINARY
  TRACK 23 AUDIO
    INDEX 00 00:00:00
    INDEX 01 00:02:00
FILE "CD-ROM (Track 24).bin" BINARY
  TRACK 24 AUDIO
    INDEX 00 00:00:00
    INDEX 01 00:02:00
FILE "CD-ROM (Track 25).bin" BINARY
  TRACK 25 AUDIO
    INDEX 00 00:00:00
    INDEX 01 00:02:00
FILE "CD-ROM (Track 26).bin" BINARY
  TRACK 26 AUDIO
    INDEX 00 00:00:00
    INDEX 01 00:02:00
FILE "CD-ROM (Track 27).bin" BINARY
  TRACK 27 AUDIO
    INDEX 00 00:00:00
    INDEX 01 00:02:00
FILE "CD-ROM (Track 28).bin" BINARY
  TRACK 28 AUDIO
    INDEX 00 00:00:00
    INDEX 01 00:02:00
FILE "CD-ROM (Track 29).bin" BINARY
  TRACK 29 AUDIO
    INDEX 00 00:00:00
    INDEX 01 00:02:00
FILE "CD-ROM (Track 30).bin" BINARY
  TRACK 30 AUDIO
    INDEX 00 00:00:00
    INDEX 01 00:02:00
FILE "CD-ROM (Track 31).bin" BINARY
  TRACK 31 AUDIO
    INDEX 00 00:00:00
    INDEX 01 00:02:00

    Write Offset: +2

Dumping Info:
    Dumping Program: DiscImageCreator 20230606
    Date: 2023-10-20 06.31.35
    Manufacturer: PLEXTOR
    Model: DVDR    PX-755A
    Firmware: 1.08
    Reported Disc Type: CD-DA or CD-ROM Disc

Logs: https://mega.nz/file/avh0ya5Y#OFy6hM1FD … H-wH4aoha0

http://redump.org/disc/94519/

Common Disc Info:
    Title: Emit Vol. 2: Inochigake no Tabi
    Foreign Title (Non-latin): エミットVol.2「命がけの旅」
    Disc Number / Letter:
    Disc Title:
    System: Apple Macintosh
    Media Type: CD-ROM
    Category: Games
    Fully Matching ID: 94519
    Partially Matching IDs: 104094, 104095
    Region: Japan
    Languages:
    Disc Serial: KN10-70103

    Ringcode Information:

Data Side Mastering Code (laser branded/etched): KN10-70103    2
Data Side Mastering SID Code: IFPI L275
Data Side Toolstamp or Mastering Code (engraved/stamped): 
Data Side Mould SID Code: IFPI 450C
Data Side Additional Mould: 
Label Side Mould SID Code: 

    Barcode: T4988615006029
    Error Count: 0
    Comments: 
KanjiTalk 7.1
Bundled with a 3.5" floppy disk
    Contents: 

Version and Editions:
    Version: 
    Edition/Release: Original

Extras:
    Primary Volume Descriptor (PVD): Disc has no PVD

Copy Protection:
    Copy Protection: None found [OMIT FROM SUBMISSION]

Tracks and Write Offsets:
    DAT:

<rom name="Disc Not Detected (Track 01).bin" size="23875152" crc="2ca13819" md5="a904cb7bb62c7f5d42c011914d1231a2" sha1="63a8e492b8b1720c47f94bb899026da0e48f4811" />
<rom name="Disc Not Detected (Track 02).bin" size="43239168" crc="1c5e8b59" md5="674573b1194dc659ce4786267f4e3ce1" sha1="25224cf989c2d773ffef60b802be778cfae3588a" />
<rom name="Disc Not Detected (Track 03).bin" size="18086880" crc="89b14a06" md5="8ab84110dd0ace7042e7513b186ec67b" sha1="e6c38a99d848ee3bde776ed14ec5d1fb22433150" />
<rom name="Disc Not Detected (Track 04).bin" size="17360112" crc="d9f5baca" md5="591a9945b78ba2ab59911b67ee3486d2" sha1="842f1ea3c883c0283939a08f8293fd24f4a825d8" />
<rom name="Disc Not Detected (Track 05).bin" size="15530256" crc="e5fbf968" md5="6c2a58ee544a3e4d1936f5292015d09e" sha1="98fecfa9bffd49bf77e92347dfad2153900d51eb" />
<rom name="Disc Not Detected (Track 06).bin" size="19020624" crc="1a13cb6b" md5="087cd1b6229224d01b4143cb33a07b6f" sha1="b48b0e903f08a35703becfed570f40aaa8c58333" />
<rom name="Disc Not Detected (Track 07).bin" size="20104896" crc="2ac24940" md5="9e5bb4879c8957a3968ce0ecef246d8d" sha1="51c47fd74d897f493548371a032c10df39e1c6f0" />
<rom name="Disc Not Detected (Track 08).bin" size="22426320" crc="d6b96674" md5="8b6c9a79d49e13aec29cdbe49968cde6" sha1="485c11ca5d04349696e1d1900e381b8d55bd97e0" />
<rom name="Disc Not Detected (Track 09).bin" size="16400496" crc="8f52719e" md5="f0be134004423335a1fc8b75f20210cb" sha1="d15a0f31708177964b339c805592ad8b92dd5093" />
<rom name="Disc Not Detected (Track 10).bin" size="18757200" crc="44b46d0a" md5="5e2823fe52242c43af270b0ab84b1a0c" sha1="4d172f2df18b64a5937c9a8edba266680a2b89b3" />
<rom name="Disc Not Detected (Track 11).bin" size="12406800" crc="ad62ca4c" md5="ca035119035b549137ec3fff6968ddbd" sha1="cb1ce83bf45f1e67fd0b6a6adec322f23196d0ff" />
<rom name="Disc Not Detected (Track 12).bin" size="12258624" crc="83b65b01" md5="2460e7a17c4a0dc15fe7893fe0e3ae9b" sha1="5c29d05b3c20d99751bf3aa2d1c3f6883e752972" />
<rom name="Disc Not Detected (Track 13).bin" size="24780672" crc="64394adc" md5="7835edb9b2363b832b16362ddf40b16d" sha1="343db154c439f4cce9a1d89ca4e9e2eb27a5954b" />
<rom name="Disc Not Detected (Track 14).bin" size="25342800" crc="5982fdcd" md5="2d459ab9cec2e333765813e97d8226c9" sha1="14b6cfe272e7275579bff6b835bb391d0aeced81" />
<rom name="Disc Not Detected (Track 15).bin" size="11807040" crc="c5dca2b1" md5="3bbe92509ba62a5bc802d5294dbae6c3" sha1="ecc4fbf041f2753d0b37e2cc11844b091d13f45c" />
<rom name="Disc Not Detected (Track 16).bin" size="12505584" crc="5e892249" md5="f0147e856a4faaf0806d8e761d608c8e" sha1="f2884671d0d9f6eebefead8254dce5e9b52b58a7" />
<rom name="Disc Not Detected (Track 17).bin" size="14166096" crc="c4a3990a" md5="e41f84ec82d11e674f441db419257078" sha1="3fbeebc12ce03d2eac1748f4a41790a449602e43" />
<rom name="Disc Not Detected (Track 18).bin" size="13277040" crc="a9ae84d0" md5="45cd92c6545dd1a6f235836e8ab468e6" sha1="1440448bd6808268b51358888876840704e33b89" />
<rom name="Disc Not Detected (Track 19).bin" size="7248864" crc="37d7a2a0" md5="4e622df26e9a2c40ba3c039aad09b5b3" sha1="031b4faea0008b77e449225b2074afcec030a0ab" />
<rom name="Disc Not Detected (Track 20).bin" size="6889008" crc="bdd11318" md5="ccd38222ffcdcb20d02f1f575a1f179a" sha1="95ae9d2291fa5ec2775137e92de243824a34b03f" />
<rom name="Disc Not Detected (Track 21).bin" size="6776112" crc="f3d50539" md5="9dae67748ccf0f5170a29ca2eae3c47b" sha1="232e250033b3175f0a033fba31f36e5a012441fb" />
<rom name="Disc Not Detected (Track 22).bin" size="6924288" crc="ec7fa100" md5="a01bc239c51217a28616bd3e0f3ba2fe" sha1="3f61819c464884ee6c0c13871d10b4e3cbad4c2b" />
<rom name="Disc Not Detected (Track 23).bin" size="7328832" crc="cc6d55b6" md5="65d07acef2e45ad8b3a663bbf7192900" sha1="89bb00fa6ad62256256a774751218a5fa0708209" />
<rom name="Disc Not Detected (Track 24).bin" size="7126560" crc="127471d4" md5="b07aee53cf76d5f74824673d212f2a6d" sha1="b7123cfe998fde50b2c8bb99be687d3986845786" />
<rom name="Disc Not Detected (Track 25).bin" size="8947008" crc="2684224a" md5="7616de2106ceada62123d9a2a2d9cf44" sha1="cb7cdb526e8c1a2167fd53f9ece46556c0c0a349" />
<rom name="Disc Not Detected (Track 26).bin" size="9339792" crc="6572d3e6" md5="e558eb2dfcf8e61e7e37de9455ce74d5" sha1="4055a8c112309676c5fc5535f9e478435a0cff14" />
<rom name="Disc Not Detected (Track 27).bin" size="50579760" crc="b3982f47" md5="aa81b6b9f141ce1bf73be6fd4e3876aa" sha1="578340ed5fc033a98a6bcb494c5f6e645cd3d601" />
<rom name="Disc Not Detected (Track 28).bin" size="69915552" crc="b50c7bf7" md5="a375ddf90c973e1e7d8fc5e3ecec4c99" sha1="cdc57006a71488cf1b5cb59efb19f6081eb3574e" />
<rom name="Disc Not Detected (Track 29).bin" size="7058352" crc="bec6e1a9" md5="0d70cf088d39cbaee4af80e37dbcb74a" sha1="e9756df229eccca70b922f7da0fa9ff7ba632399" />
<rom name="Disc Not Detected (Track 30).bin" size="122049984" crc="e077cdea" md5="d42fe30a3a4706b8337107b0fd17a1d8" sha1="8438a9e19c42b2311ff74162d2cee56153987624" />
<rom name="Disc Not Detected (Track 31).bin" size="1724016" crc="adb54b62" md5="e9643a933c8591d7db76f0da5479c1e3" sha1="1e69dd7cc937fb8ae253dacd059109f79b091009" />

    Cuesheet:

FILE "Disc Not Detected (Track 01).bin" BINARY
  TRACK 01 MODE1/2352
    INDEX 01 00:00:00
FILE "Disc Not Detected (Track 02).bin" BINARY
  TRACK 02 AUDIO
    INDEX 00 00:00:00
    INDEX 01 00:03:00
FILE "Disc Not Detected (Track 03).bin" BINARY
  TRACK 03 AUDIO
    INDEX 00 00:00:00
    INDEX 01 00:02:00
FILE "Disc Not Detected (Track 04).bin" BINARY
  TRACK 04 AUDIO
    INDEX 00 00:00:00
    INDEX 01 00:02:00
FILE "Disc Not Detected (Track 05).bin" BINARY
  TRACK 05 AUDIO
    INDEX 00 00:00:00
    INDEX 01 00:02:00
FILE "Disc Not Detected (Track 06).bin" BINARY
  TRACK 06 AUDIO
    INDEX 00 00:00:00
    INDEX 01 00:02:00
FILE "Disc Not Detected (Track 07).bin" BINARY
  TRACK 07 AUDIO
    INDEX 00 00:00:00
    INDEX 01 00:02:00
FILE "Disc Not Detected (Track 08).bin" BINARY
  TRACK 08 AUDIO
    INDEX 00 00:00:00
    INDEX 01 00:02:00
FILE "Disc Not Detected (Track 09).bin" BINARY
  TRACK 09 AUDIO
    INDEX 00 00:00:00
    INDEX 01 00:02:00
FILE "Disc Not Detected (Track 10).bin" BINARY
  TRACK 10 AUDIO
    INDEX 00 00:00:00
    INDEX 01 00:02:00
FILE "Disc Not Detected (Track 11).bin" BINARY
  TRACK 11 AUDIO
    INDEX 00 00:00:00
    INDEX 01 00:02:00
FILE "Disc Not Detected (Track 12).bin" BINARY
  TRACK 12 AUDIO
    INDEX 00 00:00:00
    INDEX 01 00:02:00
FILE "Disc Not Detected (Track 13).bin" BINARY
  TRACK 13 AUDIO
    INDEX 00 00:00:00
    INDEX 01 00:02:00
FILE "Disc Not Detected (Track 14).bin" BINARY
  TRACK 14 AUDIO
    INDEX 00 00:00:00
    INDEX 01 00:02:00
FILE "Disc Not Detected (Track 15).bin" BINARY
  TRACK 15 AUDIO
    INDEX 00 00:00:00
    INDEX 01 00:02:00
FILE "Disc Not Detected (Track 16).bin" BINARY
  TRACK 16 AUDIO
    INDEX 00 00:00:00
    INDEX 01 00:02:00
FILE "Disc Not Detected (Track 17).bin" BINARY
  TRACK 17 AUDIO
    INDEX 00 00:00:00
    INDEX 01 00:02:00
FILE "Disc Not Detected (Track 18).bin" BINARY
  TRACK 18 AUDIO
    INDEX 00 00:00:00
    INDEX 01 00:02:00
FILE "Disc Not Detected (Track 19).bin" BINARY
  TRACK 19 AUDIO
    INDEX 00 00:00:00
    INDEX 01 00:02:00
FILE "Disc Not Detected (Track 20).bin" BINARY
  TRACK 20 AUDIO
    INDEX 00 00:00:00
    INDEX 01 00:02:00
FILE "Disc Not Detected (Track 21).bin" BINARY
  TRACK 21 AUDIO
    INDEX 00 00:00:00
    INDEX 01 00:02:00
FILE "Disc Not Detected (Track 22).bin" BINARY
  TRACK 22 AUDIO
    INDEX 00 00:00:00
    INDEX 01 00:02:00
FILE "Disc Not Detected (Track 23).bin" BINARY
  TRACK 23 AUDIO
    INDEX 00 00:00:00
    INDEX 01 00:02:00
FILE "Disc Not Detected (Track 24).bin" BINARY
  TRACK 24 AUDIO
    INDEX 00 00:00:00
    INDEX 01 00:02:00
FILE "Disc Not Detected (Track 25).bin" BINARY
  TRACK 25 AUDIO
    INDEX 00 00:00:00
    INDEX 01 00:02:00
FILE "Disc Not Detected (Track 26).bin" BINARY
  TRACK 26 AUDIO
    INDEX 00 00:00:00
    INDEX 01 00:02:00
FILE "Disc Not Detected (Track 27).bin" BINARY
  TRACK 27 AUDIO
    INDEX 00 00:00:00
    INDEX 01 00:02:00
FILE "Disc Not Detected (Track 28).bin" BINARY
  TRACK 28 AUDIO
    INDEX 00 00:00:00
    INDEX 01 00:02:00
FILE "Disc Not Detected (Track 29).bin" BINARY
  TRACK 29 AUDIO
    INDEX 00 00:00:00
    INDEX 01 00:02:00
FILE "Disc Not Detected (Track 30).bin" BINARY
  TRACK 30 AUDIO
    INDEX 00 00:00:00
    INDEX 01 00:02:00
FILE "Disc Not Detected (Track 31).bin" BINARY
  TRACK 31 AUDIO
    INDEX 00 00:00:00
    INDEX 01 00:02:00

    Write Offset: +2

Dumping Info:
    Dumping Program: redumper v2023.10.02 build_221
    Date: 2023-10-19 09.13.40
    Manufacturer: PLEXTOR
    Model: DVDR PX-755A
    Firmware: 1.08 (08/18/07 15:10)

Logs: https://mega.nz/file/qnh1WQLQ#KtMRmF2uU … XcdPnJz6qc

5

(2 replies, posted in Verifications)

Disc 3
http://redump.org/disc/103632/

Common Disc Info:
    Title: Kwa Ryo En Gwi
    Foreign Title (Non-latin): 迦陵演義
    Disc Number / Letter: 3
    Disc Title: Making of Kwa Ryo En Gwi
    System: IBM PC compatible
    Media Type: CD-ROM
    Category: Games
    Fully Matching ID: 103632
    Region: Japan
    Languages: 
    Disc Serial: PCR-7001-C

    Ringcode Information:

Data Side Mastering Code (laser branded/etched): IPCR-7001-C    P01
Data Side Mastering SID Code: IFPI L715
Data Side Toolstamp or Mastering Code (engraved/stamped): 
Data Side Mould SID Code: IFPI 1S26
Data Side Additional Mould: 
Label Side Mould SID Code: 

    Barcode: 4 995194 000409
    Error Count: 0
    Comments: [T:VOL] KARYOCD3
    Contents: 

Version and Editions:
    Version: 
    Edition/Release: Original

Extras:
    Primary Volume Descriptor (PVD):

0320 : 20 20 20 20 20 20 20 20  20 20 20 20 20 31 39 39                199
0330 : 38 30 34 30 32 31 39 34  35 34 38 30 30 DC 31 39   8040219454800.19
0340 : 39 38 30 34 30 32 31 39  34 35 34 38 30 30 DC 30   98040219454800.0
0350 : 30 30 30 30 30 30 30 30  30 30 30 30 30 30 30 00   000000000000000.
0360 : 30 30 30 30 30 30 30 30  30 30 30 30 30 30 30 30   0000000000000000
0370 : 00 01 00 00 00 00 00 00  00 00 00 00 00 00 00 00   ................

Copy Protection:
    Copy Protection: None found [OMIT FROM SUBMISSION]

Tracks and Write Offsets:
    DAT:

<rom name="KARYOCD3.bin" size="540327312" crc="076d60c5" md5="e8e44f460c3be3984512b199712781dc" sha1="82610b20363fcd73562b6e7e436f683487e22165" />

    Cuesheet:

CATALOG 0000000000000
FILE "KARYOCD3.bin" BINARY
  TRACK 01 MODE1/2352
    INDEX 01 00:00:00

    Write Offset: 0

Dumping Info:
    Dumping Program: DiscImageCreator 20230606
    Date: 2023-10-18 07.05.55
    Manufacturer: PLEXTOR
    Model: DVDR    PX-755A
    Firmware: 1.08
    Reported Disc Type: CD-DA or CD-ROM Disc

Logs: https://mega.nz/file/vnpjkZJb#2nGwlUmqu … q9zEp25yNA

6

(2 replies, posted in Verifications)

Disc 2
http://redump.org/disc/103631/

Common Disc Info:
    Title: Kwa Ryo En Gwi
    Foreign Title (Non-latin): 迦陵演義
    Disc Number / Letter: 2
    Disc Title: 
    System: IBM PC compatible
    Media Type: CD-ROM
    Category: Games
    Fully Matching ID: 103631
    Region: Japan
    Languages: 
    Disc Serial: IPCR-7001-B

    Ringcode Information:

Data Side Mastering Code (laser branded/etched): IPCR-7001-B    P01
Data Side Mastering SID Code: IFPI L715
Data Side Toolstamp or Mastering Code (engraved/stamped): 
Data Side Mould SID Code: IFPI 1S26
Data Side Additional Mould: 
Label Side Mould SID Code: 

    Barcode: 4 995194 000409
    Error Count: 0
    Comments:
[T:VOL] KARYOCD2
Windows 95/NT4.0
Comes bundled with Making of Kwa Ryo En Gwi CD-ROM
    Contents: 

Version and Editions:
    Version: 
    Edition/Release: Original

Extras:
    Primary Volume Descriptor (PVD):

0320 : 20 20 20 20 20 20 20 20  20 20 20 20 20 31 39 39                199
0330 : 38 30 34 30 32 31 36 30  37 33 34 30 30 DC 31 39   8040216073400.19
0340 : 39 38 30 34 30 32 31 36  30 37 33 34 30 30 DC 30   98040216073400.0
0350 : 30 30 30 30 30 30 30 30  30 30 30 30 30 30 30 00   000000000000000.
0360 : 30 30 30 30 30 30 30 30  30 30 30 30 30 30 30 30   0000000000000000
0370 : 00 01 00 00 00 00 00 00  00 00 00 00 00 00 00 00   ................

Copy Protection:
    Copy Protection: None found [OMIT FROM SUBMISSION]

Tracks and Write Offsets:
    DAT:

<rom name="KARYOCD2.bin" size="459206832" crc="0f59d2f2" md5="2cc638390411896a22b3300a949473ea" sha1="135584dcf3841692f4774551b40d9b335298b8fd" />

    Cuesheet:

CATALOG 0000000000000
FILE "KARYOCD2.bin" BINARY
  TRACK 01 MODE1/2352
    INDEX 01 00:00:00

    Write Offset: 0

Dumping Info:
    Dumping Program: DiscImageCreator 20230606
    Date: 2023-10-08 10.06.35
    Manufacturer: PLEXTOR
    Model: DVDR    PX-755A
    Firmware: 1.08
    Reported Disc Type: CD-DA or CD-ROM Disc

Logs: https://mega.nz/file/n6A2QaZC#q1AZxbiU0 … knxXCXH_ZI

7

(2 replies, posted in Verifications)

Disc 1
http://redump.org/disc/103630/

Common Disc Info:
    Title: Kwa Ryo En Gwi
    Foreign Title (Non-latin): 迦陵演義
    Disc Number / Letter: 1
    Disc Title: 
    System: IBM PC compatible
    Media Type: CD-ROM
    Category: Games
    Fully Matching ID: 103630
    Region: Japan
    Languages: 
    Disc Serial: IPCR-7001-A

    Ringcode Information:

Data Side Mastering Code (laser branded/etched): IPCR-7001-A    P01
Data Side Mastering SID Code: IFPI L715
Data Side Toolstamp or Mastering Code (engraved/stamped): 
Data Side Mould SID Code: IFPI 1S27
Data Side Additional Mould: 
Label Side Mould SID Code: 

    Barcode: 4 995194 000409
    Error Count: 0
    Comments: [T:VOL] KARYOCD1
Windows 95/NT4.0
Comes bundled with Making of Kwa Ryo En Gwi CD-ROM
    Contents: 

Version and Editions:
    Version: 
    Edition/Release: Original

Extras:
    Primary Volume Descriptor (PVD):

0320 : 20 20 20 20 20 20 20 20  20 20 20 20 20 31 39 39                199
0330 : 38 30 34 30 33 30 33 32  32 33 37 30 30 DC 31 39   8040303223700.19
0340 : 39 38 30 34 30 33 30 33  32 32 33 37 30 30 DC 30   98040303223700.0
0350 : 30 30 30 30 30 30 30 30  30 30 30 30 30 30 30 00   000000000000000.
0360 : 30 30 30 30 30 30 30 30  30 30 30 30 30 30 30 30   0000000000000000
0370 : 00 01 00 00 00 00 00 00  00 00 00 00 00 00 00 00   ................

Copy Protection:
    Copy Protection: None found [OMIT FROM SUBMISSION]

Tracks and Write Offsets:
    DAT:

<rom name="KARYOCD1.bin" size="212420880" crc="1e2cf05f" md5="3fb5f2ba9247744ffa190a8641e88885" sha1="6c95187027e2c4ac2a4b4e880d4aa3e3dd31705b" />

    Cuesheet:

CATALOG 0000000000000
FILE "KARYOCD1.bin" BINARY
  TRACK 01 MODE1/2352
    INDEX 01 00:00:00

    Write Offset: 0

Dumping Info:
    Dumping Program: DiscImageCreator 20230606
    Date: 2023-10-08 10.39.23
    Manufacturer: PLEXTOR
    Model: DVDR    PX-755A
    Firmware: 1.08
    Reported Disc Type: CD-DA or CD-ROM Disc

Logs: https://mega.nz/file/ynhRWSLC#hPpo9RoxM … ZJ2bIItD4Y