1

(0 replies, posted in Verifications)

http://redump.org/disc/54349/

Common Disc Info:
    Title: Moon
    Foreign Title (Non-latin): ムーン
    Disc Number / Letter: 
    Disc Title: 
    System: IBM PC compatible
    Media Type: CD-ROM
    Category: Games
    Matching IDs: 54349
    Region: Japan
    Languages: Japanese
    Disc Serial: XING000059

    Ringcode Information:
        Data Side Mastering Code (laser branded/etched): XING000059    OP6Y3A
        Data Side Mastering SID Code: IFPI L301
        Data Side Toolstamp or Mastering Code (engraved/stamped): 
        Data Side Mould SID Code: 
        Data Side Additional Mould: 
        Label Side Mould SID Code: 
    Barcode: 4 948536 100893
    Error Count: 0
    Comments: [T:G] Original Map Scroll Type Adventure Game
Windows 95
    Contents: 

Version and Editions:
    Version: 
    Edition/Release: Original

Extras:
    Primary Volume Descriptor (PVD):

0320 : 20 20 20 20 20 20 20 20  20 20 20 20 20 31 39 39                199
0330 : 36 31 31 31 38 31 33 32  34 31 38 30 30 DC 31 39   6111813241800.19
0340 : 39 36 31 31 31 38 31 33  32 34 31 38 30 30 DC 30   96111813241800.0
0350 : 30 30 30 30 30 30 30 30  30 30 30 30 30 30 30 00   000000000000000.
0360 : 30 30 30 30 30 30 30 30  30 30 30 30 30 30 30 30   0000000000000000
0370 : 00 01 00 00 00 00 00 00  00 00 00 00 00 00 00 00   ................

Copy Protection:
    Copy Protection: An error occurred while scanning!

Tracks and Write Offsets:
    DAT:

<rom name="track.bin" size="228774336" crc="dc354b9d" md5="03ba113d1ef2823679bed2ab4032a759" sha1="cbb36b8f2d9b53fa93991940bb393a0e74f39501" />

    Cuesheet:

CATALOG 0000000000000
FILE "track.bin" BINARY
  TRACK 01 MODE1/2352
    INDEX 01 00:00:00

    Write Offset: 222

Logs: https://mega.nz/file/njwVWDaJ#FKXZ3mPqf … 7rCDyl94ZU

Favorite Dear Bonus Disc (Windows-ban Original Bonus Disc)
http://redump.org/disc/87897/

Common Disc Info:
    Title: Favorite Dear Bonus Disc
    Foreign Title (Non-latin): フェイバリットディアWindows版オリジナルおまけディスク
    Disc Number / Letter: 
    Disc Title: Windows-ban Original Omake Disc
    System: IBM PC compatible
    Media Type: CD-ROM
    Category: Bonus Discs
    Matching IDs: 87897
    Region: Japan
    Languages: Japanese
    Disc Serial: ID NO.9972-60-B-01

    Ringcode Information:
        Data Side Mastering Code (laser branded/etched): 9972-60-B-01-R1T   V
        Data Side Mastering SID Code: IFPI L236
        Data Side Toolstamp or Mastering Code (engraved/stamped): IFPI 4011
        Data Side Mould SID Code: 
        Data Side Additional Mould: 
        Label Side Mould SID Code: 
    Barcode: T4513244005343
    Error Count: 0
    Comments:

[T:VOL] FD_OMAKE
Bundled with <a href=/disc/87898/>Favorite Dear for Windows</a>
Disc Label (Non-Latin): Windows版オリジナルおまけディスク

    Contents:

Desktop Themes
Comments of Voice Actors
Favorite Dear Official Site (Web Files)
Information of Various Favorite Dear Merchandises
Promo Movies of Favorite Dear: Junpaku no Yogensha

Version and Editions:
    Version: 
    Edition/Release: PC Game Bundle

Extras:
    Primary Volume Descriptor (PVD):

0320 : 20 20 20 20 20 20 20 20  20 20 20 20 20 32 30 30                200
0330 : 30 30 36 31 33 31 30 35  38 35 35 30 30 00 32 30   0061310585500.20
0340 : 30 30 30 36 31 33 31 30  35 38 35 35 30 30 00 30   00061310585500.0
0350 : 30 30 30 30 30 30 30 30  30 30 30 30 30 30 30 00   000000000000000.
0360 : 30 30 30 30 30 30 30 30  30 30 30 30 30 30 30 30   0000000000000000
0370 : 00 01 00 00 00 00 00 00  00 00 00 00 00 00 00 00   ................

Copy Protection:
    Copy Protection: None found

Tracks and Write Offsets:
    DAT:

<rom name="FD_OMAKE.bin" size="369151104" crc="65794fdf" md5="2ca2c6fe4b8e98bb7f9a1990f3d462c2" sha1="05b53e75d003848cd729d29edf91e9fd533786e8" />

    Cuesheet:

CATALOG 0000000000000
FILE "FD_OMAKE.bin" BINARY
  TRACK 01 MODE1/2352
    INDEX 01 00:00:00

    Write Offset: 78

Logs: https://mega.nz/file/in5WHRzJ#iIAKaqGkg … Eo9HL2L7YI

http://redump.org/disc/87898/

Common Disc Info:
    Title: Favorite Dear for Windows
    Foreign Title (Non-latin): フェイバリットディアforWindows
    Disc Number / Letter: 
    Disc Title: 
    System: IBM PC compatible
    Media Type: CD-ROM
    Category: Games
    Matching IDs: 87898
    Region: Japan
    Languages: Japanese
    Disc Serial: ID NO.9972-60-A-01

    Ringcode Information:
        Data Side Mastering Code (laser branded/etched): 9972-60-A-01-R1T   V
        Data Side Mastering SID Code: IFPI L236
        Data Side Toolstamp or Mastering Code (engraved/stamped): IFPI 4011
        Data Side Mould SID Code: 
        Data Side Additional Mould: 
        Label Side Mould SID Code: 
    Barcode: T4513244005343
    Error Count: 0
    Comments:

[T:VOL] FAVORITEDEAR
[T:ISBN] 4-89090-424-7 C0800 ¥8800E
Product Code: IC-9972
Retail Price: ¥8800 (Excl. Tax)
Bundled with a <a href=/disc/87897/>bonus disc</a>.

    Contents:

Programs:
Microsoft DirectX 7.0a (v4.07.00.0716 (RC0))
MicrosoftDirectX Media v6.0

Version and Editions:
    Version: 
    Edition/Release: Original

Extras:
    Primary Volume Descriptor (PVD):

0320 : 20 20 20 20 20 20 20 20  20 20 20 20 20 32 30 30                200
0330 : 30 30 36 31 31 31 39 33  34 34 36 30 30 DC 32 30   0061119344600.20
0340 : 30 30 30 36 31 31 31 39  33 34 34 36 30 30 DC 30   00061119344600.0
0350 : 30 30 30 30 30 30 30 30  30 30 30 30 30 30 30 00   000000000000000.
0360 : 30 30 30 30 30 30 30 30  30 30 30 30 30 30 30 30   0000000000000000
0370 : 00 01 00 00 00 00 00 00  00 00 00 00 00 00 00 00   ................

Copy Protection:
    Copy Protection: None found

Tracks and Write Offsets:
    DAT:

<rom name="FAVORITEDEAR.bin" size="419338080" crc="41a2cd48" md5="7e411c3ac93ff22391ef59431e8d59ed" sha1="93a744c48c1504f59317f6b4ed998bf4f0aaedbc" />

    Cuesheet:

CATALOG 0000000000000
FILE "FAVORITEDEAR.bin" BINARY
  TRACK 01 MODE1/2352
    INDEX 01 00:00:00

    Write Offset: 78

Logs: https://mega.nz/file/XipWTYyT#LgIul5M_h … mKDmBwgUls

4

(0 replies, posted in Verifications)

Last two install discs match with the Taiwanese release:

Install Disc 4
http://redump.org/disc/27358/

Common Disc Info:
    Title: Sakura Taisen 2: Kimi, Shinitamou Koto Nakare (Install Disc 4)
    Foreign Title (Non-latin): サクラ大戦2~君、死にたもうことなかれ~
    Disc Number / Letter:
    Disc Title: INSTALL DISCインストールディスク4
    System: IBM PC compatible
    Media Type: CD-ROM
    Category: Games
    Matching IDs: 27358
    Region: Japan
    Languages: Japanese
    Disc Serial: 673-02560

    Ringcode Information:
        Data Side Mastering Code (laser branded/etched): HCJ-0303P-02610    KML015A
        Data Side Mastering SID Code: IFPI-L542
        Data Side Toolstamp or Mastering Code (engraved/stamped): 
        Data Side Mould SID Code: IFPI 1XO5
        Data Side Additional Mould: 
        Label Side Mould SID Code: 
    Barcode: 4 974365 203030
    Error Count: 0
    Comments: [T:VOL] ST2_INSTALL4
Windows 95/98/Me
    Contents: 

Version and Editions:
    Version: 
    Edition/Release: Shokai Genteiban

Extras:
    Primary Volume Descriptor (PVD):

0320 : 20 20 20 20 20 20 20 20  20 20 20 20 20 32 30 30                200
0330 : 31 30 31 30 35 31 38 31  34 35 37 39 37 00 30 30   1010518145797.00
0340 : 30 30 30 30 30 30 30 30  30 30 30 30 30 30 00 30   00000000000000.0
0350 : 30 30 30 30 30 30 30 30  30 30 30 30 30 30 30 00   000000000000000.
0360 : 30 30 30 30 30 30 30 30  30 30 30 30 30 30 30 30   0000000000000000
0370 : 00 01 00 00 00 00 00 00  00 00 00 00 00 00 00 00   ................

Copy Protection:
    Copy Protection: None found

Tracks and Write Offsets:
    DAT:

<rom name="ST2_INSTALL4.bin" size="430658256" crc="0f811c97" md5="a8c70681b6febb403a571a850ae0dba4" sha1="518ef6d6b4a2a9d739268aded927d37fc6e8c920" />

    Cuesheet:

CATALOG 0000000000000
FILE "ST2_INSTALL4.bin" BINARY
  TRACK 01 MODE1/2352
    INDEX 01 00:00:00

    Write Offset: 0

Logs: https://mega.nz/file/Oq43SSII#_618nqEtC … F-zSxHr3q4



Install Disc 5
http://redump.org/disc/27359/

Common Disc Info:
    Title: Sakura Taisen 2: Kimi, Shinitamou Koto Nakare (Install Disc 5)
    Foreign Title (Non-latin): サクラ大戦2~君、死にたもうことなかれ~
    Disc Number / Letter: 
    Disc Title: INSTALL DISCインストールディスク5
    System: IBM PC compatible
    Media Type: CD-ROM
    Category: Games
    Matching IDs: 27359
    Region: Japan
    Languages: Japanese
    Disc Serial: 673-02561

    Ringcode Information:
        Data Side Mastering Code (laser branded/etched): HCJ-0303P-02611    KML016A
        Data Side Mastering SID Code: IFPI-L542
        Data Side Toolstamp or Mastering Code (engraved/stamped): 
        Data Side Mould SID Code: IFPI 1XO5
        Data Side Additional Mould: 
        Label Side Mould SID Code: 
    Barcode: 4 974365 203030
    Error Count: 0
    Comments: [T:VOL] ST2_INSTALL5
Windows 95/98/Me
    Contents: 

Version and Editions:
    Version: 
    Edition/Release: Shokai Genteiban

Extras:
    Primary Volume Descriptor (PVD):

0320 : 20 20 20 20 20 20 20 20  20 20 20 20 20 32 30 30                200
0330 : 31 30 31 30 39 31 35 33  37 31 31 36 32 00 30 30   1010915371162.00
0340 : 30 30 30 30 30 30 30 30  30 30 30 30 30 30 00 30   00000000000000.0
0350 : 30 30 30 30 30 30 30 30  30 30 30 30 30 30 30 00   000000000000000.
0360 : 30 30 30 30 30 30 30 30  30 30 30 30 30 30 30 30   0000000000000000
0370 : 00 01 00 00 00 00 00 00  00 00 00 00 00 00 00 00   ................

Copy Protection:
    Copy Protection: None found

Tracks and Write Offsets:
    DAT:

<rom name="ST2_INSTALL5.bin" size="150217536" crc="b8436edb" md5="34f9d59e83c104f74167ad52e8293f8f" sha1="f011b1063d5cde026268b152a23a45c67093a5cf" />

    Cuesheet:

CATALOG 0000000000000
FILE "ST2_INSTALL5.bin" BINARY
  TRACK 01 MODE1/2352
    INDEX 01 00:00:00

    Write Offset: 0

Logs: https://mega.nz/file/nyIhVC7Q#s7LWcx8-0 … YApsUUqfz4

5

(0 replies, posted in Verifications)

http://redump.org/disc/7054/

Common Disc Info:
    Title: Duo Princess
    Foreign Title (Non-latin): デュオプリンセス
    Disc Number / Letter: 
    Disc Title: 
    System: IBM PC compatible
    Media Type: CD-ROM
    Category: Games
    Matching IDs: 7054
    Region: Japan
    Languages: Japanese
    Disc Serial: 

    Ringcode Information:
        Data Side Mastering Code (laser branded/etched): EGS-0004    JRC-16847    Made in Korea
        Data Side Mastering SID Code: IFPI LR21
        Data Side Toolstamp or Mastering Code (engraved/stamped): 
        Data Side Mould SID Code: IFPI D9L3
        Data Side Additional Mould: 
        Label Side Mould SID Code: 
    Barcode: 
    Error Count: 0
    Comments: [T:VOL] DUOPRI
Windows 98/Me/2000/XP
    Contents: 

Version and Editions:
    Version: 
    Edition/Release: Original

Extras:
    Primary Volume Descriptor (PVD):

0320 : 20 20 20 20 20 20 20 20  20 20 20 20 20 32 30 30                200
0330 : 33 31 30 30 36 30 32 32  33 32 30 37 38 24 30 30   3100602232078$00
0340 : 30 30 30 30 30 30 30 30  30 30 30 30 30 30 24 30   00000000000000$0
0350 : 30 30 30 30 30 30 30 30  30 30 30 30 30 30 30 24   000000000000000$
0360 : 30 30 30 30 30 30 30 30  30 30 30 30 30 30 30 30   0000000000000000
0370 : 24 01 00 00 00 00 00 00  00 00 00 00 00 00 00 00   $...............

Copy Protection:
    Copy Protection: None found

Tracks and Write Offsets:
    DAT:

<rom name="DUOPRI.bin" size="157758048" crc="fb475a00" md5="3ed1e1c2a5831ac63268183334f19c84" sha1="8ac1d9877147acae3245ab6672de36f140f48d84" />

    Cuesheet:

FILE "DUOPRI.bin" BINARY
  TRACK 01 MODE1/2352
    INDEX 01 00:00:00

    Write Offset: 0

Logs: https://mega.nz/file/yrI1FTxS#rRRnyElLB … _Z-5s0iZXM

http://redump.org/disc/87899/

Original submission seems to have typos in Disc serial and Mastering code, as the first three letters are obviously KGD for Kogado (not KDG)

Common Disc Info:
    Title: Sequence Palladium 2: Yami no Shousei
    Foreign Title (Non-latin): シークエンス・パラディウム2~闇の笑声~
    Disc Number / Letter: 
    Disc Title: 
    System: IBM PC compatible
    Media Type: CD-ROM
    Category: Games
    Matching IDs: 87899
    Region: Japan
    Languages: Japanese
    Disc Serial: KGD-9990

    Ringcode Information:
        Data Side Mastering Code (laser branded/etched): KGD-9990    9C06-E
        Data Side Mastering SID Code: IFPI LJ76
        Data Side Toolstamp or Mastering Code (engraved/stamped): 
        Data Side Mould SID Code: IFPI 9907
        Data Side Additional Mould: 
        Label Side Mould SID Code: 
    Barcode: 4 959067 999801
    Error Count: 0
    Comments:

[T:VOL] SP2
Retail Price: ¥11800 (Excl. Tax)
Windows 95/98

    Contents:

Programs:
Indeo Software Codecs (v3.2/v4.5/v5.11)
Microsoft DirectX 5.0 (v4.05.00.0155)
Extras:
Windows Events Sound Effects

Version and Editions:
    Version: 
    Edition/Release: Original

Extras:
    Primary Volume Descriptor (PVD):

0320 : 20 20 20 20 20 20 20 20  20 20 20 20 20 31 39 39                199
0330 : 39 31 32 30 33 32 33 32  35 32 36 30 30 DC 31 39   9120323252600.19
0340 : 39 39 31 32 30 33 32 33  32 35 32 36 30 30 DC 30   99120323252600.0
0350 : 30 30 30 30 30 30 30 30  30 30 30 30 30 30 30 00   000000000000000.
0360 : 30 30 30 30 30 30 30 30  30 30 30 30 30 30 30 30   0000000000000000
0370 : 00 01 00 00 00 00 00 00  00 00 00 00 00 00 00 00   ................

Copy Protection:
    Copy Protection: None found

Tracks and Write Offsets:
    DAT:

<rom name="SP2 (Track 1).bin" size="735425712" crc="0b74c849" md5="569cfeb6c62b5bf11f98fb652848f8bc" sha1="03bc7dcaa3e4143aa5dc1ad9e40e88a37246f31b" />
<rom name="SP2 (Track 2).bin" size="24919440" crc="3dd4cf5e" md5="d7fb2c691371a6985e2a2a2088a321be" sha1="1add0721d7202039ac2a4fec7fbf1f53f629089f" />

    Cuesheet:

FILE "SP2 (Track 1).bin" BINARY
  TRACK 01 MODE1/2352
    INDEX 01 00:00:00
FILE "SP2 (Track 2).bin" BINARY
  TRACK 02 AUDIO
    INDEX 00 00:00:00
    INDEX 01 00:02:00

    Write Offset: -22

Logs: https://mega.nz/file/zvo0yK5a#pNgb7So7w … puIS2DVC98

http://redump.org/disc/76010/

Common Disc Info:
    Title: Brandish 4: Nemureru Kami no Tou
    Foreign Title (Non-latin): ブランディッシュ4眠れる神の塔
    Disc Number / Letter: 
    Disc Title: 
    System: IBM PC compatible
    Media Type: CD-ROM
    Category: Games
    Matching IDs: 76010
    Region: Japan
    Languages: Japanese
    Disc Serial: NF03012

    Ringcode Information:
        Data Side Mastering Code (laser branded/etched): NF03012 1
        Data Side Mastering SID Code: IFPI L154
        Data Side Toolstamp or Mastering Code (engraved/stamped): A1
        Data Side Mould SID Code: IFPI 2855
        Data Side Additional Mould: 
        Label Side Mould SID Code: 
    Barcode: 4 956027 121777
    Error Count: 0
    Comments:

[T:VOL] BR4_WIN
Edition Name (Non-Latin): プレミアム版
Product Code: NW10107060
Retail Price: ¥10800
For Windows95/98 CD-ROM.
Brandish 4 is a re-release of Brandish VT.

    Contents:

-Programs:
Microsoft DirectX 5.0 (v4.05.00.0155)
-Bonus Mini Game:
ハンマースライム (Hammer Slime)
Brandish 4 - Nemureru Kami no Tou - Windows release
Premium Edition with Guidebook, Staff pamphlet, Booklet Manual and Storybook.

Version and Editions:
    Version: 
    Edition/Release: Premium Edition

Extras:
    Primary Volume Descriptor (PVD):

0320 : 20 20 20 20 20 20 20 20  20 20 20 20 20 30 30 30                000
0330 : 30 30 30 30 30 30 30 30  30 30 30 30 30 00 30 30   0000000000000.00
0340 : 30 30 30 30 30 30 30 30  30 30 30 30 30 30 00 30   00000000000000.0
0350 : 30 30 30 30 30 30 30 30  30 30 30 30 30 30 30 00   000000000000000.
0360 : 30 30 30 30 30 30 30 30  30 30 30 30 30 30 30 30   0000000000000000
0370 : 00 01 00 00 00 00 00 00  00 00 00 00 00 00 00 00   ................

Copy Protection:
    Copy Protection: None found

Tracks and Write Offsets:
    DAT:

<rom name="BR4_WIN.bin" size="536399472" crc="3d48a01a" md5="dcd5637f5d256793a0325683d06b957c" sha1="ee0c535efed29330fcd456a81eaf53be88c5e3b7" />

    Cuesheet:

FILE "BR4_WIN.bin" BINARY
  TRACK 01 MODE1/2352
    INDEX 01 00:00:00

    Write Offset: 2

Logs: https://mega.nz/file/HzRlGYbS#YY4Tu9owl … -ZNmPzmk6I

8

(1 replies, posted in Verifications)

Disc 2
http://redump.org/disc/82434/

Common Disc Info:
    Title: Incarnatia
    Foreign Title (Non-latin): インカーネイティア
    Disc Number / Letter: 2
    Disc Title: 
    System: IBM PC compatible
    Media Type: CD-ROM
    Category: Games
    Matching IDs: 82434
    Region: Japan
    Languages: Japanese
    Disc Serial: SRRD 35

    Ringcode Information:
        Data Side Mastering Code (laser branded/etched): LRA-34    1
        Data Side Mastering SID Code: IFPI L274
        Data Side Toolstamp or Mastering Code (engraved/stamped): 
        Data Side Mould SID Code: IFPI 451C
        Data Side Additional Mould: 
        Label Side Mould SID Code: 
    Barcode: 4 988009 018492
    Error Count: 0
    Comments:

[T:VOL] INCAR_DISK2
Genre: Surrealistic Adventure Game
PC/Mac Hybrid

    Contents: 

Version and Editions:
    Version: 
    Edition/Release: Original

Extras:
    Primary Volume Descriptor (PVD):

0320 : 20 20 20 20 20 20 20 20  20 20 20 20 20 31 39 39                199
0330 : 37 31 30 32 33 31 38 35  38 35 30 30 30 00 31 39   7102318585000.19
0340 : 39 37 31 30 32 33 31 38  35 38 35 30 30 30 00 30   97102318585000.0
0350 : 30 30 30 30 30 30 30 30  30 30 30 30 30 30 30 00   000000000000000.
0360 : 30 30 30 30 30 30 30 30  30 30 30 30 30 30 30 30   0000000000000000
0370 : 00 01 00 00 00 00 00 00  00 00 00 00 00 00 00 00   ................

Copy Protection:
    Copy Protection: An error occurred while scanning!

Tracks and Write Offsets:
    DAT:

<rom name="INCAR_DISK2.bin" size="753093936" crc="9aae660d" md5="3432a83d53be77a39d19216e2b62917f" sha1="bffa1341e67e9851178c4afb44fd104c5fdc3e90" />

    Cuesheet:

FILE "INCAR_DISK2.bin" BINARY
  TRACK 01 MODE1/2352
    INDEX 01 00:00:00

    Write Offset: 2

Logs: https://mega.nz/file/u7hiBLLb#y3bOJZpop … jOAzp5yaSU

9

(1 replies, posted in Verifications)

Disc 1
http://redump.org/disc/82433/

Common Disc Info:
    Title: Incarnatia
    Foreign Title (Non-latin): インカーネイティア
    Disc Number / Letter: 1
    Disc Title: 
    System: IBM PC compatible
    Media Type: CD-ROM
    Category: Games
    Matching IDs: 82433
    Region: Japan
    Languages: Japanese
    Disc Serial: SRRD 34

    Ringcode Information:
        Data Side Mastering Code (laser branded/etched): LRA-33    1
        Data Side Mastering SID Code: IFPI L276
        Data Side Toolstamp or Mastering Code (engraved/stamped): 
        Data Side Mould SID Code: IFPI 45FA
        Data Side Additional Mould: 
        Label Side Mould SID Code: 
    Barcode: 4 988009 018492
    Error Count: 0
    Comments:

[T:VOL] INCAR_DISK1
Genre: Surrealistic Adventure Game
PC/Mac Hybrid

    Contents: 

Version and Editions:
    Version: 
    Edition/Release: Original

Extras:
    Primary Volume Descriptor (PVD):

0320 : 20 20 20 20 20 20 20 20  20 20 20 20 20 31 39 39                199
0330 : 37 31 30 32 32 31 35 30  31 34 31 30 30 00 31 39   7102215014100.19
0340 : 39 37 31 30 32 32 31 35  30 31 34 31 30 30 00 30   97102215014100.0
0350 : 30 30 30 30 30 30 30 30  30 30 30 30 30 30 30 00   000000000000000.
0360 : 30 30 30 30 30 30 30 30  30 30 30 30 30 30 30 30   0000000000000000
0370 : 00 01 00 00 00 00 00 00  00 00 00 00 00 00 00 00   ................

Copy Protection:
    Copy Protection: None found

Tracks and Write Offsets:
    DAT:

<rom name="INCAR_DISK1.bin" size="673631616" crc="de7e8f10" md5="fa749a669c59735626d9c9482de29b2a" sha1="7d0cb11707c0ec32c5757cb1d83b62828abc903e" />

    Cuesheet:

FILE "INCAR_DISK1.bin" BINARY
  TRACK 01 MODE1/2352
    INDEX 01 00:00:00

    Write Offset: 2

Logs: https://mega.nz/file/vyYkWLzT#Wq9x_Xfi1 … 5y-O8A1ngo

http://redump.org/disc/70961/

Common Disc Info:
    Title: Lesser Mern: Special Director's Edition
    Foreign Title (Non-latin): レッサー・メルン-SpecialDirector'sEdition-
    Disc Number / Letter: 
    Disc Title: 
    System: NEC PC-98 series
    Media Type: CD-ROM
    Category: Games
    Matching IDs: 70961
    Region: Japan
    Languages: Japanese
    Disc Serial: 21D-2001

    Ringcode Information:
        Data Side Mastering Code (laser branded/etched): 21D-2001    OP2ZIA
        Data Side Mastering SID Code: 
        Data Side Toolstamp or Mastering Code (engraved/stamped): 
        Data Side Mould SID Code: 
        Data Side Additional Mould: 
        Label Side Mould SID Code: 
    Barcode: 4 988698 010548
    EXE/Build Date: 
    Error Count: 0
    Comments: 
    Contents: 

Version and Editions:
    Version: 
    Edition/Release: Original

Extras:
    Primary Volume Descriptor (PVD):

0320 : 20 20 20 20 20 20 20 20  20 20 20 20 20 31 39 39                199
0330 : 32 31 32 30 32 31 34 35  35 30 38 30 30 00 31 39   2120214550800.19
0340 : 39 32 31 32 30 32 31 34  35 35 30 38 30 30 00 31   92120214550800.1
0350 : 39 36 39 31 32 33 31 32  33 35 39 35 39 30 30 00   969123123595900.
0360 : 31 39 39 32 31 32 30 32  31 34 35 35 30 38 30 30   1992120214550800
0370 : 00 01 00 00 00 00 00 00  00 00 00 00 00 00 00 00   ................

Copy Protection:

Tracks and Write Offsets:
    DAT:

<rom name="track (Track 1).bin" size="9530304" crc="5b0f4a83" md5="9f2d6d98a2f97d8a9012832e8c6440ba" sha1="f5410af0b1177f62c7f22bb2ba6a572a93528582" />
<rom name="track (Track 2).bin" size="289013760" crc="56060d44" md5="1b7f044a3a0ec86626831f7d3af30add" sha1="2b5c901351bd829de702605fff82c862b96543d8" />

    Cuesheet:

CATALOG 0000000000000
FILE "track (Track 1).bin" BINARY
  TRACK 01 MODE1/2352
    INDEX 01 00:00:00
FILE "track (Track 2).bin" BINARY
  TRACK 02 AUDIO
    INDEX 00 00:00:00
    INDEX 01 00:02:00

    Write Offset: -1170

Logs: https://mega.nz/file/S7AgBCAC#8HSkcwRNu … 62JBb7FOrs

11

(0 replies, posted in Verifications)

http://redump.org/disc/92546/

Common Disc Info:
    Title: Sorcer Kingdom
    Foreign Title (Non-latin): ソーサル・キングダム
    Disc Number / Letter: 
    Disc Title: 
    System: NEC PC-98 series
    Media Type: CD-ROM
    Category: Games
    Matching IDs: 92546
    Region: Japan
    Languages: Japanese
    Disc Serial: 

    Ringcode Information:
        Data Side Mastering Code (laser branded/etched): AYPIO-001
        Data Side Mastering SID Code: 
        Data Side Toolstamp or Mastering Code (engraved/stamped): 
        Data Side Mould SID Code: 
        Data Side Additional Mould: 
        Label Side Mould SID Code: 
    Barcode: 4 933032 000457
    EXE/Build Date: 
    Error Count: 0
    Comments:

[T:VOL] ISO9660

    Contents: 

Version and Editions:
    Version: 
    Edition/Release: Original

Extras:
    Primary Volume Descriptor (PVD):

0320 : 20 20 20 20 20 20 20 20  20 20 20 20 20 31 39 39                199
0330 : 35 31 30 31 39 31 34 34  31 32 30 30 30 DC 31 39   5101914412000.19
0340 : 39 35 31 30 31 39 31 34  34 31 32 30 30 30 DC 30   95101914412000.0
0350 : 30 30 30 30 30 30 30 30  30 30 30 30 30 30 30 00   000000000000000.
0360 : 30 30 30 30 30 30 30 30  30 30 30 30 30 30 30 30   0000000000000000
0370 : 00 01 00 00 00 00 00 00  00 00 00 00 00 00 00 00   ................

Copy Protection:

Tracks and Write Offsets:
    DAT:

<rom name="ISO9660.bin" size="64515360" crc="fb7ee734" md5="9a4c019015c358abf26b155b6aada14b" sha1="7b6eb41617c59cde7aae19d284a3cb96c7bc21a9" />

    Cuesheet:

FILE "ISO9660.bin" BINARY
  TRACK 01 MODE1/2352
    INDEX 01 00:00:00

    Write Offset: 2

Logs: https://mega.nz/file/im50GCwS#y_CzPRLRK … 3cA2s59ziw

http://redump.org/disc/66563/

Common Disc Info:
    Title: X-COM: Terror from the Deep
    Disc Number / Letter: 
    Disc Title: 
    System: IBM PC compatible
    Media Type: CD-ROM
    Category: Games
    Matching IDs: 66563
    Region: USA
    Languages: English, French, German, Spanish
    Disc Serial: 0-431-40-101

    Ringcode Information:
        Data Side Mastering Code (laser branded/etched): 043140101 R2H    MFD BY JVC
        Data Side Mastering SID Code: 
        Data Side Toolstamp or Mastering Code (engraved/stamped): 13
        Data Side Mould SID Code: 
        Data Side Additional Mould: 
        Label Side Mould SID Code: 
    Barcode: 0 19703 43140 0
    Error Count: 0
    Comments:

[T:VOL] MPS_AP_UK
[T:ISBN] 1-55884-461-9

    Contents: 

Version and Editions:
    Version: 
    Edition/Release: Original

Extras:
    Primary Volume Descriptor (PVD):

0320 : 20 20 20 20 20 20 20 20  20 20 20 20 20 30 30 30                000
0330 : 30 30 30 30 30 30 30 30  30 30 30 30 30 00 30 30   0000000000000.00
0340 : 30 30 30 30 30 30 30 30  30 30 30 30 30 30 00 30   00000000000000.0
0350 : 30 30 30 30 30 30 30 30  30 30 30 30 30 30 30 00   000000000000000.
0360 : 30 30 30 30 30 30 30 30  30 30 30 30 30 30 30 30   0000000000000000
0370 : 00 01 00 00 00 00 00 00  00 00 00 00 00 00 00 00   ................

Copy Protection:
    Copy Protection: None found

Tracks and Write Offsets:
    DAT:

<rom name="MPS_AP_UK.bin" size="81894288" crc="ad2fc02a" md5="4b9f3d7d2c686f6b70b08197f736434a" sha1="80572e89fbe39b634abd0134751b3a832c04e6bf" />

    Cuesheet:

CATALOG 0000000000000
FILE "MPS_AP_UK.bin" BINARY
  TRACK 01 MODE1/2352
    INDEX 01 00:00:00

    Write Offset: 222

Logs: https://mega.nz/file/Xmh3mIaB#D3-mXh0Mh … Zephl3GQto

13

(3 replies, posted in Verifications)

Disc 4
http://redump.org/disc/18732/

Common Disc Info:
    Title: Eve: The Fatal Attraction
    Foreign Title (Non-latin): イヴ・ザ・フェイタル・アトラクション
    Disc Number / Letter: 4
    Disc Title: 
    System: IBM PC compatible
    Media Type: CD-ROM
    Category: Games
    Matching IDs: 18732
    Region: Japan
    Languages: Japanese
    Disc Serial: 

    Ringcode Information:
        Data Side Mastering Code (laser branded/etched): CSW-20011119-D    B1K21-4
        Data Side Mastering SID Code: IFPI LA81
        Data Side Toolstamp or Mastering Code (engraved/stamped): 
        Data Side Mould SID Code: IFPI 4JI3
        Data Side Additional Mould: 
        Label Side Mould SID Code: 
    Barcode: 4 934029 000757
    Error Count: 0
    Comments:

[T:VOL] EVETFA4
Windows 98/2000/Me/XP

    Contents: 

Version and Editions:
    Version: 
    Edition/Release: 

Extras:
    Primary Volume Descriptor (PVD):

0320 : 20 20 20 20 20 20 20 20  20 20 20 20 20 32 30 30                200
0330 : 31 31 31 31 39 30 31 30  39 30 30 30 30 30 32 30   1111901090000020
0340 : 30 31 31 31 31 39 30 31  30 39 30 30 30 30 30 31   0111190109000001
0350 : 36 30 31 30 31 30 31 30  39 30 30 30 30 30 30 30   6010101090000000
0360 : 31 36 30 31 30 31 30 31  30 39 30 30 30 30 30 30   1601010109000000
0370 : 30 01 00 00 00 00 00 00  00 00 00 00 00 00 00 00   0...............

Copy Protection:
    Copy Protection: None found

Tracks and Write Offsets:
    DAT:

<rom name="EVETFA4.bin" size="724684128" crc="0fbba608" md5="2557d20aa559db47e347855c21973b9c" sha1="fd1d002d271654ecf8e0fdf0ab6e2c7276b156d6" />

    Cuesheet:

FILE "EVETFA4.bin" BINARY
  TRACK 01 MODE1/2352
    INDEX 01 00:00:00

    Write Offset: -12

Logs: https://mega.nz/file/mjBSDTCI#5O8NhRtPB … pHwhmXBPpM

14

(3 replies, posted in Verifications)

Disc 3
http://redump.org/disc/18733/

Common Disc Info:
    Title: Eve: The Fatal Attraction
    Foreign Title (Non-latin): イヴ・ザ・フェイタル・アトラクション
    Disc Number / Letter: 3
    Disc Title: 
    System: IBM PC compatible
    Media Type: CD-ROM
    Category: Games
    Matching IDs: 18733
    Region: Japan
    Languages: Japanese
    Disc Serial: 

    Ringcode Information:
        Data Side Mastering Code (laser branded/etched): CSW-20011119-C    B1K21-5
        Data Side Mastering SID Code: IFPI LA81
        Data Side Toolstamp or Mastering Code (engraved/stamped): 
        Data Side Mould SID Code: IFPI 4JI3
        Data Side Additional Mould: 
        Label Side Mould SID Code: 
    Barcode: 4 934029 000757
    Error Count: 0
    Comments: [T:VOL] EVETFA3
Windows 98/2000/Me/XP
    Contents: 

Version and Editions:
    Version: 
    Edition/Release: Original

Extras:
    Primary Volume Descriptor (PVD):

0320 : 20 20 20 20 20 20 20 20  20 20 20 20 20 32 30 30                200
0330 : 31 31 31 31 39 30 30 34  39 32 37 30 30 30 32 30   1111900492700020
0340 : 30 31 31 31 31 39 30 30  34 39 32 37 30 30 30 31   0111190049270001
0350 : 36 30 31 30 31 30 31 30  39 30 30 30 30 30 30 30   6010101090000000
0360 : 31 36 30 31 30 31 30 31  30 39 30 30 30 30 30 30   1601010109000000
0370 : 30 01 00 00 00 00 00 00  00 00 00 00 00 00 00 00   0...............

Copy Protection:
    Copy Protection: None found

Tracks and Write Offsets:
    DAT:

<rom name="EVETFA3.bin" size="724098480" crc="00450824" md5="c933493ccbbaa4df86350074a4496a1f" sha1="c8447f6d0b6ab22b49e65842bb24b20821c9b43e" />

    Cuesheet:

FILE "EVETFA3.bin" BINARY
  TRACK 01 MODE1/2352
    INDEX 01 00:00:00

    Write Offset: -12

Logs: https://mega.nz/file/r241WYzB#eSPtFuvsm … 0dwxlPlDqk

15

(3 replies, posted in Verifications)

Disc 2
http://redump.org/disc/18734/

Common Disc Info:
    Title: Eve: The Fatal Attraction
    Foreign Title (Non-latin): イヴ・ザ・フェイタル・アトラクション
    Disc Number / Letter: 2
    Disc Title: 
    System: IBM PC compatible
    Media Type: CD-ROM
    Category: Games
    Matching IDs: 18734
    Region: Japan
    Languages: Japanese
    Disc Serial: 

    Ringcode Information:
        Data Side Mastering Code (laser branded/etched): CSW-20011119-B    B1K21-6
        Data Side Mastering SID Code: IFPI LA81
        Data Side Toolstamp or Mastering Code (engraved/stamped): 
        Data Side Mould SID Code: IFPI 4JI5
        Data Side Additional Mould: 
        Label Side Mould SID Code: 
    Barcode: 4 934029 000757
    Error Count: 0
    Comments: [T:VOL] EVETFA2
Windows 98/2000/Me/XP
    Contents: 

Version and Editions:
    Version: 
    Edition/Release: Original

Extras:
    Primary Volume Descriptor (PVD):

0320 : 20 20 20 20 20 20 20 20  20 20 20 20 20 32 30 30                200
0330 : 31 31 31 31 39 30 30 33  30 32 35 30 30 30 32 30   1111900302500020
0340 : 30 31 31 31 31 39 30 30  33 30 32 35 30 30 30 31   0111190030250001
0350 : 36 30 31 30 31 30 31 30  39 30 30 30 30 30 30 30   6010101090000000
0360 : 31 36 30 31 30 31 30 31  30 39 30 30 30 30 30 30   1601010109000000
0370 : 30 01 00 00 00 00 00 00  00 00 00 00 00 00 00 00   0...............

Copy Protection:
    Copy Protection: None found

Tracks and Write Offsets:
    DAT:

<rom name="EVETFA2.bin" size="724724112" crc="285587a3" md5="a85d627cfa96d64be08336c2ad6b258d" sha1="3dbe2034fb7c0a06b867e59050d3dfb537f4302b" />

    Cuesheet:

FILE "EVETFA2.bin" BINARY
  TRACK 01 MODE1/2352
    INDEX 01 00:00:00

    Write Offset: -12

https://mega.nz/file/z3pEHLpD#wqPJKdBfi … -tLa5W0B2c

Disc 1
http://redump.org/disc/18735/

Common Disc Info:
    Title: Eve: The Fatal Attraction
    Foreign Title (Non-latin): イヴ・ザ・フェイタル・アトラクション
    Disc Number / Letter: 1
    Disc Title: (OPTIONAL)
    System: IBM PC compatible
    Media Type: CD-ROM
    Category: Games
    Matching IDs: 18735
    Region: Japan
    Languages: Japanese
    Disc Serial: (REQUIRED, IF EXISTS)

    Ringcode Information:
        Data Side Mastering Code (laser branded/etched): CSW-20011119-A    C1K21-11
        Data Side Mastering SID Code: IFPI LA83
        Data Side Toolstamp or Mastering Code (engraved/stamped): (REQUIRED, IF EXISTS)
        Data Side Mould SID Code: IFPI 4JI5
        Data Side Additional Mould: (REQUIRED, IF EXISTS)
        Label Side Mould SID Code: (REQUIRED, IF EXISTS)
    Barcode: 4 934029 000757
    Error Count: 0
    Comments:

[T:VOL] EVETFA1
Windows 98/2000/Me/XP

    Contents: (OPTIONAL)

Version and Editions:
    Version: (REQUIRED, IF EXISTS)
    Edition/Release: (VERIFY THIS) Original

Extras:
    Primary Volume Descriptor (PVD):

0320 : 20 20 20 20 20 20 20 20  20 20 20 20 20 32 30 30                200
0330 : 31 31 31 31 39 30 37 32  32 31 38 30 30 30 32 30   1111907221800020
0340 : 30 31 31 31 31 39 30 37  32 32 31 38 30 30 30 31   0111190722180001
0350 : 36 30 31 30 31 30 31 30  39 30 30 30 30 30 30 30   6010101090000000
0360 : 31 36 30 31 30 31 30 31  30 39 30 30 30 30 30 30   1601010109000000
0370 : 30 01 00 00 00 00 00 00  00 00 00 00 00 00 00 00   0...............

Copy Protection:
    Copy Protection: None found

Tracks and Write Offsets:
    DAT:

<rom name="EVETFA1.bin" size="763311024" crc="0ef80919" md5="254eaeaa7f9df95f2b99fb9697670e44" sha1="5c1b8bb75a36df16b2bec859143781aa0e1fc099" />

    Cuesheet:

FILE "EVETFA1.bin" BINARY
  TRACK 01 MODE1/2352
    INDEX 01 00:00:00

    Write Offset: -12

https://mega.nz/file/K2xF3Lza#LmJvbRa4Z … teVOnmGCuA

17

(1 replies, posted in Verifications)

Side-2
http://redump.org/disc/54359/

Common Disc Info:
    Title: Orgaslave
    Foreign Title (Non-latin): オルガスレイブ
    Disc Number / Letter: 
    Disc Title: Side-2
    System: IBM PC compatible
    Media Type: CD-ROM
    Category: Games
    Matching IDs: 54359
    Region: Japan
    Languages: Japanese
    Disc Serial: H PT 003-2

    Ringcode Information:
        Data Side Mastering Code (laser branded/etched): HPT-0032    1
        Data Side Mastering SID Code: IFPI L276
        Data Side Toolstamp or Mastering Code (engraved/stamped): 
        Data Side Mould SID Code: IFPI 4511
        Data Side Additional Mould: 
        Label Side Mould SID Code: 
    Barcode: 
    Error Count: 0
    Comments:

[T:VOL] ORGASLAVE
"Hybrid Version"
Mac/PC Hybrid

Windows 3.1/95
KanjiTalk 7.1
    Contents: 

Version and Editions:
    Version: 
    Edition/Release: Original

Extras:
    Primary Volume Descriptor (PVD):

0320 : 20 20 20 20 20 20 20 20  20 20 20 20 20 31 39 39                199
0330 : 36 30 34 30 31 30 33 35  33 32 30 30 30 00 31 39   6040103532000.19
0340 : 39 36 30 34 30 31 30 33  35 33 32 30 30 30 00 00   96040103532000..
0350 : 00 00 00 00 00 00 00 00  00 00 00 00 00 00 00 00   ................
0360 : 00 00 00 00 00 00 00 00  00 00 00 00 00 00 00 00   ................
0370 : 00 01 00 00 00 00 00 00  00 00 00 00 00 00 00 00   ................

Copy Protection:
    Copy Protection: None found

Tracks and Write Offsets:
    DAT:

<rom name="ORGASLAVE.bin" size="604224096" crc="19f23816" md5="3f77e401ec96e476f56a1284e46bf9d7" sha1="8d15631d79f51bfa4781f316669ff4de8d380684" />

    Cuesheet:

FILE "ORGASLAVE.bin" BINARY
  TRACK 01 MODE1/2352
    INDEX 01 00:00:00

    Write Offset: 2

Logs: https://mega.nz/file/n7ZACAxa#-QOo77SAz … ROR_mXK6nc

18

(1 replies, posted in Verifications)

Side-1
http://redump.org/disc/54358/

Common Disc Info:
    Title: Orgaslave
    Foreign Title (Non-latin): オルガスレイブ
    Disc Number / Letter: 
    Disc Title: Side-1
    System: IBM PC compatible
    Media Type: CD-ROM
    Category: Games
    Matching IDs: 54358
    Region: Japan
    Languages: Japanese
    Disc Serial: H PT 003-1

    Ringcode Information:
        Data Side Mastering Code (laser branded/etched): HPT-0031    1
        Data Side Mastering SID Code: IFPI L275
        Data Side Toolstamp or Mastering Code (engraved/stamped): 
        Data Side Mould SID Code: IFPI 4511
        Data Side Additional Mould: 
        Label Side Mould SID Code: 
    Barcode: 
    Error Count: 0
    Comments:

[T:VOL] ORGASLAVE
"Hybrid Version"
Mac/PC Hybrid

Windows 3.1/95
KanjiTalk 7.1
    Contents: 

Version and Editions:
    Version: 
    Edition/Release: Original

Extras:
    Primary Volume Descriptor (PVD):

0320 : 20 20 20 20 20 20 20 20  20 20 20 20 20 31 39 39                199
0330 : 36 30 34 30 31 30 33 31  37 34 36 30 30 00 31 39   6040103174600.19
0340 : 39 36 30 34 30 31 30 33  31 37 34 36 30 30 00 00   96040103174600..
0350 : 00 00 00 00 00 00 00 00  00 00 00 00 00 00 00 00   ................
0360 : 00 00 00 00 00 00 00 00  00 00 00 00 00 00 00 00   ................
0370 : 00 01 00 00 00 00 00 00  00 00 00 00 00 00 00 00   ................

Copy Protection:
    Copy Protection: None found

Tracks and Write Offsets:
    DAT:

<rom name="ORGASLAVE.bin" size="587750688" crc="12710d7b" md5="47ad32ab6e5f4e0ce0851c1d0799b326" sha1="bdefb0ccf7def64210243ed7c0b2d2644aedc4bc" />

    Cuesheet:

FILE "ORGASLAVE.bin" BINARY
  TRACK 01 MODE1/2352
    INDEX 01 00:00:00

    Write Offset: 2

Logs: https://mega.nz/file/amwXWIxK#NX3o3hsHg … QY-oqGrckc

http://redump.org/disc/20928/

Common Disc Info:
    Title: Akagawa Jirou: Majo-tachi no Nemuri Kanzenban
    Foreign Title (Non-latin): 赤川次郎魔女たちの眠り完全版
    Disc Number / Letter: 
    Disc Title: 
    System: IBM PC compatible
    Media Type: CD-ROM
    Category: Games
    Matching IDs: 20928
    Region: Japan
    Languages: Japanese
    Disc Serial: VWB-06

    Ringcode Information:
        Data Side Mastering Code (laser branded/etched): WS-47A-R1M
        Data Side Mastering SID Code: IFPI L233
        Data Side Toolstamp or Mastering Code (engraved/stamped): 1 4    V
        Data Side Mould SID Code: IFPI 4011
        Data Side Additional Mould: 
        Label Side Mould SID Code: 
    Barcode: 4 988110 021008
    Error Count: 0
    Comments: [T:VOL] MAJO
Windows 95/98/Me
    Contents: 

Version and Editions:
    Version: 
    Edition/Release: Best Collection

Extras:
    Primary Volume Descriptor (PVD):

0320 : 20 20 20 20 20 20 20 20  20 20 20 20 20 31 39 39                199
0330 : 36 31 31 31 38 31 37 35  34 31 30 30 30 00 31 39   6111817541000.19
0340 : 39 36 31 31 31 38 31 37  35 34 31 30 30 30 00 31   96111817541000.1
0350 : 39 39 36 31 31 31 38 31  37 35 34 31 30 30 30 00   996111817541000.
0360 : 31 39 39 36 31 31 31 38  31 37 35 34 31 30 30 30   1996111817541000
0370 : 00 01 00 00 00 00 00 00  00 00 00 00 00 00 00 00   ................

Copy Protection:
    Copy Protection: None found

Tracks and Write Offsets:
    DAT:

<rom name="MAJO.bin" size="610713264" crc="577f5fdf" md5="49f35cc9078ab047de9bfcfdd4beef63" sha1="d3889e54821d39a20f601854122565abca63f244" />

    Cuesheet:

CATALOG 0000000000000
FILE "MAJO.bin" BINARY
  TRACK 01 MODE1/2352
    INDEX 01 00:00:00

    Write Offset: 78

Logs: https://mega.nz/file/aixQRITS#_nLgasFcf … Cw52JXPerI

20

(0 replies, posted in Verifications)

http://redump.org/disc/57428/

Common Disc Info:
    Title: Master The Arch
    Foreign Title (Non-latin): マスター ジ アーク
    Disc Number / Letter: 
    Disc Title: 
    System: IBM PC compatible
    Media Type: CD-ROM
    Category: Games
    Matching IDs: 57428
    Region: Japan
    Languages: Japanese
    Disc Serial: 001J0330TA

    Ringcode Information:
        Data Side Mastering Code (laser branded/etched): 001J0330TA MT    A01
        Data Side Mastering SID Code: IFPI L261
        Data Side Toolstamp or Mastering Code (engraved/stamped): 
        Data Side Mould SID Code: IFPI 4403
        Data Side Additional Mould: 
        Label Side Mould SID Code: 
    Barcode: 4 988697 712047
    Error Count: 0
    Comments: [T:VOL] M_ARCH
Windows 95
    Contents: 

Version and Editions:
    Version: 
    Edition/Release: Original

Extras:
    Primary Volume Descriptor (PVD):

0320 : 20 20 20 20 20 20 20 20  20 20 20 20 20 31 39 39                199
0330 : 37 31 31 32 36 31 34 34  34 32 32 30 30 00 31 39   7112614442200.19
0340 : 39 37 31 31 32 36 31 34  34 34 32 32 30 30 00 32   97112614442200.2
0350 : 30 30 37 31 31 32 34 31  34 34 34 32 32 30 30 00   007112414442200.
0360 : 31 39 39 37 31 31 32 36  31 34 34 34 32 32 30 30   1997112614442200
0370 : 00 01 00 00 00 00 00 00  00 00 00 00 00 00 00 00   ................

Copy Protection:
    Copy Protection: None found

Tracks and Write Offsets:
    DAT:

<rom name="M_ARCH.bin" size="645447600" crc="0f1e9b54" md5="a1025b9af6c0cba9c9104f9aa6123dcb" sha1="33cb28406ef17c13a29eaf152512b7619ec59a57" />

    Cuesheet:

FILE "M_ARCH.bin" BINARY
  TRACK 01 MODE1/2352
    INDEX 01 00:00:00

    Write Offset: 780

Logs: https://mega.nz/file/byI30CxS#ox4p1eLiI … DGgf16HhTw

21

(0 replies, posted in Verifications)

http://redump.org/disc/54317/

Common Disc Info:
    Title: Arabian Kid
    Foreign Title (Non-latin): あらびあんKID
    Disc Number / Letter: (OPTIONAL)
    Disc Title: (OPTIONAL)
    System: IBM PC compatible
    Media Type: CD-ROM
    Category: Games
    Matching IDs: 54317
    Region: Japan
    Languages: Japanese
    Disc Serial: ASCII-002

    Ringcode Information:
        Data Side Mastering Code (laser branded/etched): ASCII-002 MT    B06
        Data Side Mastering SID Code: IFPI L262
        Data Side Toolstamp or Mastering Code (engraved/stamped): (REQUIRED, IF EXISTS)
        Data Side Mould SID Code: IFPI 4450
        Data Side Additional Mould: (REQUIRED, IF EXISTS)
        Label Side Mould SID Code: (REQUIRED, IF EXISTS)
    Barcode: T4988606215867
    Error Count: 0
    Comments:

[T:ALT] (VERIFY THIS) Arabian Kid for Windows 95
[T:VOL] KID
<b>Serial under the barcode</b>: 2065905

    Contents: (OPTIONAL)

Version and Editions:
    Version: (REQUIRED, IF EXISTS)
    Edition/Release: (VERIFY THIS) Original

Extras:
    Primary Volume Descriptor (PVD):

0320 : 20 20 20 20 20 20 20 20  20 20 20 20 20 31 39 39                199
0330 : 36 31 32 31 30 31 30 33  35 32 33 30 30 00 31 39   6121010352300.19
0340 : 39 36 31 32 31 30 31 30  33 35 32 33 30 30 00 30   96121010352300.0
0350 : 30 30 30 30 30 30 30 30  30 30 30 30 30 30 30 00   000000000000000.
0360 : 30 30 30 30 30 30 30 30  30 30 30 30 30 30 30 30   0000000000000000
0370 : 00 01 00 00 00 00 00 00  00 00 00 00 00 00 00 00   ................

Copy Protection:
    Copy Protection: None found

Tracks and Write Offsets:
    DAT:

<rom name="KID.bin" size="40583760" crc="bb4e2fef" md5="55c4d3833a486ec893a3323ae01a86e6" sha1="86c9787b626ea6d1a3ba02072201c56473f85a6a" />

    Cuesheet:

FILE "KID.bin" BINARY
  TRACK 01 MODE1/2352
    INDEX 01 00:00:00

    Write Offset: 2

Logs: https://mega.nz/file/LzA2FISY#dGprDokNW … fTEisL0ed4

22

(0 replies, posted in Verifications)

http://redump.org/disc/63602/

Common Disc Info:
    Title: Remote Presence
    Foreign Title (Non-latin): リモートプレゼンス
    Disc Number / Letter: (OPTIONAL)
    Disc Title: (OPTIONAL)
    System: IBM PC compatible
    Media Type: CD-ROM
    Category: Games
    Matching IDs: 63602
    Region: Japan
    Languages: Japanese
    Disc Serial: SHU-004

    Ringcode Information:
        Data Side Mastering Code (laser branded/etched): SHU-004    OP012B
        Data Side Mastering SID Code: IFPI L303
        Data Side Toolstamp or Mastering Code (engraved/stamped): (REQUIRED, IF EXISTS)
        Data Side Mould SID Code: IFPI 4843
        Data Side Additional Mould: (REQUIRED, IF EXISTS)
        Label Side Mould SID Code: (REQUIRED, IF EXISTS)
    Barcode: 4 957947 049721
    Error Count: 0
    Comments:

[T:VOL] RemoPre
Windows 95/98

    Contents: (OPTIONAL)

Version and Editions:
    Version: (REQUIRED, IF EXISTS)
    Edition/Release: (VERIFY THIS) Original

Extras:
    Primary Volume Descriptor (PVD):

0320 : 20 20 20 20 20 20 20 20  20 20 20 20 20 32 30 30                200
0330 : 30 30 31 30 36 31 39 31  37 34 31 30 30 00 32 30   0010619174100.20
0340 : 30 30 30 31 30 36 31 39  31 37 34 31 30 30 00 32   00010619174100.2
0350 : 30 31 30 30 31 30 33 31  39 31 37 34 31 30 30 00   010010319174100.
0360 : 32 30 30 30 30 31 30 36  31 39 31 37 34 31 30 30   2000010619174100
0370 : 00 01 00 00 00 00 00 00  00 00 00 00 00 00 00 00   ................

Copy Protection:
    Copy Protection: None found

Tracks and Write Offsets:
    DAT:

<rom name="RemoPre (Track 01).bin" size="302109696" crc="2cc18c22" md5="5ca97f60fcbf80c8f5d5e2e4a75a7d31" sha1="026a19b16527de26a51affad7e6474861477714f" />
<rom name="RemoPre (Track 02).bin" size="42411264" crc="c013df98" md5="5d53dcfdf99a1fb590d662ed20c40e6f" sha1="205ba7faa966bb788b94333793793192e9f66b7e" />
<rom name="RemoPre (Track 03).bin" size="35571648" crc="ed82211e" md5="2110ec957443c1d3c4662e80e8722bdb" sha1="de3e28b7650ce3877a54db9b7b3f1a7e547c836b" />
<rom name="RemoPre (Track 04).bin" size="34240416" crc="53b6b9ad" md5="42eb0e0fbdcf628736e5d6dbb5426306" sha1="68e5dbbf62578888515b0c23c7b820498847967e" />
<rom name="RemoPre (Track 05).bin" size="34275696" crc="b0982f20" md5="e5b3e29f5d7266f23ecaaabf84fc711e" sha1="ff67ebd01a11ef015b464c305ed00c161419bcfa" />
<rom name="RemoPre (Track 06).bin" size="35898576" crc="c981597a" md5="0416277b32c7b1f5e99164c72cca8472" sha1="a8260644971a8a6cb353999adc8db50a1c0682c7" />
<rom name="RemoPre (Track 07).bin" size="35021280" crc="54d58ead" md5="c3a83b4e776457b71b3d3ce93fb67cb9" sha1="471496c6bebc8fb8f57f8411d956e1cc557812fb" />
<rom name="RemoPre (Track 08).bin" size="34946016" crc="64e474d6" md5="2a4107bebce6404f09ecc3f05db83e5e" sha1="cbf737167e96c86e1ca6904cb8a6cbc559f0c47b" />
<rom name="RemoPre (Track 09).bin" size="34875456" crc="05c01ec1" md5="0bcbfae58867d31074ae53d117e0ecfa" sha1="9bf37d45938e8e5b63dcb9a201216691582a81b8" />
<rom name="RemoPre (Track 10).bin" size="33414864" crc="4900efd3" md5="cd8911cd9c6d11862fdd05fd88c5358b" sha1="67d37dec1b3ff3ab4709d6207b1781840a914163" />
<rom name="RemoPre (Track 11).bin" size="35202384" crc="bf615b84" md5="2225c6673a19f67d1fa5ff8b51c8c0c8" sha1="3731134ad970bc3fac4b05de80312e6936e536a6" />
<rom name="RemoPre (Track 12).bin" size="23682288" crc="8457d16e" md5="b541f7be0bf2e63adcfd6e6653b22fa8" sha1="15116d36ab8aba63990bb5af03726493544b45d0" />
<rom name="RemoPre (Track 13).bin" size="48227760" crc="e316de60" md5="bead0eeeccf3357755c75d7f82e51173" sha1="82d581750e0d488141085cc69e179a4649fe44be" />

    Cuesheet:

CATALOG 0000000000000
FILE "RemoPre (Track 01).bin" BINARY
  TRACK 01 MODE1/2352
    INDEX 01 00:00:00
FILE "RemoPre (Track 02).bin" BINARY
  TRACK 02 AUDIO
    INDEX 00 00:00:00
    INDEX 01 00:02:01
FILE "RemoPre (Track 03).bin" BINARY
  TRACK 03 AUDIO
    INDEX 00 00:00:00
    INDEX 01 00:01:74
FILE "RemoPre (Track 04).bin" BINARY
  TRACK 04 AUDIO
    INDEX 00 00:00:00
    INDEX 01 00:01:74
FILE "RemoPre (Track 05).bin" BINARY
  TRACK 05 AUDIO
    INDEX 00 00:00:00
    INDEX 01 00:01:74
FILE "RemoPre (Track 06).bin" BINARY
  TRACK 06 AUDIO
    INDEX 00 00:00:00
    INDEX 01 00:01:74
FILE "RemoPre (Track 07).bin" BINARY
  TRACK 07 AUDIO
    INDEX 00 00:00:00
    INDEX 01 00:01:74
FILE "RemoPre (Track 08).bin" BINARY
  TRACK 08 AUDIO
    INDEX 00 00:00:00
    INDEX 01 00:01:74
FILE "RemoPre (Track 09).bin" BINARY
  TRACK 09 AUDIO
    INDEX 00 00:00:00
    INDEX 01 00:01:74
FILE "RemoPre (Track 10).bin" BINARY
  TRACK 10 AUDIO
    INDEX 00 00:00:00
    INDEX 01 00:01:74
FILE "RemoPre (Track 11).bin" BINARY
  TRACK 11 AUDIO
    INDEX 00 00:00:00
    INDEX 01 00:01:74
FILE "RemoPre (Track 12).bin" BINARY
  TRACK 12 AUDIO
    INDEX 00 00:00:00
    INDEX 01 00:01:74
FILE "RemoPre (Track 13).bin" BINARY
  TRACK 13 AUDIO
    INDEX 00 00:00:00
    INDEX 01 00:01:74

    Write Offset: 0

Logs: https://mega.nz/file/j3YF3ChJ#PcfJpKQvY … VxOE_Obw6U

23

(1 replies, posted in Verifications)

Disc 2

Common Disc Info:
    Title: Guardian's Sword
    Foreign Title (Non-latin): ガーディアンズ・ソード
    Disc Number / Letter: 2
    Disc Title: (OPTIONAL)
    System: IBM PC compatible
    Media Type: CD-ROM
    Category: Games
    Matching IDs: 70047
    Region: Japan
    Languages: Japanese
    Disc Serial: (REQUIRED, IF EXISTS)

    Ringcode Information:
        Data Side Mastering Code (laser branded/etched): TGL-981226    A
        Data Side Mastering SID Code: IFPI L541
        Data Side Toolstamp or Mastering Code (engraved/stamped): (REQUIRED, IF EXISTS)
        Data Side Mould SID Code: IFPI 9306
        Data Side Additional Mould: (REQUIRED, IF EXISTS)
        Label Side Mould SID Code: (REQUIRED, IF EXISTS)
    Barcode: 4 935066 504277
    Error Count: 1
    Comments:

[T:ALT] (VERIFY THIS) 守護者之劍
Windows 95/98

    Contents: (OPTIONAL)

Version and Editions:
    Version: (REQUIRED, IF EXISTS)
    Edition/Release: (VERIFY THIS) Original

Extras:
    Primary Volume Descriptor (PVD):

0320 : 20 20 20 20 20 20 20 20  20 20 20 20 20 31 39 39                199
0330 : 38 31 31 33 30 30 36 31  38 31 30 30 30 00 31 39   8113006181000.19
0340 : 39 38 31 31 33 30 30 36  31 38 31 30 30 30 00 30   98113006181000.0
0350 : 30 30 30 30 30 30 30 30  30 30 30 30 30 30 30 00   000000000000000.
0360 : 30 30 30 30 30 30 30 30  30 30 30 30 30 30 30 30   0000000000000000
0370 : 00 01 00 00 00 00 00 00  00 00 00 00 00 00 00 00   ................

Copy Protection:
    Copy Protection: None found

Tracks and Write Offsets:
    DAT:

<rom name="track (Track 01).bin" size="474607728" crc="c2c44236" md5="2f639de3a65baa88b68ea2ca1c840923" sha1="6491daa7408b130f115528ade4495da2df810078" />
<rom name="track (Track 02).bin" size="17162544" crc="e84a8f63" md5="63d323c11dea1228f79e26683127c6ed" sha1="922f11e0ab6d4b092102d0fa784dd047cb1101f8" />
<rom name="track (Track 03).bin" size="6780816" crc="fc18d651" md5="bbf181c45fa946cb8052b07c2e4b318b" sha1="64014b11d542dff4f58fa2532e3b02dc9a84311a" />
<rom name="track (Track 04).bin" size="17736432" crc="03b1deef" md5="ce36073511c5d3a858d4f44b998e33c7" sha1="faccd42624667155a16b9721f2ef92726f7dfe82" />
<rom name="track (Track 05).bin" size="16574544" crc="22b8bd1e" md5="0b0be3948a3202c5efe9b9c2b8fd8fef" sha1="066ea02b03d7877dfd341d5553eab8a640bd7cb6" />
<rom name="track (Track 06).bin" size="9744336" crc="46df6c86" md5="bf086c14c115f0cfd734471a9f89f0e3" sha1="87b60b5bb15519f28e029b155022bd6c7529f998" />
<rom name="track (Track 07).bin" size="15701952" crc="fd9b47ac" md5="097a42f4f1a5c0d37f15a812554a9969" sha1="29066908d60e942b7269e394a6c4659f710c9980" />
<rom name="track (Track 08).bin" size="11228448" crc="8fb5aae8" md5="c00e8a4797459dc75c0590007c5f5f01" sha1="bffa3eebfea13762cef94797ebfe190d7877d72e" />
<rom name="track (Track 09).bin" size="12077520" crc="f4d5ca88" md5="b86667a2b7b10ebc45edf4315a3c2855" sha1="44ddde02d775ee0f1d922cc504ab59b9b83cb381" />
<rom name="track (Track 10).bin" size="20356560" crc="a747fc15" md5="31cad647fb5e78469faade47afeaae1e" sha1="1e419c5d652ea272b4ef8e88578e8c95d1e4714c" />
<rom name="track (Track 11).bin" size="15278592" crc="ba26f64e" md5="2ef2e0d5ab0fbf39df17d408344b3c4d" sha1="f4755a1a68dc5a6143099e9ea483a1d533232bb3" />
<rom name="track (Track 12).bin" size="1093680" crc="45a72b4f" md5="3d0df25b694ad082a8374faf60789f80" sha1="260ea0de6f64e0194e8d042395b8ffe631838c8e" />
<rom name="track (Track 13).bin" size="8608320" crc="39705622" md5="3d965680c0b7fde3806ecae8cb24f29d" sha1="8dc2853104fbcc3137237ab052cb222ac293fb1e" />
<rom name="track (Track 14).bin" size="13093584" crc="5b7dc4a5" md5="3a7e52931dae3c404ef900611dbcd757" sha1="251f6d5b8b7ed97e15f94eca1718bf8bcfc849e7" />
<rom name="track (Track 15).bin" size="8921136" crc="02494b0b" md5="c4b8d8929749c63254d0f3e161d65aaf" sha1="e2f7c083afaecfa01a1afe5998296bfd66847adf" />
<rom name="track (Track 16).bin" size="7942704" crc="2b1aa00f" md5="eacc0ea23c058d8e2fb6a6ca95bce356" sha1="3687b25ca86ccec0c78009623cd5a06d98b495a2" />
<rom name="track (Track 17).bin" size="13150032" crc="d181be05" md5="dfd9bc4b6a522e8e23dea49cffa446ce" sha1="6c2ec255de80465931a14b8a90fe332bd3ca7665" />

    Cuesheet:

CATALOG 0000000000000
FILE "track (Track 01).bin" BINARY
  TRACK 01 MODE2/2352
    INDEX 01 00:00:00
FILE "track (Track 02).bin" BINARY
  TRACK 02 AUDIO
    INDEX 00 00:00:00
    INDEX 01 00:01:74
FILE "track (Track 03).bin" BINARY
  TRACK 03 AUDIO
    INDEX 00 00:00:00
    INDEX 01 00:01:74
FILE "track (Track 04).bin" BINARY
  TRACK 04 AUDIO
    INDEX 00 00:00:00
    INDEX 01 00:01:74
FILE "track (Track 05).bin" BINARY
  TRACK 05 AUDIO
    INDEX 00 00:00:00
    INDEX 01 00:01:74
FILE "track (Track 06).bin" BINARY
  TRACK 06 AUDIO
    INDEX 00 00:00:00
    INDEX 01 00:01:74
FILE "track (Track 07).bin" BINARY
  TRACK 07 AUDIO
    INDEX 00 00:00:00
    INDEX 01 00:01:74
FILE "track (Track 08).bin" BINARY
  TRACK 08 AUDIO
    INDEX 00 00:00:00
    INDEX 01 00:01:74
FILE "track (Track 09).bin" BINARY
  TRACK 09 AUDIO
    INDEX 00 00:00:00
    INDEX 01 00:01:74
FILE "track (Track 10).bin" BINARY
  TRACK 10 AUDIO
    INDEX 00 00:00:00
    INDEX 01 00:01:74
FILE "track (Track 11).bin" BINARY
  TRACK 11 AUDIO
    INDEX 00 00:00:00
    INDEX 01 00:01:74
FILE "track (Track 12).bin" BINARY
  TRACK 12 AUDIO
    INDEX 00 00:00:00
    INDEX 01 00:01:74
FILE "track (Track 13).bin" BINARY
  TRACK 13 AUDIO
    INDEX 00 00:00:00
    INDEX 01 00:01:74
FILE "track (Track 14).bin" BINARY
  TRACK 14 AUDIO
    INDEX 00 00:00:00
    INDEX 01 00:01:74
FILE "track (Track 15).bin" BINARY
  TRACK 15 AUDIO
    INDEX 00 00:00:00
    INDEX 01 00:01:74
FILE "track (Track 16).bin" BINARY
  TRACK 16 AUDIO
    INDEX 00 00:00:00
    INDEX 01 00:01:74
FILE "track (Track 17).bin" BINARY
  TRACK 17 AUDIO
    INDEX 00 00:00:00
    INDEX 01 00:01:74

    Write Offset: 0

Logs: https://mega.nz/file/qqwFkJjL#S8J8m_kZA … _mSrOlUSrc

24

(1 replies, posted in Verifications)

Disc 1
http://redump.org/disc/70046/

Common Disc Info:
    Title: Guardian's Sword
    Foreign Title (Non-latin): ガーディアンズ・ソード
    Disc Number / Letter: 1
    Disc Title: (OPTIONAL)
    System: IBM PC compatible
    Media Type: CD-ROM
    Category: Games
    Matching IDs: 70046
    Region: Japan
    Languages: Japanese
    Disc Serial: (REQUIRED, IF EXISTS)

    Ringcode Information:
        Data Side Mastering Code (laser branded/etched): TGL-981225    A
        Data Side Mastering SID Code: IFPI L541
        Data Side Toolstamp or Mastering Code (engraved/stamped): (REQUIRED, IF EXISTS)
        Data Side Mould SID Code: IFPI 9304
        Data Side Additional Mould: (REQUIRED, IF EXISTS)
        Label Side Mould SID Code: (REQUIRED, IF EXISTS)
    Barcode: 4 935066 504277
    Error Count: 1
    Comments: [T:ALT] (VERIFY THIS) 守護者之劍
Windows 95/98
    Contents: (OPTIONAL)

Version and Editions:
    Version: (REQUIRED, IF EXISTS)
    Edition/Release: (VERIFY THIS) Original

Extras:
    Primary Volume Descriptor (PVD):

0320 : 20 20 20 20 20 20 20 20  20 20 20 20 20 31 39 39                199
0330 : 38 31 31 33 30 30 35 35  34 32 35 30 30 00 31 39   8113005542500.19
0340 : 39 38 31 31 33 30 30 35  35 34 32 35 30 30 00 30   98113005542500.0
0350 : 30 30 30 30 30 30 30 30  30 30 30 30 30 30 30 00   000000000000000.
0360 : 30 30 30 30 30 30 30 30  30 30 30 30 30 30 30 30   0000000000000000
0370 : 00 01 00 00 00 00 00 00  00 00 00 00 00 00 00 00   ................

Copy Protection:
    Copy Protection: None found

Tracks and Write Offsets:
    DAT:

<rom name="track (Track 01).bin" size="309781920" crc="35024a35" md5="a1781d32f5e18e2e1a85df9fd99d147a" sha1="e1f5a56d12640096e5bdaf3954e09f08eaf26102" />
<rom name="track (Track 02).bin" size="4243008" crc="d6396a9f" md5="a8ab6b963b9aa5f55587d837157d5654" sha1="99543b1471d97632c71118ae362a2856a086d484" />
<rom name="track (Track 03).bin" size="13373472" crc="4862a392" md5="296025e1ff6f0fb4ca8eabf3f4b86f12" sha1="a43b257ba230561a2722fac0d7d648cb8ab1e2f4" />
<rom name="track (Track 04).bin" size="5266128" crc="7e6edb43" md5="44db19884c59e8b9b2b15cfabd2c16b9" sha1="47e0a4251eebe3cd908aca0188d16b4039001f21" />
<rom name="track (Track 05).bin" size="14511840" crc="46ce315c" md5="e6e4661fb668bfa7c1d4abd56a771092" sha1="886eeb4f343a386b9a6f0358a0dde7e980d7c70e" />
<rom name="track (Track 06).bin" size="7444080" crc="ef075c0e" md5="daf5f2c16afd659bacd37b2a17300d88" sha1="6b76c4df27465af003e945ce8b1897c89d51b50b" />
<rom name="track (Track 07).bin" size="16134720" crc="50dfc93a" md5="dee6e0dfaa363d4d4147c586520f5664" sha1="ffd6ee8ebff5fb3e7e92a16f67c281abb027a227" />
<rom name="track (Track 08).bin" size="5148528" crc="e9b92eab" md5="407adaf6a1105bc9903ad1d122ffdb52" sha1="9731e9219e5c355895466bdbaf1fa0069462d597" />
<rom name="track (Track 09).bin" size="13519296" crc="5650636c" md5="b9872e19a9e2daa7739bd2602e1e122b" sha1="84a67819825b08d2b62e9054793c5c9cd830b5e0" />
<rom name="track (Track 10).bin" size="7025424" crc="3da83c25" md5="4c011e98f4f4c2a0cdd24411b75e7a5e" sha1="ae7a8b23860e50099ba264809900e131fb6b82fd" />
<rom name="track (Track 11).bin" size="13735680" crc="9c92265d" md5="c866f79b7d7e70129b4598fe9a8ffb90" sha1="7c6655cb216b9bae1a34caeab04851b411be1bf2" />
<rom name="track (Track 12).bin" size="14295456" crc="ad89db64" md5="c5e0754b78ba44e714a0b70805e7b9ca" sha1="2feac4ef292e9471709c0dc34d9d1a540a3e254d" />
<rom name="track (Track 13).bin" size="10007760" crc="7523a639" md5="a8bea93811d7b90b2c09136b7b29ec0d" sha1="2d4edf80a177027f6ab23591353d1301611428b2" />
<rom name="track (Track 14).bin" size="8126160" crc="966c7f8a" md5="90974ee553e9ef59672c66235aed8e0e" sha1="47f13a60cc042075b193eb4f57d6d311d6325461" />
<rom name="track (Track 15).bin" size="12670224" crc="5e9fa845" md5="0318a8808e785b4882db8be0f5bdefa6" sha1="9cdffe0effc0c5041e0d1c45c557734f9f3d5f90" />
<rom name="track (Track 16).bin" size="5849424" crc="244ba13b" md5="88de60b09f42299cd263443899934d57" sha1="9bf07435b9a09730b08a588205be87d50f9ad647" />
<rom name="track (Track 17).bin" size="14119056" crc="bd14c2cd" md5="9034ad5237bc239ed943915c58f9adec" sha1="8d8ee2762701168da56d2abb899041f344d55342" />
<rom name="track (Track 18).bin" size="14024976" crc="56e1ba0a" md5="3d4a4028b3b771de79725bea624a8a29" sha1="36c7ae5a36032d3d2e88b052cd0e0f37c97f479b" />
<rom name="track (Track 19).bin" size="15984192" crc="b58a5b6e" md5="13b873d82b99438158759462bbe03947" sha1="fbc1fc8f4af091cdc724dd2a9ce05698e46b1ffa" />
<rom name="track (Track 20).bin" size="7636944" crc="4d4af020" md5="6f3795ae911ac8f39a8c5ad8906ee75b" sha1="1c473da7e53b2a81a3f46885cae7e9f5943ec27f" />
<rom name="track (Track 21).bin" size="5066208" crc="48e1ec13" md5="2636e3e478db0802188bbb68db98105d" sha1="bca60032d5606aa556dd4da1ec21d4a7dc5c85bd" />
<rom name="track (Track 22).bin" size="16186464" crc="ea811cc7" md5="c639c0c6cff48410cf472c0fde0cda75" sha1="f230c77152dbcc30d103b1fbcad254c287c5c9aa" />
<rom name="track (Track 23).bin" size="13945008" crc="b94b15a6" md5="d6a3efee57a563f18924957d5f90674d" sha1="fbb9fc3150a4ec6f74da75e6d593b67560f2db1f" />
<rom name="track (Track 24).bin" size="8669472" crc="f7970a32" md5="dcb6458290e8102e9e7ba63716502b18" sha1="657b6570a80c0d60d64f0e80099d51f48e094a9f" />
<rom name="track (Track 25).bin" size="15464400" crc="27c8fbd3" md5="2a14062361f74cd0405abeabd8e63df6" sha1="d2f71ac7ee405492e0a1fd1b54b9d4bdc89b8774" />
<rom name="track (Track 26).bin" size="7705152" crc="b15bdab0" md5="ab9a34d74cb1a63ec4cad1061157bde5" sha1="409682b85e79c2354415db4a7f0ffc83d401b453" />
<rom name="track (Track 27).bin" size="10327632" crc="cd707efa" md5="f1a73aa6cea6f21403aa08e9c8d6fbe6" sha1="73c278d67570b4b8e6a652335dd761df784c876f" />
<rom name="track (Track 28).bin" size="8859984" crc="707a9e92" md5="7e8cbb871ffb4c150caddec580d87bbe" sha1="2abefb6b60d959d4e38498e648c3148478de1a78" />
<rom name="track (Track 29).bin" size="16875600" crc="040b2ede" md5="2ce0019f4875290f2f30bbf83920885b" sha1="2cf9d97167f168fdbf72ad2f686d04f0cb0cc76a" />
<rom name="track (Track 30).bin" size="14180208" crc="f129df43" md5="1425335fbbfc04523dd5ba726cbd4edb" sha1="647262231b4663f732798902d7b535ec217c822e" />
<rom name="track (Track 31).bin" size="9838416" crc="22b58719" md5="6f96791d972e2c7eb8bc5d4c48f3cff5" sha1="cb819425125777572683bba95b9e9403e39310b5" />
<rom name="track (Track 32).bin" size="1093680" crc="e3397d6f" md5="eefa703dbb21b5fa91b50a9326ba39a4" sha1="d61c53630b2ec2261b41d299e44e0a075aeadcc8" />
<rom name="track (Track 33).bin" size="8608320" crc="af1ef529" md5="25370cec41544a254b8617c18fbf40b8" sha1="fc5af869f6443efe49d2f2c1f1d1b0ce176154c9" />
<rom name="track (Track 34).bin" size="13093584" crc="5bd89bc5" md5="72a7892716aad3a0761adf53bf6b1bfa" sha1="2a0f0a9adfc8f7e74a9c52bd676dacb3117a3402" />
<rom name="track (Track 35).bin" size="8921136" crc="eb1e0219" md5="d8661223342297a407b471bf880e0524" sha1="44fb8552487df46396efe07bf9578cee2589ea48" />
<rom name="track (Track 36).bin" size="7942704" crc="f4b6e9a3" md5="7bcd677c0e776033ac18299dbfb57b77" sha1="7f2d965999683164c68e7048352ee6ee6459c614" />
<rom name="track (Track 37).bin" size="13150032" crc="f3b9bae0" md5="17f9937ed6d78753edee48a63e9d2ec4" sha1="1d4dc6c72057dfcca1b7fc83ace3adef74125cf0" />

    Cuesheet:

CATALOG 0000000000000
FILE "track (Track 01).bin" BINARY
  TRACK 01 MODE2/2352
    INDEX 01 00:00:00
FILE "track (Track 02).bin" BINARY
  TRACK 02 AUDIO
    INDEX 00 00:00:00
    INDEX 01 00:01:74
FILE "track (Track 03).bin" BINARY
  TRACK 03 AUDIO
    INDEX 00 00:00:00
    INDEX 01 00:01:74
FILE "track (Track 04).bin" BINARY
  TRACK 04 AUDIO
    INDEX 00 00:00:00
    INDEX 01 00:01:74
FILE "track (Track 05).bin" BINARY
  TRACK 05 AUDIO
    INDEX 00 00:00:00
    INDEX 01 00:01:74
FILE "track (Track 06).bin" BINARY
  TRACK 06 AUDIO
    INDEX 00 00:00:00
    INDEX 01 00:01:74
FILE "track (Track 07).bin" BINARY
  TRACK 07 AUDIO
    INDEX 00 00:00:00
    INDEX 01 00:01:74
FILE "track (Track 08).bin" BINARY
  TRACK 08 AUDIO
    INDEX 00 00:00:00
    INDEX 01 00:01:74
FILE "track (Track 09).bin" BINARY
  TRACK 09 AUDIO
    INDEX 00 00:00:00
    INDEX 01 00:01:74
FILE "track (Track 10).bin" BINARY
  TRACK 10 AUDIO
    INDEX 00 00:00:00
    INDEX 01 00:01:74
FILE "track (Track 11).bin" BINARY
  TRACK 11 AUDIO
    INDEX 00 00:00:00
    INDEX 01 00:01:74
FILE "track (Track 12).bin" BINARY
  TRACK 12 AUDIO
    INDEX 00 00:00:00
    INDEX 01 00:01:74
FILE "track (Track 13).bin" BINARY
  TRACK 13 AUDIO
    INDEX 00 00:00:00
    INDEX 01 00:01:74
FILE "track (Track 14).bin" BINARY
  TRACK 14 AUDIO
    INDEX 00 00:00:00
    INDEX 01 00:01:74
FILE "track (Track 15).bin" BINARY
  TRACK 15 AUDIO
    INDEX 00 00:00:00
    INDEX 01 00:01:74
FILE "track (Track 16).bin" BINARY
  TRACK 16 AUDIO
    INDEX 00 00:00:00
    INDEX 01 00:01:74
FILE "track (Track 17).bin" BINARY
  TRACK 17 AUDIO
    INDEX 00 00:00:00
    INDEX 01 00:01:74
FILE "track (Track 18).bin" BINARY
  TRACK 18 AUDIO
    INDEX 00 00:00:00
    INDEX 01 00:01:74
FILE "track (Track 19).bin" BINARY
  TRACK 19 AUDIO
    INDEX 00 00:00:00
    INDEX 01 00:01:74
FILE "track (Track 20).bin" BINARY
  TRACK 20 AUDIO
    INDEX 00 00:00:00
    INDEX 01 00:01:74
FILE "track (Track 21).bin" BINARY
  TRACK 21 AUDIO
    INDEX 00 00:00:00
    INDEX 01 00:01:74
FILE "track (Track 22).bin" BINARY
  TRACK 22 AUDIO
    INDEX 00 00:00:00
    INDEX 01 00:01:74
FILE "track (Track 23).bin" BINARY
  TRACK 23 AUDIO
    INDEX 00 00:00:00
    INDEX 01 00:01:74
FILE "track (Track 24).bin" BINARY
  TRACK 24 AUDIO
    INDEX 00 00:00:00
    INDEX 01 00:01:74
FILE "track (Track 25).bin" BINARY
  TRACK 25 AUDIO
    INDEX 00 00:00:00
    INDEX 01 00:01:74
FILE "track (Track 26).bin" BINARY
  TRACK 26 AUDIO
    INDEX 00 00:00:00
    INDEX 01 00:01:74
FILE "track (Track 27).bin" BINARY
  TRACK 27 AUDIO
    INDEX 00 00:00:00
    INDEX 01 00:01:74
FILE "track (Track 28).bin" BINARY
  TRACK 28 AUDIO
    INDEX 00 00:00:00
    INDEX 01 00:01:74
FILE "track (Track 29).bin" BINARY
  TRACK 29 AUDIO
    INDEX 00 00:00:00
    INDEX 01 00:01:74
FILE "track (Track 30).bin" BINARY
  TRACK 30 AUDIO
    INDEX 00 00:00:00
    INDEX 01 00:01:74
FILE "track (Track 31).bin" BINARY
  TRACK 31 AUDIO
    INDEX 00 00:00:00
    INDEX 01 00:01:74
FILE "track (Track 32).bin" BINARY
  TRACK 32 AUDIO
    INDEX 00 00:00:00
    INDEX 01 00:01:74
FILE "track (Track 33).bin" BINARY
  TRACK 33 AUDIO
    INDEX 00 00:00:00
    INDEX 01 00:01:74
FILE "track (Track 34).bin" BINARY
  TRACK 34 AUDIO
    INDEX 00 00:00:00
    INDEX 01 00:01:74
FILE "track (Track 35).bin" BINARY
  TRACK 35 AUDIO
    INDEX 00 00:00:00
    INDEX 01 00:01:74
FILE "track (Track 36).bin" BINARY
  TRACK 36 AUDIO
    INDEX 00 00:00:00
    INDEX 01 00:01:74
FILE "track (Track 37).bin" BINARY
  TRACK 37 AUDIO
    INDEX 00 00:00:00
    INDEX 01 00:01:74

    Write Offset: 0

Logs: https://mega.nz/file/anQRXJ5S#CqyRsW0we … P-ZBf1Ad1A

Disc 2
http://redump.org/disc/20921/

Common Disc Info:
    Title: Jikuu Tantei DD: Maboroshi no Lorelei
    Foreign Title (Non-latin): 時空探偵DD~幻のローレライ~
    Disc Number / Letter: 2
    Disc Title: (OPTIONAL)
    System: IBM PC compatible
    Media Type: CD-ROM
    Category: Games
    Matching IDs: 20921
    Region: Japan
    Languages: Japanese
    Disc Serial: (REQUIRED, IF EXISTS)

    Ringcode Information:
        Data Side Mastering Code (laser branded/etched): ASCII-DD 2    B
        Data Side Mastering SID Code: IFPI L541
        Data Side Toolstamp or Mastering Code (engraved/stamped): (REQUIRED, IF EXISTS)
        Data Side Mould SID Code: IFPI 9370
        Data Side Additional Mould: (REQUIRED, IF EXISTS)
        Label Side Mould SID Code: (REQUIRED, IF EXISTS)
    Barcode: T4988606217335
    Error Count: 0
    Comments:

[T:VOL] DD_VOL2
Windows 95

    Contents: (OPTIONAL)

Version and Editions:
    Version: (REQUIRED, IF EXISTS)
    Edition/Release: (VERIFY THIS) Original

Extras:
    Primary Volume Descriptor (PVD):

0320 : 20 20 20 20 20 20 20 20  20 20 20 20 20 31 39 39                199
0330 : 36 31 30 32 33 30 39 31  30 32 33 32 33 00 31 39   6102309102323.19
0340 : 39 36 31 30 32 33 30 39  31 30 32 33 32 33 00 31   96102309102323.1
0350 : 39 39 36 31 30 32 33 30  39 31 30 32 33 32 33 00   996102309102323.
0360 : 31 39 39 36 31 30 32 33  30 39 31 30 32 33 32 33   1996102309102323
0370 : 00 01 00 00 00 00 00 00  00 00 00 00 00 00 00 00   ................

Copy Protection:
    Copy Protection: None found

Tracks and Write Offsets:
    DAT:

<rom name="DD_VOL2.bin" size="610214640" crc="b8dbf83b" md5="6c690b6fc7d8fee919e31680da03f149" sha1="5d3f305f3d4be186411f78be6d94cbb555fc3098" />

    Cuesheet:

CATALOG 0000000000000
FILE "DD_VOL2.bin" BINARY
  TRACK 01 MODE1/2352
    INDEX 01 00:00:00

    Write Offset: 0

Logs: https://mega.nz/file/G6xgTDDA#Hbwj8UUiK … 94CqI1g9ws