verification of: http://redump.org/disc/18550/

There's no mention of 'CDTV' on the discs or case, might be better in Amiga CD category.

It has English, French, German and Italian support, presumably a European release

logs/pics: https://mega.nz/folder/GL5iwb6S#muaibtJKpeM2L19XYggj8w

log:

Common Disc Info:
    Title: Ten on Ten
    Foreign Title (Non-latin): (OPTIONAL)
    Disc Number / Letter: 1
    Disc Title: Almathera Comms & Networking CD
    System: Commodore Amiga
    Media Type: CD-ROM
    Category: Applications
    Region: Europe
    Languages: English, French, German, Italian
    Disc Serial: (REQUIRED, IF EXISTS)

    Ringcode Information:
        Data Side Mastering Code (laser branded/etched): SONOPRESS CD-ROM K-7400 B
        Data Side Mastering SID Code: IFPI L021
        Data Side Toolstamp or Mastering Code (engraved/stamped): (REQUIRED, IF EXISTS)
        Data Side Mould SID Code: IFPI 0730
        Data Side Additional Mould: (REQUIRED, IF EXISTS)
        Label Side Mould SID Code: (REQUIRED, IF EXISTS)
        Label Side Additional Mould: 
    Barcode: (OPTIONAL)
    EXE/Build Date: (REQUIRED)
    Error Count: 0
    Comments: (OPTIONAL)
    Contents: (OPTIONAL)

Version and Editions:
    Version: (REQUIRED, IF EXISTS)
    Edition/Release: Original (VERIFY THIS)

Extras:
    Primary Volume Descriptor (PVD):

0320 : 00 00 00 00 00 00 00 00  00 00 00 00 00 31 39 39   .............199
0330 : 35 30 35 31 32 30 36 34  38 30 36 30 30 00 00 00   5051206480600...
0340 : 00 00 00 00 00 00 00 00  00 00 00 00 00 00 00 00   ................
0350 : 00 00 00 00 00 00 00 00  00 00 00 00 00 00 00 00   ................
0360 : 00 00 00 00 00 00 00 00  00 00 00 00 00 00 00 00   ................
0370 : 00 01 00 00 46 53 00 00  54 4D 00 14 00 00 56 88   ....FS..TM....V.

Tracks and Write Offsets:
    DAT:

<rom name="Ten on Ten 1.bin" size="248571120" crc="f9991efe" md5="cca00b0125a0f164b6bc73fb6339ee11" sha1="b4520eb166407bd00e54b9cbaf31212b3f54bc7a" />

    Cuesheet:

CATALOG 0000000000000
FILE "Ten on Ten 1.bin" BINARY
  TRACK 01 MODE1/2352
    INDEX 01 00:00:00

    Write Offset: 222

2

(0 replies, posted in Verifications)

verification of: http://redump.org/disc/18548/

There's no mention of 'CDTV' on the discs or case, might be better in Amiga CD category.

It has English, French, German and Italian support, presumably a European release

logs/pics: https://mega.nz/folder/GL5iwb6S#muaibtJKpeM2L19XYggj8w

log:

Common Disc Info:
    Title: Ten on Ten
    Foreign Title (Non-latin): (OPTIONAL)
    Disc Number / Letter: 2
    Disc Title: CDPD1
    System: Commodore Amiga
    Media Type: CD-ROM
    Category: Applications
    Region: Europe
    Languages: English, French, German, Italian
    Disc Serial: (REQUIRED, IF EXISTS)

    Ringcode Information:
        Data Side Mastering Code (laser branded/etched): SONOPRESS CD-ROM K-7401 A
        Data Side Mastering SID Code: IFPI L024
        Data Side Toolstamp or Mastering Code (engraved/stamped): (REQUIRED, IF EXISTS)
        Data Side Mould SID Code: IFPI 0734
        Data Side Additional Mould: (REQUIRED, IF EXISTS)
        Label Side Mould SID Code: (REQUIRED, IF EXISTS)
        Label Side Additional Mould: 
    Barcode: (OPTIONAL)
    EXE/Build Date: (REQUIRED)
    Error Count: 0
    Comments: (OPTIONAL)
    Contents: (OPTIONAL)

Version and Editions:
    Version: (REQUIRED, IF EXISTS)
    Edition/Release: Original (VERIFY THIS)

Extras:
    Primary Volume Descriptor (PVD):

0320 : 00 00 00 00 00 00 00 00  00 00 00 00 00 31 39 39   .............199
0330 : 35 30 33 32 37 31 37 32  30 31 38 30 30 00 00 00   5032717201800...
0340 : 00 00 00 00 00 00 00 00  00 00 00 00 00 00 00 00   ................
0350 : 00 00 00 00 00 00 00 00  00 00 00 00 00 00 00 00   ................
0360 : 00 00 00 00 00 00 00 00  00 00 00 00 00 00 00 00   ................
0370 : 00 01 00 00 46 53 00 00  00 00 00 00 00 00 00 00   ....FS..........

Tracks and Write Offsets:
    DAT:

<rom name="Ten on Ten 2.bin" size="746776464" crc="30c57806" md5="43b45e0afd4a960359d0ed1ba9120ae7" sha1="4a743f0feba8e20040e3b1ff77c051e57f9222ff" />

    Cuesheet:

CATALOG 0000000000000
FILE "Ten on Ten 2.bin" BINARY
  TRACK 01 MODE1/2352
    INDEX 01 00:00:00

    Write Offset: 222

3

(0 replies, posted in Verifications)

verification of: http://redump.org/disc/18549/

There's no mention of 'CDTV' on the discs or case, might be better in Amiga CD category.

It has English, French, German and Italian support, presumably a European release

logs/pics: https://mega.nz/folder/GL5iwb6S#muaibtJKpeM2L19XYggj8w

log:

Common Disc Info:
    Title: Ten on Ten
    Foreign Title (Non-latin): (OPTIONAL)
    Disc Number / Letter: 3
    Disc Title: CDPD 2
    System: Commodore Amiga
    Media Type: CD-ROM
    Category: Applications
    Region: Europe
    Languages: English, French, German, Italian
    Disc Serial: (REQUIRED, IF EXISTS)

    Ringcode Information:
        Data Side Mastering Code (laser branded/etched): SONOPRESS CD-ROM K-7402 A
        Data Side Mastering SID Code: IFPI L022
        Data Side Toolstamp or Mastering Code (engraved/stamped): (REQUIRED, IF EXISTS)
        Data Side Mould SID Code: IFPI 0773
        Data Side Additional Mould: (REQUIRED, IF EXISTS)
        Label Side Mould SID Code: (REQUIRED, IF EXISTS)
        Label Side Additional Mould: 
    Barcode: (OPTIONAL)
    EXE/Build Date: (REQUIRED)
    Error Count: 0
    Comments: (OPTIONAL)
    Contents: (OPTIONAL)

Version and Editions:
    Version: (REQUIRED, IF EXISTS)
    Edition/Release: Original (VERIFY THIS)

Extras:
    Primary Volume Descriptor (PVD):

0320 : 00 00 00 00 00 00 00 00  00 00 00 00 00 31 39 39   .............199
0330 : 35 30 33 32 38 31 35 35  33 32 36 30 30 00 00 00   5032815532600...
0340 : 00 00 00 00 00 00 00 00  00 00 00 00 00 00 00 00   ................
0350 : 00 00 00 00 00 00 00 00  00 00 00 00 00 00 00 00   ................
0360 : 00 00 00 00 00 00 00 00  00 00 00 00 00 00 00 00   ................
0370 : 00 01 00 00 46 53 00 00  00 00 00 00 00 00 00 00   ....FS..........

Tracks and Write Offsets:
    DAT:

<rom name="Ten on Ten 3.bin" size="658442400" crc="a94c14cc" md5="73e3a9b78888aee9e9754793d797bfd1" sha1="57b63e986dd15ba49362e1ff02eabe4a754b412f" />

    Cuesheet:

CATALOG 0000000000000
FILE "Ten on Ten 3.bin" BINARY
  TRACK 01 MODE1/2352
    INDEX 01 00:00:00

    Write Offset: 222

4

(0 replies, posted in Verifications)

verification of: http://redump.org/disc/18551/

There's no mention of 'CDTV' on the discs or case, might be better in Amiga CD category.

It has English, French, German and Italian support, presumably a European release

logs/pics: https://mega.nz/folder/GL5iwb6S#muaibtJKpeM2L19XYggj8w

log:

Common Disc Info:
    Title: Ten on Ten
    Foreign Title (Non-latin): (OPTIONAL)
    Disc Number / Letter: 4
    Disc Title: Demo 1
    System: Commodore Amiga
    Media Type: CD-ROM
    Category: Demos
    Region: Europe
    Languages: English, French, German, Italian
    Disc Serial: (REQUIRED, IF EXISTS)

    Ringcode Information:
        Data Side Mastering Code (laser branded/etched): SONOPRESS CD-ROM K-7403 A
        Data Side Mastering SID Code: IFPI l024
        Data Side Toolstamp or Mastering Code (engraved/stamped): (REQUIRED, IF EXISTS)
        Data Side Mould SID Code: IFPI 0734
        Data Side Additional Mould: (REQUIRED, IF EXISTS)
        Label Side Mould SID Code: (REQUIRED, IF EXISTS)
        Label Side Additional Mould: 
    Barcode: (OPTIONAL)
    EXE/Build Date: (REQUIRED)
    Error Count: 0
    Comments: (OPTIONAL)
    Contents: (OPTIONAL)

Version and Editions:
    Version: (REQUIRED, IF EXISTS)
    Edition/Release: Original (VERIFY THIS)

Extras:
    Primary Volume Descriptor (PVD):

0320 : 00 00 00 00 00 00 00 00  00 00 00 00 00 31 39 39   .............199
0330 : 35 30 34 30 31 31 35 32  32 34 33 30 30 00 00 00   5040115224300...
0340 : 00 00 00 00 00 00 00 00  00 00 00 00 00 00 00 00   ................
0350 : 00 00 00 00 00 00 00 00  00 00 00 00 00 00 00 00   ................
0360 : 00 00 00 00 00 00 00 00  00 00 00 00 00 00 00 00   ................
0370 : 00 01 00 00 46 53 00 00  00 00 00 00 00 00 00 00   ....FS..........

Tracks and Write Offsets:
    DAT:

<rom name="Ten on Ten 4.bin" size="708610560" crc="9ee5043f" md5="30d0e664799138e2c8d641b48d4192c0" sha1="42966b2d2f0ffd5540ec795861eb8b15f7076899" />

    Cuesheet:

CATALOG 0000000000000
FILE "Ten on Ten 4.bin" BINARY
  TRACK 01 MODE1/2352
    INDEX 01 00:00:00

    Write Offset: 222

5

(0 replies, posted in Verifications)

verification of: http://redump.org/disc/18523/

There's no mention of 'CDTV' on the discs or case, might be better in Amiga CD category.

It has English, French, German and Italian support, presumably a European release

logs/pics: https://mega.nz/folder/GL5iwb6S#muaibtJKpeM2L19XYggj8w

log:

Common Disc Info:
    Title: Ten on Ten
    Foreign Title (Non-latin): (OPTIONAL)
    Disc Number / Letter: 5
    Disc Title: World Vista
    System: Commodore Amiga
    Media Type: CD-ROM
    Category: Multimedia
    Region: Europe
    Languages: English, French, German, Italian
    Disc Serial: (REQUIRED, IF EXISTS)

    Ringcode Information:
        Data Side Mastering Code (laser branded/etched): SONOPRESS CD-ROM K-7404 A
        Data Side Mastering SID Code: IFPI L022
        Data Side Toolstamp or Mastering Code (engraved/stamped): (REQUIRED, IF EXISTS)
        Data Side Mould SID Code: IFPI 0771
        Data Side Additional Mould: (REQUIRED, IF EXISTS)
        Label Side Mould SID Code: (REQUIRED, IF EXISTS)
        Label Side Additional Mould: 
    Barcode: (OPTIONAL)
    EXE/Build Date: (REQUIRED)
    Error Count: 0
    Comments: (OPTIONAL)
    Contents: (OPTIONAL)

Version and Editions:
    Version: (REQUIRED, IF EXISTS)
    Edition/Release: Original (VERIFY THIS)

Extras:
    Primary Volume Descriptor (PVD):

0320 : 00 00 00 00 00 00 00 00  00 00 00 00 00 31 39 39   .............199
0330 : 35 30 35 30 39 31 33 34  30 35 35 30 30 00 00 00   5050913405500...
0340 : 00 00 00 00 00 00 00 00  00 00 00 00 00 00 00 00   ................
0350 : 00 00 00 00 00 00 00 00  00 00 00 00 00 00 00 00   ................
0360 : 00 00 00 00 00 00 00 00  00 00 00 00 00 00 00 00   ................
0370 : 00 01 00 00 46 53 00 00  00 00 00 00 00 00 00 00   ....FS..........

Tracks and Write Offsets:
    DAT:

<rom name="Ten on Ten 5.bin" size="502789392" crc="b2113b15" md5="8ec646ed17c575139d644efcf1566fbd" sha1="5b71c5976c388dd7a6e870ca36840c7accd50701" />

    Cuesheet:

CATALOG 0000000000000
FILE "Ten on Ten 5.bin" BINARY
  TRACK 01 MODE1/2352
    INDEX 01 00:00:00

    Write Offset: 222

verification of: http://redump.org/disc/18522/

There's no mention of 'CDTV' on the discs or case, might be better in Amiga CD category.

It has English, French, German and Italian support, presumably a European release

logs/pics: https://mega.nz/folder/GL5iwb6S#muaibtJKpeM2L19XYggj8w

log:

Common Disc Info:
    Title: Ten on Ten
    Foreign Title (Non-latin): (OPTIONAL)
    Disc Number / Letter: 6
    Disc Title: Illustrated Works of Shakepeare
    System: Commodore Amiga
    Media Type: CD-ROM
    Category: Multimedia
    Region: Europe
    Languages: English, French, Italian
    Disc Serial: (REQUIRED, IF EXISTS)

    Ringcode Information:
        Data Side Mastering Code (laser branded/etched): SONOPRESS CD-ROM K7405 A
        Data Side Mastering SID Code: IFPI L021
        Data Side Toolstamp or Mastering Code (engraved/stamped): (REQUIRED, IF EXISTS)
        Data Side Mould SID Code: IFPI 0771
        Data Side Additional Mould: (REQUIRED, IF EXISTS)
        Label Side Mould SID Code: (REQUIRED, IF EXISTS)
        Label Side Additional Mould: 
    Barcode: (OPTIONAL)
    EXE/Build Date: (REQUIRED)
    Error Count: 0
    Comments: (OPTIONAL)
    Contents: (OPTIONAL)

Version and Editions:
    Version: (REQUIRED, IF EXISTS)
    Edition/Release: Original (VERIFY THIS)

Extras:
    Primary Volume Descriptor (PVD):

0320 : 00 00 00 00 00 00 00 00  00 00 00 00 00 31 39 39   .............199
0330 : 35 30 35 31 30 30 38 33  33 31 36 30 30 00 00 00   5051008331600...
0340 : 00 00 00 00 00 00 00 00  00 00 00 00 00 00 00 00   ................
0350 : 00 00 00 00 00 00 00 00  00 00 00 00 00 00 00 00   ................
0360 : 00 00 00 00 00 00 00 00  00 00 00 00 00 00 00 00   ................
0370 : 00 01 00 00 46 53 00 00  00 00 00 00 00 00 00 00   ....FS..........

Tracks and Write Offsets:
    DAT:

<rom name="Ten on Ten 6.bin" size="53214000" crc="29c9634c" md5="a6984256d64d0daad5423575a805b41e" sha1="bab8b78ce7c95da36b650394cfbc285af7726da0" />

    Cuesheet:

CATALOG 0000000000000
FILE "Ten on Ten 6.bin" BINARY
  TRACK 01 MODE1/2352
    INDEX 01 00:00:00

    Write Offset: 222

7

(0 replies, posted in Verifications)

verification of: http://redump.org/disc/18521/

There's no mention of 'CDTV' on the discs or case, might be better in Amiga CD category.

It has English, French, German and Italian support, presumably a European release

logs/pics: https://mega.nz/folder/GL5iwb6S#muaibtJKpeM2L19XYggj8w

log:

Common Disc Info:
    Title: Ten on Ten
    Foreign Title (Non-latin): (OPTIONAL)
    Disc Number / Letter: 7
    Disc Title: Pandora's CD
    System: Commodore Amiga
    Media Type: CD-ROM
    Category: Multimedia
    Region: Europe
    Languages: English, French, German, Italian
    Disc Serial: (REQUIRED, IF EXISTS)

    Ringcode Information:
        Data Side Mastering Code (laser branded/etched): SONOPRESS CD-ROM K-7406 A)
        Data Side Mastering SID Code: IFPI L021
        Data Side Toolstamp or Mastering Code (engraved/stamped): (REQUIRED, IF EXISTS)
        Data Side Mould SID Code: IFPI 0771
        Data Side Additional Mould: (REQUIRED, IF EXISTS)
        Label Side Mould SID Code: (REQUIRED, IF EXISTS)
        Label Side Additional Mould: 
    Barcode: (OPTIONAL)
    EXE/Build Date: (REQUIRED)
    Error Count: 0
    Comments: (OPTIONAL)
    Contents: (OPTIONAL)

Version and Editions:
    Version: (REQUIRED, IF EXISTS)
    Edition/Release: Original (VERIFY THIS)

Extras:
    Primary Volume Descriptor (PVD):

0320 : 00 00 00 00 00 00 00 00  00 00 00 00 00 31 39 39   .............199
0330 : 35 30 34 30 35 31 36 35  39 35 39 30 30 00 00 00   5040516595900...
0340 : 00 00 00 00 00 00 00 00  00 00 00 00 00 00 00 00   ................
0350 : 00 00 00 00 00 00 00 00  00 00 00 00 00 00 00 00   ................
0360 : 00 00 00 00 00 00 00 00  00 00 00 00 00 00 00 00   ................
0370 : 00 01 00 00 46 53 00 00  00 00 00 00 00 00 00 00   ....FS..........

Tracks and Write Offsets:
    DAT:

<rom name="Ten on Ten 8.bin" size="458738784" crc="ddb7e392" md5="e7740666bced9f7a96da85ad9b4d113f" sha1="adac7c881f641bfc4667fcf8e7469886906548ea" />

    Cuesheet:

CATALOG 0000000000000
FILE "Ten on Ten 8.bin" BINARY
  TRACK 01 MODE1/2352
    INDEX 01 00:00:00

    Write Offset: 222

8

(0 replies, posted in Verifications)

verification of: http://redump.org/disc/18520/

There's no mention of 'CDTV' on the discs or case, might be better in Amiga CD category.

It has English, French, German and Italian support, presumably a European release

logs/pics: https://mega.nz/folder/GL5iwb6S#muaibtJKpeM2L19XYggj8w

log:

Common Disc Info:
    Title: Team Yankee Ten on Ten
    Foreign Title (Non-latin): (OPTIONAL)
    Disc Number / Letter: 8
    Disc Title: Team Yankee
    System: Commodore Amiga
    Media Type: CD-ROM
    Category: Games
    Region: Europe
    Languages: English, French, German, Italian
    Disc Serial: (REQUIRED, IF EXISTS)

    Ringcode Information:
        Data Side Mastering Code (laser branded/etched): SONOPRESS CD-ROM K-7407 A
        Data Side Mastering SID Code: (REQUIRED, IF EXISTS)
        Data Side Toolstamp or Mastering Code (engraved/stamped): (REQUIRED, IF EXISTS)
        Data Side Mould SID Code: IFPI 0734
        Data Side Additional Mould: (REQUIRED, IF EXISTS)
        Label Side Mould SID Code: (REQUIRED, IF EXISTS)
        Label Side Additional Mould: 
    Barcode: (OPTIONAL)
    EXE/Build Date: (REQUIRED)
    Error Count: 0
    Comments: (OPTIONAL)
    Contents: (OPTIONAL)

Version and Editions:
    Version: (REQUIRED, IF EXISTS)
    Edition/Release: Original (VERIFY THIS)

Extras:
    Primary Volume Descriptor (PVD):

0320 : 00 00 00 00 00 00 00 00  00 00 00 00 00 31 39 39   .............199
0330 : 35 30 35 31 30 31 31 31  33 31 31 30 30 00 00 00   5051011131100...
0340 : 00 00 00 00 00 00 00 00  00 00 00 00 00 00 00 00   ................
0350 : 00 00 00 00 00 00 00 00  00 00 00 00 00 00 00 00   ................
0360 : 00 00 00 00 00 00 00 00  00 00 00 00 00 00 00 00   ................
0370 : 00 01 00 00 46 53 00 00  00 00 00 00 00 00 00 00   ....FS..........

Tracks and Write Offsets:
    DAT:

<rom name="Ten on Ten 8.bin" size="7079520" crc="de95d6f2" md5="efc8a6b9face11df7a53ba32c74bbb2a" sha1="713bd1aaefe59e15af61771abffde3c89b5b9d2c" />

    Cuesheet:

CATALOG 0000000000000
FILE "Ten on Ten 8.bin" BINARY
  TRACK 01 MODE1/2352
    INDEX 01 00:00:00

    Write Offset: 222

verification of: http://redump.org/disc/18519/

There's no mention of 'CDTV' on the discs or case, might be better in Amiga CD category.

It has English, French, German and Italian support, presumably a European release

logs/pics: https://mega.nz/folder/GL5iwb6S#muaibtJKpeM2L19XYggj8w

log:

Common Disc Info:
    Title: Ten on Ten
    Foreign Title (Non-latin): (OPTIONAL)
    Disc Number / Letter: 9
    Disc Title: The Almathera Photo Library CD
    System: Commodore Amiga
    Media Type: CD-ROM
    Category: Applications
    Region: Europe
    Languages: English, French, German, Italian
    Disc Serial: (REQUIRED, IF EXISTS)

    Ringcode Information:
        Data Side Mastering Code (laser branded/etched): SONOPRESS CD-ROM K-7408 A
        Data Side Mastering SID Code: IFPI 0771
        Data Side Toolstamp or Mastering Code (engraved/stamped): (REQUIRED, IF EXISTS)
        Data Side Mould SID Code: IFPI 0771
        Data Side Additional Mould: (REQUIRED, IF EXISTS)
        Label Side Mould SID Code: (REQUIRED, IF EXISTS)
        Label Side Additional Mould: 
    Barcode: (OPTIONAL)
    EXE/Build Date: (REQUIRED)
    Error Count: 0
    Comments: (OPTIONAL)
    Contents: (OPTIONAL)

Version and Editions:
    Version: (REQUIRED, IF EXISTS)
    Edition/Release: Original (VERIFY THIS)

Extras:
    Primary Volume Descriptor (PVD):

0320 : 00 00 00 00 00 00 00 00  00 00 00 00 00 31 39 39   .............199
0330 : 35 30 35 30 39 32 32 31  37 31 33 30 30 00 00 00   5050922171300...
0340 : 00 00 00 00 00 00 00 00  00 00 00 00 00 00 00 00   ................
0350 : 00 00 00 00 00 00 00 00  00 00 00 00 00 00 00 00   ................
0360 : 00 00 00 00 00 00 00 00  00 00 00 00 00 00 00 00   ................
0370 : 00 01 00 00 46 53 00 00  00 00 00 00 00 00 00 00   ....FS..........

Tracks and Write Offsets:
    DAT:

<rom name="The Almathera Photo Library CD.bin" size="636801648" crc="75ecfbe4" md5="c1957cc3701c16379261420285f11677" sha1="dc1f8e27a0831476d694548fe1021c73974523c6" />

    Cuesheet:

CATALOG 0000000000000
FILE "The Almathera Photo Library CD.bin" BINARY
  TRACK 01 MODE1/2352
    INDEX 01 00:00:00

    Write Offset: 222

verification of: http://redump.org/disc/18518/

There's no mention of 'CDTV' on the discs or case, might be better in Amiga CD category.

It has English, French, German and Italian support, presumably a European release

logs/pics: https://mega.nz/folder/GL5iwb6S#muaibtJKpeM2L19XYggj8w


log:

Common Disc Info:
    Title: The Almathera Clipart & Fonts CD
    Foreign Title (Non-latin): (OPTIONAL)
    Disc Number / Letter: (OPTIONAL)
    Disc Title: (OPTIONAL)
    System: Commodore Amiga
    Media Type: CD-ROM
    Category: Applications
    Region: Europe
    Languages: English, French, German, Italian
    Disc Serial: (REQUIRED, IF EXISTS)

    Ringcode Information:
        Data Side Mastering Code (laser branded/etched): SONOPRESS CD-ROM K-7409 A
        Data Side Mastering SID Code: (REQUIRED, IF EXISTS)
        Data Side Toolstamp or Mastering Code (engraved/stamped): (REQUIRED, IF EXISTS)
        Data Side Mould SID Code: IFPI 0734
        Data Side Additional Mould: (REQUIRED, IF EXISTS)
        Label Side Mould SID Code: (REQUIRED, IF EXISTS)
        Label Side Additional Mould: 
    Barcode: (OPTIONAL)
    EXE/Build Date: (REQUIRED)
    Error Count: 0
    Comments: (OPTIONAL)
    Contents: (OPTIONAL)

Version and Editions:
    Version: (REQUIRED, IF EXISTS)
    Edition/Release: Original (VERIFY THIS)

Extras:
    Primary Volume Descriptor (PVD):

0320 : 00 00 00 00 00 00 00 00  00 00 00 00 00 31 39 39   .............199
0330 : 35 30 35 31 31 31 34 30  31 31 31 30 30 00 00 00   5051114011100...
0340 : 00 00 00 00 00 00 00 00  00 00 00 00 00 00 00 00   ................
0350 : 00 00 00 00 00 00 00 00  00 00 00 00 00 00 00 00   ................
0360 : 00 00 00 00 00 00 00 00  00 00 00 00 00 00 00 00   ................
0370 : 00 01 00 00 46 53 00 00  00 00 00 00 00 00 00 00   ....FS..........

Tracks and Write Offsets:
    DAT:

<rom name="The Almathera Clipar and Fonts CD.bin" size="230662992" crc="89ab1b59" md5="efcc9acae92fe1cf7975c41c38ad30a1" sha1="039ab9c11793fd66ac74e34fbc44d138babfb666" />

    Cuesheet:

CATALOG 0000000000000
FILE "The Almathera Clipar and Fonts CD.bin" BINARY
  TRACK 01 MODE1/2352
    INDEX 01 00:00:00

    Write Offset: 222

11

(0 replies, posted in Verifications)

verification of: http://redump.org/disc/106440/

The branding for CDTV is same prominence as CD32, is it possible to be listed in both categories?

logs/pics: https://mega.nz/folder/GL5iwb6S#muaibtJKpeM2L19XYggj8w

ring:

        Data Side Mastering Code (laser branded/etched): SONOPRESS CD-ROM * I-4699 * A   DS3
        Data Side Mastering SID Code: (REQUIRED, IF EXISTS)
        Data Side Toolstamp or Mastering Code (engraved/stamped): (REQUIRED, IF EXISTS)
        Data Side Mould SID Code: IFPI 0724
        Data Side Additional Mould: (REQUIRED, IF EXISTS)
        Label Side Mould SID Code: (REQUIRED, IF EXISTS)
        Label Side Additional Mould: 

log:

=== 2024-01-11 22:15:47 ========================================================
redumper v2023.12.29 build_306 [Dec 29 2023, 20:21:46]

arguments: --image-path=CD32\InsightDinosaurs

drive path: D:
drive: PLEXTOR - CD-R PX-W4012A (revision level: 1.07, vendor specific: 03/22/06 09:00)
drive configuration: PLEXTOR (read offset: +98, C2 shift: 294, pre-gap start: -75, read method: D8, sector order: DATA_C2_SUB)
drive read speed: <optimal>

current profile: CD-ROM

image path: CD32\InsightDinosaurs
image name: dump_240111_221547_D

*** DUMP

disc TOC:
  track 1 {  data }
    index 01 { LBA:      0, MSF: 00:02:00 }
  track A {  data }
    index 01 { LBA: 326080, MSF: 72:29:55 }

PLEXTOR: reading lead-in (retry: 1)
PLEXTOR: lead-in found (session: 1, sectors: 84)
PLEXTOR: reading lead-in (retry: 2)
PLEXTOR: lead-in found (session: 1, sectors: 84)
PLEXTOR: storing lead-in (session: 1, verified: yes)

media errors: 
  SCSI: 0
  C2: 0
  Q: 26

*** PROTECTION (time check: 618s)

protection: N/A

*** REFINE


*** SPLIT

correcting Q... done

final TOC:
  track 1 {  data }
    index 00 { LBA: [  -150 ..     -1], length:    150, MSF: 00:00:00-00:01:74 }
    index 01 { LBA: [     0 .. 326079], length: 326080, MSF: 00:02:00-72:29:54 }
  track A {  data }
    index 01 { LBA: [326080 .. 326177], length:     98, MSF: 72:29:55-72:31:02 }

analyzing... done (time: 40s)

data disc detected, offset configuration: 
  LBA:   -159 -> 461820, MSF: A2:39:45, count:      9, offset: -271643674
  LBA:   -150 ->   -150, MSF: 00:00:00, count: 326329, offset: -22

non-zero  TOC sample range: [   -88200 .. +191735040]
non-zero data sample range: [    +9386 .. +191793154]
Universal Hash (SHA-1): 99add652c86a2dc658afd7a2ac0f47db0787581b

disc write offset: -22

checking tracks
done

writing tracks
done

CUE [dump_240111_221547_D.cue]:
FILE "dump_240111_221547_D.bin" BINARY
  TRACK 01 MODE1/2352
    INDEX 01 00:00:00


*** HASH (time check: 74s)

dat:
<rom name="dump_240111_221547_D.bin" size="766940160" crc="67f592d9" md5="d35bdb5d6efa2b01b989aefe2cda044f" sha1="95da49ffa6f6cfe3933f447272ccb9a2bd6d2619" />

*** INFO

CD-ROM [dump_240111_221547_D.bin]:
  sectors count: 326080
  mode1 sectors: 326080

  REDUMP.ORG errors: 0

ISO9660 [dump_240111_221547_D.bin]:
  volume identifier: Dinosaurs 6 CDTV/CD32
  PVD:
0320 : 00 00 00 00 00 00 00 00  00 00 00 00 00 31 39 39   .............199
0330 : 34 30 36 31 33 31 37 32  36 35 39 30 30 00 00 00   4061317265900...
0340 : 00 00 00 00 00 00 00 00  00 00 00 00 00 00 00 00   ................
0350 : 00 00 00 00 00 00 00 00  00 00 00 00 00 00 00 00   ................
0360 : 00 00 00 00 00 00 00 00  00 00 00 00 00 00 00 00   ................
0370 : 00 01 00 00 46 53 00 00  54 4D 00 14 00 00 56 88   ....FS..TM....V.

*** SKELETON (time check: 5s)


*** END (time check: 13s)

verification of: http://redump.org/disc/111213/

I think this may be a very different printing to the one listed, but the contents seem to match. This version was given away with Amiga Format Magazine.

logs/pics: https://mega.nz/folder/GL5iwb6S#muaibtJKpeM2L19XYggj8w

ring:

        Data Side Mastering Code (laser branded/etched): -MASTERED BY NIMBUS-   CDD4201 WEIRD SCIENCE 3 ·
        Data Side Mastering SID Code: IFPI L041
        Data Side Toolstamp or Mastering Code (engraved/stamped): 1 : 0
        Data Side Mould SID Code: (REQUIRED, IF EXISTS)
        Data Side Additional Mould: (REQUIRED, IF EXISTS)
        Label Side Mould SID Code: (REQUIRED, IF EXISTS)
        Label Side Additional Mould: 

log:

=== 2024-01-08 20:53:34 ========================================================
redumper v2023.12.29 build_306 [Dec 29 2023, 20:21:46]

arguments: --image-path=AGAExperienceAmigaFormat

drive path: D:
drive: PLEXTOR - CD-R PX-W4012A (revision level: 1.07, vendor specific: 03/22/06 09:00)
drive configuration: PLEXTOR (read offset: +98, C2 shift: 294, pre-gap start: -75, read method: D8, sector order: DATA_C2_SUB)
drive read speed: <optimal>

current profile: CD-ROM

image path: AGAExperienceAmigaFormat
image name: dump_240108_205334_D

*** DUMP

disc TOC:
  track 1 {  data }
    index 01 { LBA:      0, MSF: 00:02:00 }
  track A {  data }
    index 01 { LBA: 331732, MSF: 73:45:07 }

PLEXTOR: reading lead-in (retry: 1)
PLEXTOR: lead-in found (session: 1, sectors: 88)
PLEXTOR: reading lead-in (retry: 2)
PLEXTOR: lead-in found (session: 1, sectors: 88)
PLEXTOR: storing lead-in (session: 1, verified: yes)
[LBA: 295192] subcode desync (shift: -1)                       
[LBA: 295193] subcode desync (shift: -2)                       
[LBA: 295195] subcode desync (shift: +0)                       

media errors: 
  SCSI: 0
  C2: 0
  Q: 896

*** PROTECTION (time check: 592s)

protection: N/A

*** REFINE


*** SPLIT

correcting Q... done

final TOC:
  track 1 {  data }
    index 00 { LBA: [  -150 ..     -1], length:    150, MSF: 00:00:00-00:01:74 }
    index 01 { LBA: [     0 .. 331731], length: 331732, MSF: 00:02:00-73:45:06 }
  track A {  data }
    index 01 { LBA: [331732 .. 331829], length:     98, MSF: 73:45:07-73:46:29 }

analyzing... done (time: 41s)

data disc detected, offset configuration: 
  LBA:   -163 -> 449837, MSF: 99:59:62, count:     13, offset: -264600022
  LBA:   -150 ->   -150, MSF: 00:00:00, count: 331981, offset: -22

non-zero  TOC sample range: [   -88200 .. +195058416]
non-zero data sample range: [    +9386 .. +195116530]
Universal Hash (SHA-1): 0f669c4fea930be217c467560dbd6b16c330b1ac

disc write offset: -22

checking tracks
done

writing tracks
done

CUE [dump_240108_205334_D.cue]:
FILE "dump_240108_205334_D.bin" BINARY
  TRACK 01 MODE1/2352
    INDEX 01 00:00:00


*** HASH (time check: 75s)

dat:
<rom name="dump_240108_205334_D.bin" size="780233664" crc="7c55d7ba" md5="5ca1f75189b6f2e5550f77002fef3264" sha1="7ae43c7ce157adbfd06c1c53b25403ee72726136" />

*** INFO

CD-ROM [dump_240108_205334_D.bin]:
  sectors count: 331732
  mode1 sectors: 331732

  REDUMP.ORG errors: 0

ISO9660 [dump_240108_205334_D.bin]:
  volume identifier: AGA_VOL_1
  PVD:
0320 : 00 00 00 00 00 00 00 00  00 00 00 00 00 31 39 37   .............197
0330 : 38 30 36 32 39 30 31 32  31 35 37 30 30 00 00 00   8062901215700...
0340 : 00 00 00 00 00 00 00 00  00 00 00 00 00 00 00 00   ................
0350 : 00 00 00 00 00 00 00 00  00 00 00 00 00 00 00 00   ................
0360 : 00 00 00 00 00 00 00 00  00 00 00 00 00 00 00 00   ................
0370 : 00 01 00 00 46 53 00 00  00 00 00 00 00 00 00 00   ....FS..........

*** SKELETON (time check: 5s)


*** END (time check: 18s)

verification of: http://redump.org/disc/110518/

slight variation in mastering code, see pics

logs/pics: https://mega.nz/folder/GL5iwb6S#muaibtJKpeM2L19XYggj8w

ring:

        Data Side Mastering Code (laser branded/etched): AMIGACTIVE #8    PINPRINT    05843    www.vdcgroup.com
        Data Side Mastering SID Code: (REQUIRED, IF EXISTS)
        Data Side Toolstamp or Mastering Code (engraved/stamped): (REQUIRED, IF EXISTS)
        Data Side Mould SID Code: IFPI 5Q11
        Data Side Additional Mould: (REQUIRED, IF EXISTS)
        Label Side Mould SID Code: (REQUIRED, IF EXISTS)
        Label Side Additional Mould: 

log:

=== 2024-01-05 22:42:56 ========================================================
redumper v2023.12.29 build_306 [Dec 29 2023, 20:21:46]

arguments: --image-path=AACD8-verify

drive path: D:
drive: PLEXTOR - CD-R PX-W4012A (revision level: 1.07, vendor specific: 03/22/06 09:00)
drive configuration: PLEXTOR (read offset: +98, C2 shift: 294, pre-gap start: -75, read method: D8, sector order: DATA_C2_SUB)
drive read speed: <optimal>

current profile: CD-ROM

image path: AACD8-verify
image name: dump_240105_224256_D

*** DUMP

disc TOC:
  track 1 {  data }
    index 01 { LBA:      0, MSF: 00:02:00 }
  track A {  data }
    index 01 { LBA: 332297, MSF: 73:52:47 }

PLEXTOR: reading lead-in (retry: 1)
PLEXTOR: lead-in found (session: 1, sectors: 8451)
PLEXTOR: reading lead-in (retry: 2)
PLEXTOR: lead-in found (session: 1, sectors: 74)
PLEXTOR: storing lead-in (session: 1, verified: yes)

media errors: 
  SCSI: 0
  C2: 0
  Q: 537

*** PROTECTION (time check: 640s)

protection: N/A

*** REFINE


*** SPLIT

correcting Q... done

final TOC:
  track 1 {  data }
    index 00 { LBA: [  -150 ..     -1], length:    150, MSF: 00:00:00-00:01:74 }
    index 01 { LBA: [     0 .. 332296], length: 332297, MSF: 00:02:00-73:52:46 }
  track A {  data }
    index 01 { LBA: [332297 .. 332394], length:     98, MSF: 73:52:47-73:53:69 }

analyzing... done (time: 254s)

data disc detected, offset configuration: 
  LBA:   -149 ->   -149, MSF: 00:00:01, count: 332545, offset: -22

non-zero  TOC sample range: [   -88200 .. +195390636]
non-zero data sample range: [    +9386 .. +195448750]
Universal Hash (SHA-1): 24625cc4b0e55f2b71c75112fd7a55b290a828dd

disc write offset: -22

warning: incomplete pre-gap (session: 1, unavailable: 1/150)
checking tracks
done

writing tracks
done

CUE [dump_240105_224256_D.cue]:
FILE "dump_240105_224256_D.bin" BINARY
  TRACK 01 MODE1/2352
    INDEX 01 00:00:00


*** HASH (time check: 292s)

dat:
<rom name="dump_240105_224256_D.bin" size="781562544" crc="10de2011" md5="086545ae5294864c89d3a22f10483191" sha1="2b1ab588f3e919cec1f7acc6b47f21cfa24fc2f2" />

*** INFO

CD-ROM [dump_240105_224256_D.bin]:
  sectors count: 332297
  mode1 sectors: 332297

  REDUMP.ORG errors: 0

ISO9660 [dump_240105_224256_D.bin]:
  volume identifier: AACD08
  PVD:
0320 : 20 20 20 20 20 20 20 20  20 20 20 20 20 32 30 30                200
0330 : 30 30 34 30 34 31 35 35  35 34 32 30 30 00 32 30   0040415554200.20
0340 : 30 30 30 34 30 34 31 35  35 35 34 32 30 30 00 30   00040415554200.0
0350 : 30 30 30 30 30 30 30 30  30 30 30 30 30 30 30 00   000000000000000.
0360 : 30 30 30 30 30 30 30 30  30 30 30 30 30 30 30 30   0000000000000000
0370 : 00 01 00 00 00 00 00 00  00 00 00 00 00 00 00 00   ................

*** SKELETON (time check: 5s)


*** END (time check: 22s)

Verification of http://redump.org/disc/20857/

I would note on my disc there was a '3' further round after the main text which was identical.

logs/pics: https://mega.nz/folder/GL5iwb6S#muaibtJKpeM2L19XYggj8w

ring:

        Data Side Mastering Code (laser branded/etched): SONOPRESS CD-ROM * G-9255 * C    3
        Data Side Mastering SID Code: (REQUIRED, IF EXISTS)
        Data Side Toolstamp or Mastering Code (engraved/stamped): (REQUIRED, IF EXISTS)
        Data Side Mould SID Code: (REQUIRED, IF EXISTS)
        Data Side Additional Mould: (REQUIRED, IF EXISTS)
        Label Side Mould SID Code: (REQUIRED, IF EXISTS)
        Label Side Additional Mould: 

log

=== 2024-01-11 21:32:31 ========================================================
redumper v2023.12.29 build_306 [Dec 29 2023, 20:21:46]

arguments: --image-path=17bitCollectionDisc1EarlyClassics

drive path: D:
drive: PLEXTOR - CD-R PX-W4012A (revision level: 1.07, vendor specific: 03/22/06 09:00)
drive configuration: PLEXTOR (read offset: +98, C2 shift: 294, pre-gap start: -75, read method: D8, sector order: DATA_C2_SUB)
drive read speed: <optimal>

current profile: CD-ROM

image path: 17bitCollectionDisc1EarlyClassics
image name: dump_240111_213231_D

*** DUMP

disc TOC:
  track 1 {  data }
    index 01 { LBA:      0, MSF: 00:02:00 }
  track A { audio }
    index 01 { LBA: 224025, MSF: 49:49:00 }

PLEXTOR: reading lead-in (retry: 1)
PLEXTOR: lead-in found (session: 1, sectors: 82)
PLEXTOR: reading lead-in (retry: 2)
PLEXTOR: lead-in found (session: 1, sectors: 82)
PLEXTOR: storing lead-in (session: 1, verified: yes)

media errors: 
  SCSI: 0
  C2: 0
  Q: 86

*** PROTECTION (time check: 396s)

protection: N/A

*** REFINE


*** SPLIT

correcting Q... done

final TOC:
  track 1 {  data }
    index 00 { LBA: [  -150 ..     -1], length:    150, MSF: 00:00:00-00:01:74 }
    index 01 { LBA: [     0 .. 224024], length: 224025, MSF: 00:02:00-49:48:74 }
  track A { audio }
    index 01 { LBA: [224025 .. 224122], length:     98, MSF: 49:49:00-49:50:22 }

analyzing... done (time: 29s)

data disc detected, offset configuration: 
  LBA:   -148 ->   -150, MSF: 00:00:00, count: 224175, offset: +1139

non-zero  TOC sample range: [   -88200 .. +131726700]
non-zero data sample range: [   +10547 .. +131577899]
Universal Hash (SHA-1): 0e9418a301e6fa5ab960e9f17bb3141d4a21f7e9

disc write offset: +1139

checking tracks
done

writing tracks
done

CUE [dump_240111_213231_D.cue]:
FILE "dump_240111_213231_D.bin" BINARY
  TRACK 01 MODE1/2352
    INDEX 01 00:00:00


*** HASH (time check: 53s)

dat:
<rom name="dump_240111_213231_D.bin" size="526906800" crc="3b70fc1b" md5="b1c6f08b7f199283641e672cef13f89a" sha1="3d30e7117674698c5f6f401e59626c001ac14a98" />

*** INFO

CD-ROM [dump_240111_213231_D.bin]:
  sectors count: 224025
  mode1 sectors: 224025

  REDUMP.ORG errors: 0

ISO9660 [dump_240111_213231_D.bin]:
  volume identifier: 17BITA
  PVD:
0320 : 00 00 00 00 00 00 00 00  00 00 00 00 00 31 39 39   .............199
0330 : 33 30 34 31 30 31 32 32  34 30 38 30 30 00 00 00   3041012240800...
0340 : 00 00 00 00 00 00 00 00  00 00 00 00 00 00 00 00   ................
0350 : 00 00 00 00 00 00 00 00  00 00 00 00 00 00 00 00   ................
0360 : 00 00 00 00 00 00 00 00  00 00 00 00 00 00 00 00   ................
0370 : 00 01 00 00 46 53 00 00  54 4D 00 14 00 00 56 88   ....FS..TM....V.

*** SKELETON (time check: 3s)


*** END (time check: 9s)