This a post for multiple discs, the files are all located here in individual folders: https://mega.nz/folder/ie423DxY#D8a1XUlA7lRtYlg3xEganw

Common Disc Info:
    Title: Amiga Format Disc 40: June 1999
    Foreign Title (Non-latin): (OPTIONAL)
    Disc Number / Letter: (OPTIONAL)
    Disc Title: (OPTIONAL)
    System: Commodore Amiga
    Media Type: CD-ROM
    Category: Coverdiscs
    Region: UK
    Languages: English
    Disc Serial: AF/124/6/99

    Ringcode Information:
        Data Side Mastering Code (laser branded/etched): | TIB AF/124/6/99    9042124
        Data Side Mastering SID Code: IFPI L055
        Data Side Toolstamp or Mastering Code (engraved/stamped): (REQUIRED, IF EXISTS)
        Data Side Mould SID Code: (REQUIRED, IF EXISTS)
        Data Side Additional Mould: (REQUIRED, IF EXISTS)
        Label Side Mould SID Code: (REQUIRED, IF EXISTS)
        Label Side Additional Mould: 
    Barcode: (OPTIONAL)
    EXE/Build Date: (REQUIRED)
    Error Count: 0
    Comments: (OPTIONAL)
    Contents: (OPTIONAL)

Version and Editions:
    Version: (REQUIRED, IF EXISTS)
    Edition/Release: Original (VERIFY THIS)

Extras:
    Primary Volume Descriptor (PVD):

0320 : 00 00 00 00 00 00 00 00  00 00 00 00 00 31 39 39   .............199
0330 : 39 30 34 31 32 31 38 35  38 31 30 30 30 00 00 00   9041218581000...
0340 : 00 00 00 00 00 00 00 00  00 00 00 00 00 00 00 00   ................
0350 : 00 00 00 00 00 00 00 00  00 00 00 00 00 00 00 00   ................
0360 : 00 00 00 00 00 00 00 00  00 00 00 00 00 00 00 00   ................
0370 : 00 01 00 00 46 53 00 00  00 00 00 00 00 00 00 00   ....FS..........

Tracks and Write Offsets:
    DAT:

<rom name="AFCD40 (Track 1).bin" size="661262448" crc="b053b2f9" md5="da18fe5e4c5c8e9bdf3f4627f0eb19b5" sha1="bc44406224be34b5230374b3b232e3f1804d439b" />
<rom name="AFCD40 (Track 2).bin" size="34325088" crc="77506074" md5="4e350dc2d94c73d16d9b6811e3b47733" sha1="a59fdcd1cb907986b51d2ec9165ac81cb9f6fe69" />
<rom name="AFCD40 (Track 3).bin" size="49735392" crc="234ea270" md5="aeb70b60232de88db86b1ea6fb15e326" sha1="489f05cee1241feee0d4da04c3ada755e111bde7" />

    Cuesheet:

FILE "AFCD40 (Track 1).bin" BINARY
  TRACK 01 MODE1/2352
    INDEX 01 00:00:00
FILE "AFCD40 (Track 2).bin" BINARY
  TRACK 02 AUDIO
    INDEX 00 00:00:00
    INDEX 01 00:02:00
FILE "AFCD40 (Track 3).bin" BINARY
  TRACK 03 AUDIO
    INDEX 00 00:00:00
    INDEX 01 00:02:00

    Write Offset: -22

Common Disc Info:
    Title: Amiga Format Disc 41: July 1999
    Foreign Title (Non-latin): (OPTIONAL)
    Disc Number / Letter: (OPTIONAL)
    Disc Title: (OPTIONAL)
    System: Commodore Amiga
    Media Type: CD-ROM
    Category: Coverdiscs
    Region: UK
    Languages: English
    Disc Serial: AF/125/7/99

    Ringcode Information:
        Data Side Mastering Code (laser branded/etched): | TIB AF/125/07/99    9051719
        Data Side Mastering SID Code: IFPI L055
        Data Side Toolstamp or Mastering Code (engraved/stamped): IFPI 5H01
        Data Side Mould SID Code: (REQUIRED, IF EXISTS)
        Data Side Additional Mould: (REQUIRED, IF EXISTS)
        Label Side Mould SID Code: (REQUIRED, IF EXISTS)
        Label Side Additional Mould: 
    Barcode: (OPTIONAL)
    EXE/Build Date: (REQUIRED)
    Error Count: 0
    Comments: (OPTIONAL)
    Contents: (OPTIONAL)

Version and Editions:
    Version: (REQUIRED, IF EXISTS)
    Edition/Release: Original (VERIFY THIS)

Extras:
    Primary Volume Descriptor (PVD):

0320 : 00 00 00 00 00 00 00 00  00 00 00 00 00 31 39 39   .............199
0330 : 39 30 35 31 31 31 31 35  31 34 32 30 30 00 00 00   9051111514200...
0340 : 00 00 00 00 00 00 00 00  00 00 00 00 00 00 00 00   ................
0350 : 00 00 00 00 00 00 00 00  00 00 00 00 00 00 00 00   ................
0360 : 00 00 00 00 00 00 00 00  00 00 00 00 00 00 00 00   ................
0370 : 00 01 00 00 46 53 00 00  00 00 00 00 00 00 00 00   ....FS..........

Tracks and Write Offsets:
    DAT:

<rom name="AFCD41.bin" size="771655920" crc="e2d51a69" md5="ecd8c6d7b818de6ee5410f3e797251a4" sha1="e5c9de191dfb12fa625986a9cb4b0bb3d8284dad" />

    Cuesheet:

FILE "AFCD41.bin" BINARY
  TRACK 01 MODE1/2352
    INDEX 01 00:00:00

    Write Offset: -22

Common Disc Info:
    Title: Amiga Format Disc 42: August 1999
    Foreign Title (Non-latin): (OPTIONAL)
    Disc Number / Letter: (OPTIONAL)
    Disc Title: (OPTIONAL)
    System: Commodore Amiga
    Media Type: CD-ROM
    Category: Coverdiscs
    Region: UK
    Languages: English
    Disc Serial: AF/126/8/99

    Ringcode Information:
        Data Side Mastering Code (laser branded/etched): | TIB AF/126/08/99    9062230
        Data Side Mastering SID Code: IFPI L055
        Data Side Toolstamp or Mastering Code (engraved/stamped): (REQUIRED, IF EXISTS)
        Data Side Mould SID Code: IFPI 5H01
        Data Side Additional Mould: (REQUIRED, IF EXISTS)
        Label Side Mould SID Code: (REQUIRED, IF EXISTS)
        Label Side Additional Mould: 
    Barcode: (OPTIONAL)
    EXE/Build Date: (REQUIRED)
    Error Count: 0
    Comments: (OPTIONAL)
    Contents: (OPTIONAL)

Version and Editions:
    Version: (REQUIRED, IF EXISTS)
    Edition/Release: Original (VERIFY THIS)

Extras:
    Primary Volume Descriptor (PVD):

0320 : 00 00 00 00 00 00 00 00  00 00 00 00 00 31 39 39   .............199
0330 : 39 30 36 30 37 31 31 30  31 32 37 30 30 00 00 00   9060711012700...
0340 : 00 00 00 00 00 00 00 00  00 00 00 00 00 00 00 00   ................
0350 : 00 00 00 00 00 00 00 00  00 00 00 00 00 00 00 00   ................
0360 : 00 00 00 00 00 00 00 00  00 00 00 00 00 00 00 00   ................
0370 : 00 01 00 00 46 53 00 00  00 00 00 00 00 00 00 00   ....FS..........

Tracks and Write Offsets:
    DAT:

<rom name="AFCD42.bin" size="775659024" crc="1596e474" md5="f679a88f0c6bec8ab0e3351d407a641c" sha1="cc67aeec2f27eaa909c652a24848e345e1a6466e" />

    Cuesheet:

FILE "AFCD42.bin" BINARY
  TRACK 01 MODE1/2352
    INDEX 01 00:00:00

    Write Offset: -22

Common Disc Info:
    Title: Amiga Format Disc 43: September 1999
    Foreign Title (Non-latin): (OPTIONAL)
    Disc Number / Letter: (OPTIONAL)
    Disc Title: (OPTIONAL)
    System: Commodore Amiga
    Media Type: CD-ROM
    Category: Coverdiscs
    Region: UK
    Languages: English
    Disc Serial: AF/127/9/99

    Ringcode Information:
        Data Side Mastering Code (laser branded/etched): |    TIB AF/127/09/99    9071428        
        Data Side Mastering SID Code: IFPI L055
        Data Side Toolstamp or Mastering Code (engraved/stamped): (REQUIRED, IF EXISTS)
        Data Side Mould SID Code: IFPI 5H02
        Data Side Additional Mould: (REQUIRED, IF EXISTS)
        Label Side Mould SID Code: (REQUIRED, IF EXISTS)
        Label Side Additional Mould: 
    Barcode: (OPTIONAL)
    EXE/Build Date: (REQUIRED)
    Error Count: 0
    Comments: (OPTIONAL)
    Contents: (OPTIONAL)

Version and Editions:
    Version: (REQUIRED, IF EXISTS)
    Edition/Release: Original (VERIFY THIS)

Extras:
    Primary Volume Descriptor (PVD):

0320 : 00 00 00 00 00 00 00 00  00 00 00 00 00 31 39 39   .............199
0330 : 39 30 37 30 36 31 32 31  31 35 32 30 30 00 00 00   9070612115200...
0340 : 00 00 00 00 00 00 00 00  00 00 00 00 00 00 00 00   ................
0350 : 00 00 00 00 00 00 00 00  00 00 00 00 00 00 00 00   ................
0360 : 00 00 00 00 00 00 00 00  00 00 00 00 00 00 00 00   ................
0370 : 00 01 00 00 46 53 00 00  00 00 00 00 00 00 00 00   ....FS..........

Tracks and Write Offsets:
    DAT:

<rom name="AFCD43 (Track 1).bin" size="743441328" crc="48e1473f" md5="0c376b05db1af977f7bb769204bca78b" sha1="8408ae20bfafa1f48f355084c9073e3fa354eb88" />
<rom name="AFCD43 (Track 2).bin" size="19439280" crc="d07eabbc" md5="c370f062382a4f925eeb093c6b5352c1" sha1="c524f2283bf73b1149bfcc5f50d084467a757580" />

    Cuesheet:

FILE "AFCD43 (Track 1).bin" BINARY
  TRACK 01 MODE1/2352
    INDEX 01 00:00:00
FILE "AFCD43 (Track 2).bin" BINARY
  TRACK 02 AUDIO
    INDEX 00 00:00:00
    INDEX 01 00:02:00

    Write Offset: -22

Common Disc Info:
    Title: Amiga Format Disc 45: November 1999
    Foreign Title (Non-latin): (OPTIONAL)
    Disc Number / Letter: (OPTIONAL)
    Disc Title: (OPTIONAL)
    System: Commodore Amiga
    Media Type: CD-ROM
    Category: Coverdiscs
    Region: UK
    Languages: English
    Disc Serial: AF/129/11/99

    Ringcode Information:
        Data Side Mastering Code (laser branded/etched): | TIB AF129/11/99    9090701
        Data Side Mastering SID Code: IFPI L055
        Data Side Toolstamp or Mastering Code (engraved/stamped): (REQUIRED, IF EXISTS)
        Data Side Mould SID Code: (REQUIRED, IF EXISTS)
        Data Side Additional Mould: (REQUIRED, IF EXISTS)
        Label Side Mould SID Code: (REQUIRED, IF EXISTS)
        Label Side Additional Mould: 
    Barcode: (OPTIONAL)
    EXE/Build Date: (REQUIRED)
    Error Count: 0
    Comments: (OPTIONAL)
    Contents: (OPTIONAL)

Version and Editions:
    Version: (REQUIRED, IF EXISTS)
    Edition/Release: Original (VERIFY THIS)

Extras:
    Primary Volume Descriptor (PVD):

0320 : 00 00 00 00 00 00 00 00  00 00 00 00 00 31 39 39   .............199
0330 : 39 30 38 33 31 31 31 31  31 35 39 30 30 00 00 00   9083111115900...
0340 : 00 00 00 00 00 00 00 00  00 00 00 00 00 00 00 00   ................
0350 : 00 00 00 00 00 00 00 00  00 00 00 00 00 00 00 00   ................
0360 : 00 00 00 00 00 00 00 00  00 00 00 00 00 00 00 00   ................
0370 : 00 01 00 00 46 53 00 00  00 00 00 00 00 00 00 00   ....FS..........

Tracks and Write Offsets:
    DAT:

<rom name="AFCD45 (Track 1).bin" size="735369264" crc="193cbe77" md5="05ad61219b8a65616918d8c81cf7e59e" sha1="e58e65cce5dd334b0735d4837668bf8d675de3d8" />
<rom name="AFCD45 (Track 2).bin" size="24634848" crc="f9504da2" md5="c7eeae3289cc172bc023846d1425cd35" sha1="1a2598629c1e54de2bc4b7c0ce2fde2339b184fa" />

    Cuesheet:

FILE "AFCD45 (Track 1).bin" BINARY
  TRACK 01 MODE1/2352
    INDEX 01 00:00:00
FILE "AFCD45 (Track 2).bin" BINARY
  TRACK 02 AUDIO
    INDEX 00 00:00:00
    INDEX 01 00:02:00

    Write Offset: -22

Common Disc Info:
    Title: Amiga Format Disc 46: December 1999
    Foreign Title (Non-latin): (OPTIONAL)
    Disc Number / Letter: (OPTIONAL)
    Disc Title: (OPTIONAL)
    System: Commodore Amiga
    Media Type: CD-ROM
    Category: Coverdiscs
    Region: UK
    Languages: English
    Disc Serial: AF/130/12/99

    Ringcode Information:
        Data Side Mastering Code (laser branded/etched): | TIB AF130/12/99 || 9100302 |    
        Data Side Mastering SID Code: IFPI L055
        Data Side Toolstamp or Mastering Code (engraved/stamped): (REQUIRED, IF EXISTS)
        Data Side Mould SID Code: IFPI 5H01
        Data Side Additional Mould: (REQUIRED, IF EXISTS)
        Label Side Mould SID Code: (REQUIRED, IF EXISTS)
        Label Side Additional Mould: 
    Barcode: (OPTIONAL)
    EXE/Build Date: (REQUIRED)
    Error Count: 0
    Comments: (OPTIONAL)
    Contents: (OPTIONAL)

Version and Editions:
    Version: (REQUIRED, IF EXISTS)
    Edition/Release: Original (VERIFY THIS)

Extras:
    Primary Volume Descriptor (PVD):

0320 : 00 00 00 00 00 00 00 00  00 00 00 00 00 31 39 39   .............199
0330 : 39 30 39 32 34 31 34 34  31 32 31 30 30 00 00 00   9092414412100...
0340 : 00 00 00 00 00 00 00 00  00 00 00 00 00 00 00 00   ................
0350 : 00 00 00 00 00 00 00 00  00 00 00 00 00 00 00 00   ................
0360 : 00 00 00 00 00 00 00 00  00 00 00 00 00 00 00 00   ................
0370 : 00 01 00 00 46 53 00 00  00 00 00 00 00 00 00 00   ....FS..........

Tracks and Write Offsets:
    DAT:

<rom name="AFCD46.bin" size="770985600" crc="b7b8bdb4" md5="14a41c23696e8ee21ab6a565f42d2125" sha1="36010d7dfa5849d71d92e7493af12ffd7134cd11" />

    Cuesheet:

FILE "AFCD46.bin" BINARY
  TRACK 01 MODE1/2352
    INDEX 01 00:00:00

    Write Offset: -22

Common Disc Info:
    Title: Amiga Format Disc 47: Christmas 1999
    Foreign Title (Non-latin): (OPTIONAL)
    Disc Number / Letter: (OPTIONAL)
    Disc Title: (OPTIONAL)
    System: Commodore Amiga
    Media Type: CD-ROM
    Category: Coverdiscs
    Region: UK
    Languages: English
    Disc Serial: AF/131/13/99

    Ringcode Information:
        Data Side Mastering Code (laser branded/etched): | TIB AF131/13/99 || 9110107 | 
        Data Side Mastering SID Code: IFPI L055
        Data Side Toolstamp or Mastering Code (engraved/stamped): IFPI 5H06
        Data Side Mould SID Code: (REQUIRED, IF EXISTS)
        Data Side Additional Mould: (REQUIRED, IF EXISTS)
        Label Side Mould SID Code: (REQUIRED, IF EXISTS)
        Label Side Additional Mould: 
    Barcode: (OPTIONAL)
    EXE/Build Date: (REQUIRED)
    Error Count: 0
    Comments: (OPTIONAL)
    Contents: (OPTIONAL)

Version and Editions:
    Version: (REQUIRED, IF EXISTS)
    Edition/Release: Original (VERIFY THIS)

Extras:
    Primary Volume Descriptor (PVD):

0320 : 00 00 00 00 00 00 00 00  00 00 00 00 00 31 39 39   .............199
0330 : 39 31 30 32 33 31 36 30  38 34 37 30 30 00 00 00   9102316084700...
0340 : 00 00 00 00 00 00 00 00  00 00 00 00 00 00 00 00   ................
0350 : 00 00 00 00 00 00 00 00  00 00 00 00 00 00 00 00   ................
0360 : 00 00 00 00 00 00 00 00  00 00 00 00 00 00 00 00   ................
0370 : 00 01 00 00 46 53 00 00  00 00 00 00 00 00 00 00   ....FS..........

Tracks and Write Offsets:
    DAT:

<rom name="AFCD47.bin" size="781360272" crc="fde73cf3" md5="f8642a12fafde2e290cff3f346f93743" sha1="9b9ff2f4dca96cd9e6c2d3061eb410afb3154325" />

    Cuesheet:

FILE "AFCD47.bin" BINARY
  TRACK 01 MODE1/2352
    INDEX 01 00:00:00

    Write Offset: -22

This a post for multiple discs, the files are all located here in individual folders: https://mega.nz/folder/ie423DxY#D8a1XUlA7lRtYlg3xEganw

Common Disc Info:
    Title: Amiga Format Disc 31: October 1998
    Foreign Title (Non-latin): (OPTIONAL)
    Disc Number / Letter: (OPTIONAL)
    Disc Title: (OPTIONAL)
    System: Commodore Amiga
    Media Type: CD-ROM
    Category: Coverdiscs
    Region: UK
    Languages: English
    Disc Serial: AF/115/10/98

    Ringcode Information:
        Data Side Mastering Code (laser branded/etched): AF/115/10/98    CD Systems UK    17158
        Data Side Mastering SID Code: IFPI LD11
        Data Side Toolstamp or Mastering Code (engraved/stamped): (REQUIRED, IF EXISTS)
        Data Side Mould SID Code: (REQUIRED, IF EXISTS)
        Data Side Additional Mould: (REQUIRED, IF EXISTS)
        Label Side Mould SID Code: (REQUIRED, IF EXISTS)
        Label Side Additional Mould: 
    Barcode: (OPTIONAL)
    EXE/Build Date: (REQUIRED)
    Error Count: 0
    Comments: (OPTIONAL)
    Contents: (OPTIONAL)

Version and Editions:
    Version: (REQUIRED, IF EXISTS)
    Edition/Release: Original (VERIFY THIS)

Extras:
    Primary Volume Descriptor (PVD):

0320 : 00 00 00 00 00 00 00 00  00 00 00 00 00 31 39 39   .............199
0330 : 38 30 38 30 34 31 32 32  31 32 34 30 30 00 00 00   8080412212400...
0340 : 00 00 00 00 00 00 00 00  00 00 00 00 00 00 00 00   ................
0350 : 00 00 00 00 00 00 00 00  00 00 00 00 00 00 00 00   ................
0360 : 00 00 00 00 00 00 00 00  00 00 00 00 00 00 00 00   ................
0370 : 00 01 00 00 46 53 00 00  54 4D 00 14 00 00 08 00   ....FS..TM......

Tracks and Write Offsets:
    DAT:

<rom name="AFCD31 (Track 1).bin" size="669160464" crc="892e10ff" md5="48a37299be7911deacbf713249a019b7" sha1="27b5c362cfe4e43811e4430cf08eb82657e55280" />
<rom name="AFCD31 (Track 2).bin" size="86579472" crc="e15bb067" md5="d3cd0ca0b1a2b808729db938da47c370" sha1="2a8c17920dd2d7995795350daaeb061ae8805846" />

    Cuesheet:

FILE "AFCD31 (Track 1).bin" BINARY
  TRACK 01 MODE1/2352
    INDEX 01 00:00:00
FILE "AFCD31 (Track 2).bin" BINARY
  TRACK 02 AUDIO
    INDEX 00 00:00:00
    INDEX 01 00:02:00

    Write Offset: -22

Common Disc Info:
    Title: Amiga Format Disc 32: November 1998
    Foreign Title (Non-latin): (OPTIONAL)
    Disc Number / Letter: (OPTIONAL)
    Disc Title: (OPTIONAL)
    System: Commodore Amiga
    Media Type: CD-ROM
    Category: Coverdiscs
    Region: UK
    Languages: English
    Disc Serial: AF/116/11/98

    Ringcode Information:
        Data Side Mastering Code (laser branded/etched): AF116/11/98    CD Systems UK    17548
        Data Side Mastering SID Code: IFPI LD11
        Data Side Toolstamp or Mastering Code (engraved/stamped): (REQUIRED, IF EXISTS)
        Data Side Mould SID Code: (REQUIRED, IF EXISTS)
        Data Side Additional Mould: (REQUIRED, IF EXISTS)
        Label Side Mould SID Code: (REQUIRED, IF EXISTS)
        Label Side Additional Mould: 
    Barcode: (OPTIONAL)
    EXE/Build Date: (REQUIRED)
    Error Count: 0
    Comments: (OPTIONAL)
    Contents: (OPTIONAL)

Version and Editions:
    Version: (REQUIRED, IF EXISTS)
    Edition/Release: Original (VERIFY THIS)

Extras:
    Primary Volume Descriptor (PVD):

0320 : 00 00 00 00 00 00 00 00  00 00 00 00 00 31 39 39   .............199
0330 : 38 30 39 30 33 31 32 34  31 30 37 30 30 00 00 00   8090312410700...
0340 : 00 00 00 00 00 00 00 00  00 00 00 00 00 00 00 00   ................
0350 : 00 00 00 00 00 00 00 00  00 00 00 00 00 00 00 00   ................
0360 : 00 00 00 00 00 00 00 00  00 00 00 00 00 00 00 00   ................
0370 : 00 01 00 00 46 53 00 00  54 4D 00 14 00 00 08 00   ....FS..TM......

Tracks and Write Offsets:
    DAT:

<rom name="AFCD32.bin" size="779123520" crc="ad74b422" md5="741060555f1c0964efe84790fbcb420e" sha1="21c5dd5d110448eaf47184da73b2143280457536" />

    Cuesheet:

FILE "AFCD32.bin" BINARY
  TRACK 01 MODE1/2352
    INDEX 01 00:00:00

    Write Offset: -22

Common Disc Info:
    Title: Amiga Format Disc 33: December 1998
    Foreign Title (Non-latin): (OPTIONAL)
    Disc Number / Letter: (OPTIONAL)
    Disc Title: (OPTIONAL)
    System: Commodore Amiga
    Media Type: CD-ROM
    Category: Coverdiscs
    Region: UK
    Languages: English
    Disc Serial: AF/117/12/98

    Ringcode Information:
        Data Side Mastering Code (laser branded/etched): 8100623 |    TIB B46390000    AF/117/12/98
        Data Side Mastering SID Code: IFPI L055
        Data Side Toolstamp or Mastering Code (engraved/stamped): IFPI 5H03
        Data Side Mould SID Code: (REQUIRED, IF EXISTS)
        Data Side Additional Mould: (REQUIRED, IF EXISTS)
        Label Side Mould SID Code: (REQUIRED, IF EXISTS)
        Label Side Additional Mould: 
    Barcode: (OPTIONAL)
    EXE/Build Date: (REQUIRED)
    Error Count: 0
    Comments: (OPTIONAL)
    Contents: (OPTIONAL)

Version and Editions:
    Version: (REQUIRED, IF EXISTS)
    Edition/Release: Original (VERIFY THIS)

Extras:
    Primary Volume Descriptor (PVD):

0320 : 00 00 00 00 00 00 00 00  00 00 00 00 00 31 39 39   .............199
0330 : 38 30 39 32 39 31 32 34  37 31 31 30 30 00 00 00   8092912471100...
0340 : 00 00 00 00 00 00 00 00  00 00 00 00 00 00 00 00   ................
0350 : 00 00 00 00 00 00 00 00  00 00 00 00 00 00 00 00   ................
0360 : 00 00 00 00 00 00 00 00  00 00 00 00 00 00 00 00   ................
0370 : 00 01 00 00 46 53 00 00  54 4D 00 14 00 00 08 00   ....FS..TM......

Tracks and Write Offsets:
    DAT:

<rom name="AFCD33.bin" size="773956176" crc="41bd4fce" md5="aa8c00a4dbc2883a02c714b6edd4f886" sha1="90622d6f8a1d94bcc2bb07c3949ba1812d0c956a" />

    Cuesheet:

FILE "AFCD33.bin" BINARY
  TRACK 01 MODE1/2352
    INDEX 01 00:00:00

    Write Offset: -22

Common Disc Info:
    Title: Amiga Format Disc 34: Christmas 1998
    Foreign Title (Non-latin): (OPTIONAL)
    Disc Number / Letter: (OPTIONAL)
    Disc Title: (OPTIONAL)
    System: Commodore Amiga
    Media Type: CD-ROM
    Category: Coverdiscs
    Region: UK
    Languages: English
    Disc Serial: AF/118/13/98

    Ringcode Information:
        Data Side Mastering Code (laser branded/etched): TIB AF/118/X/98
        Data Side Mastering SID Code: 13340/2    110398
        Data Side Toolstamp or Mastering Code (engraved/stamped): IFPI 5H02
        Data Side Mould SID Code: (REQUIRED, IF EXISTS)
        Data Side Additional Mould: (REQUIRED, IF EXISTS)
        Label Side Mould SID Code: (REQUIRED, IF EXISTS)
        Label Side Additional Mould: 
    Barcode: (OPTIONAL)
    EXE/Build Date: (REQUIRED)
    Error Count: 0
    Comments: (OPTIONAL)
    Contents: (OPTIONAL)

Version and Editions:
    Version: (REQUIRED, IF EXISTS)
    Edition/Release: Original (VERIFY THIS)

Extras:
    Primary Volume Descriptor (PVD):

0320 : 00 00 00 00 00 00 00 00  00 00 00 00 00 31 39 39   .............199
0330 : 38 31 30 32 37 31 38 31  38 32 37 30 30 00 00 00   8102718182700...
0340 : 00 00 00 00 00 00 00 00  00 00 00 00 00 00 00 00   ................
0350 : 00 00 00 00 00 00 00 00  00 00 00 00 00 00 00 00   ................
0360 : 00 00 00 00 00 00 00 00  00 00 00 00 00 00 00 00   ................
0370 : 00 01 00 00 46 53 00 00  54 4D 00 14 00 00 08 00   ....FS..TM......

Tracks and Write Offsets:
    DAT:

<rom name="AFCD34.bin" size="776221152" crc="0efbf006" md5="cad39a0b56a5577d33c2fd8b434d2d97" sha1="ea0ffc419ab71ac683bc0b57415187fdeb6a6b1b" />

    Cuesheet:

CATALOG 0000000000000
FILE "AFCD34.bin" BINARY
  TRACK 01 MODE1/2352
    INDEX 01 00:00:00

    Write Offset: 0

Common Disc Info:
    Title: Amiga Format Disc 36: February 1999
    Foreign Title (Non-latin): (OPTIONAL)
    Disc Number / Letter: (OPTIONAL)
    Disc Title: (OPTIONAL)
    System: Commodore Amiga
    Media Type: CD-ROM
    Category: Coverdiscs
    Region: UK
    Languages: English
    Disc Serial: AF/120/2/99

    Ringcode Information:
        Data Side Mastering Code (laser branded/etched): AAS0137 TIB AF/120/2/99 :
        Data Side Mastering SID Code: IFPI L122    IFPI L122
        Data Side Toolstamp or Mastering Code (engraved/stamped): 1:3
        Data Side Mould SID Code: (REQUIRED, IF EXISTS)
        Data Side Additional Mould: (REQUIRED, IF EXISTS)
        Label Side Mould SID Code: (REQUIRED, IF EXISTS)
        Label Side Additional Mould: 
    Barcode: (OPTIONAL)
    EXE/Build Date: (REQUIRED)
    Error Count: 0
    Comments: (OPTIONAL)
    Contents: (OPTIONAL)

Version and Editions:
    Version: (REQUIRED, IF EXISTS)
    Edition/Release: Original (VERIFY THIS)

Extras:
    Primary Volume Descriptor (PVD):

0320 : 00 00 00 00 00 00 00 00  00 00 00 00 00 31 39 39   .............199
0330 : 38 31 32 31 36 31 31 32  33 30 35 30 30 00 00 00   8121611230500...
0340 : 00 00 00 00 00 00 00 00  00 00 00 00 00 00 00 00   ................
0350 : 00 00 00 00 00 00 00 00  00 00 00 00 00 00 00 00   ................
0360 : 00 00 00 00 00 00 00 00  00 00 00 00 00 00 00 00   ................
0370 : 00 01 00 00 46 53 00 00  00 00 00 00 00 00 00 00   ....FS..........

Tracks and Write Offsets:
    DAT:

<rom name="AFCD36.bin" size="776994960" crc="b195b6bd" md5="03b16118867c6612f19d9774157223f9" sha1="03943cbc23ce841da28cc52e8400528cebbc6e56" />

    Cuesheet:

FILE "AFCD36.bin" BINARY
  TRACK 01 MODE1/2352
    INDEX 01 00:00:00

    Write Offset: -12

Common Disc Info:
    Title: Amiga Format Disc 37: March 1999
    Foreign Title (Non-latin): (OPTIONAL)
    Disc Number / Letter: (OPTIONAL)
    Disc Title: (OPTIONAL)
    System: Commodore Amiga
    Media Type: CD-ROM
    Category: Coverdiscs
    Region: UK
    Languages: English
    Disc Serial: AF/121/3/99

    Ringcode Information:
        Data Side Mastering Code (laser branded/etched): 9012917 | TIB AF/121/03/99
        Data Side Mastering SID Code: IFPI L055
        Data Side Toolstamp or Mastering Code (engraved/stamped): (REQUIRED, IF EXISTS)
        Data Side Mould SID Code: (REQUIRED, IF EXISTS)
        Data Side Additional Mould: (REQUIRED, IF EXISTS)
        Label Side Mould SID Code: (REQUIRED, IF EXISTS)
        Label Side Additional Mould: 
    Barcode: (OPTIONAL)
    EXE/Build Date: (REQUIRED)
    Error Count: 0
    Comments: (OPTIONAL)
    Contents: (OPTIONAL)

Version and Editions:
    Version: (REQUIRED, IF EXISTS)
    Edition/Release: Original (VERIFY THIS)

Extras:
    Primary Volume Descriptor (PVD):

0320 : 00 00 00 00 00 00 00 00  00 00 00 00 00 31 39 39   .............199
0330 : 39 30 31 31 38 31 38 32  30 30 32 30 30 00 00 00   9011818200200...
0340 : 00 00 00 00 00 00 00 00  00 00 00 00 00 00 00 00   ................
0350 : 00 00 00 00 00 00 00 00  00 00 00 00 00 00 00 00   ................
0360 : 00 00 00 00 00 00 00 00  00 00 00 00 00 00 00 00   ................
0370 : 00 01 00 00 46 53 00 00  00 00 00 00 00 00 00 00   ....FS..........

Tracks and Write Offsets:
    DAT:

<rom name="AFCD37 (Track 1).bin" size="643396656" crc="15df82f1" md5="82f60b81db9352785f16934257f7ecda" sha1="eb7e1f0ef1c0bce497d67a6f3980d41160e32ac2" />
<rom name="AFCD37 (Track 2).bin" size="59733744" crc="2f4b29dd" md5="ed31a634d0da5c823d70b82c7b81818e" sha1="4f33933044af09b96bde3a547af891b4252ee714" />
<rom name="AFCD37 (Track 3).bin" size="50749104" crc="f19fb6eb" md5="203016ea09b8af26b6fa445e34e4adcd" sha1="0c8058350ffac9220c47107a4063318f86ca7439" />

    Cuesheet:

FILE "AFCD37 (Track 1).bin" BINARY
  TRACK 01 MODE1/2352
    INDEX 01 00:00:00
FILE "AFCD37 (Track 2).bin" BINARY
  TRACK 02 AUDIO
    INDEX 00 00:00:00
    INDEX 01 00:02:00
FILE "AFCD37 (Track 3).bin" BINARY
  TRACK 03 AUDIO
    INDEX 00 00:00:00
    INDEX 01 00:01:74

    Write Offset: -22

Common Disc Info:
    Title: Amiga Format Disc 38: April 1999
    Foreign Title (Non-latin): (OPTIONAL)
    Disc Number / Letter: (OPTIONAL)
    Disc Title: (OPTIONAL)
    System: Commodore Amiga
    Media Type: CD-ROM
    Category: Coverdiscs
    Region: UK
    Languages: English
    Disc Serial: AF/122/4/99

    Ringcode Information:
        Data Side Mastering Code (laser branded/etched): | TIB AF/122/04/99    9022415
        Data Side Mastering SID Code: IFPI L055
        Data Side Toolstamp or Mastering Code (engraved/stamped): IFPI 5H05
        Data Side Mould SID Code: (REQUIRED, IF EXISTS)
        Data Side Additional Mould: (REQUIRED, IF EXISTS)
        Label Side Mould SID Code: (REQUIRED, IF EXISTS)
        Label Side Additional Mould: 
    Barcode: (OPTIONAL)
    EXE/Build Date: (REQUIRED)
    Error Count: 0
    Comments: (OPTIONAL)
    Contents: (OPTIONAL)

Version and Editions:
    Version: (REQUIRED, IF EXISTS)
    Edition/Release: Original (VERIFY THIS)

Extras:
    Primary Volume Descriptor (PVD):

0320 : 00 00 00 00 00 00 00 00  00 00 00 00 00 31 39 39   .............199
0330 : 39 30 32 31 36 31 32 33  31 32 34 30 30 00 00 00   9021612312400...
0340 : 00 00 00 00 00 00 00 00  00 00 00 00 00 00 00 00   ................
0350 : 00 00 00 00 00 00 00 00  00 00 00 00 00 00 00 00   ................
0360 : 00 00 00 00 00 00 00 00  00 00 00 00 00 00 00 00   ................
0370 : 00 01 00 00 46 53 00 00  00 00 00 00 00 00 00 00   ....FS..........

Tracks and Write Offsets:
    DAT:

<rom name="AFCD38 (Track 1).bin" size="673878576" crc="69c1bb57" md5="e50e0f381e8bcb71b97ac0d7fb84c6e6" sha1="110f8a621e390cbf47cccc697b478c7b75c4c621" />
<rom name="AFCD38 (Track 2).bin" size="10346448" crc="55a0b8d5" md5="3f0b31b27bf47ae585bd3c4078e4cb11" sha1="36a44178cf346042043df92acdcec29176132f7a" />
<rom name="AFCD38 (Track 3).bin" size="57275904" crc="49b6ab87" md5="ae0dea443566c049c49de9ed035546fb" sha1="b1d29c35ad994bdf92b0c3923aa19a1d5710e56e" />

    Cuesheet:

FILE "AFCD38 (Track 1).bin" BINARY
  TRACK 01 MODE1/2352
    INDEX 01 00:00:00
FILE "AFCD38 (Track 2).bin" BINARY
  TRACK 02 AUDIO
    INDEX 00 00:00:00
    INDEX 01 00:02:00
FILE "AFCD38 (Track 3).bin" BINARY
  TRACK 03 AUDIO
    INDEX 00 00:00:00
    INDEX 01 00:02:00

    Write Offset: -22

This a post for multiple discs, the files are all located here in individual folders: https://mega.nz/folder/ie423DxY#D8a1XUlA7lRtYlg3xEganw

Common Disc Info:
    Title: Amiga Format Disc 21: Christmas 1997
    Foreign Title (Non-latin): (OPTIONAL)
    Disc Number / Letter: (OPTIONAL)
    Disc Title: (OPTIONAL)
    System: Commodore Amiga
    Media Type: CD-ROM
    Category: Coverdiscs
    Region: UK
    Languages: English
    Disc Serial: AF/105/13/97

    Ringcode Information:
        Data Side Mastering Code (laser branded/etched): AF105/13/97    CD Systems UK    12617
        Data Side Mastering SID Code: (REQUIRED, IF EXISTS)
        Data Side Toolstamp or Mastering Code (engraved/stamped): (REQUIRED, IF EXISTS)
        Data Side Mould SID Code: (REQUIRED, IF EXISTS)
        Data Side Additional Mould: (REQUIRED, IF EXISTS)
        Label Side Mould SID Code: (REQUIRED, IF EXISTS)
        Label Side Additional Mould: 
    Barcode: (OPTIONAL)
    EXE/Build Date: (REQUIRED)
    Error Count: 0
    Comments: (OPTIONAL)
    Contents: (OPTIONAL)

Version and Editions:
    Version: (REQUIRED, IF EXISTS)
    Edition/Release: Original (VERIFY THIS)

Extras:
    Primary Volume Descriptor (PVD):

0320 : 00 00 00 00 00 00 00 00  00 00 00 00 00 31 39 39   .............199
0330 : 37 31 30 32 38 31 39 30  30 31 32 30 30 00 00 00   7102819001200...
0340 : 00 00 00 00 00 00 00 00  00 00 00 00 00 00 00 00   ................
0350 : 00 00 00 00 00 00 00 00  00 00 00 00 00 00 00 00   ................
0360 : 00 00 00 00 00 00 00 00  00 00 00 00 00 00 00 00   ................
0370 : 00 01 00 00 46 53 00 00  54 4D 00 14 00 00 08 00   ....FS..TM......

Tracks and Write Offsets:
    DAT:

<rom name="AFCD21.bin" size="780915744" crc="9a836357" md5="f3f20b4f19cf903056fdad8ad3969119" sha1="2db2eee92803307b1066e1fc6b0275665f77d948" />

    Cuesheet:

FILE "AFCD21.bin" BINARY
  TRACK 01 MODE1/2352
    INDEX 01 00:00:00

    Write Offset: -22

Common Disc Info:
    Title: Amiga Format Disc 22: January 1998
    Foreign Title (Non-latin): (OPTIONAL)
    Disc Number / Letter: (OPTIONAL)
    Disc Title: (OPTIONAL)
    System: Commodore Amiga
    Media Type: CD-ROM
    Category: Coverdiscs
    Region: UK
    Languages: English
    Disc Serial: AF/106/1/98

    Ringcode Information:
        Data Side Mastering Code (laser branded/etched): AF106/1/98    CD Systems UK    13084
        Data Side Mastering SID Code: (REQUIRED, IF EXISTS)
        Data Side Toolstamp or Mastering Code (engraved/stamped): (REQUIRED, IF EXISTS)
        Data Side Mould SID Code: (REQUIRED, IF EXISTS)
        Data Side Additional Mould: (REQUIRED, IF EXISTS)
        Label Side Mould SID Code: (REQUIRED, IF EXISTS)
        Label Side Additional Mould: 
    Barcode: (OPTIONAL)
    EXE/Build Date: (REQUIRED)
    Error Count: 0
    Comments: (OPTIONAL)
    Contents: (OPTIONAL)

Version and Editions:
    Version: (REQUIRED, IF EXISTS)
    Edition/Release: Original (VERIFY THIS)

Extras:
    Primary Volume Descriptor (PVD):

0320 : 00 00 00 00 00 00 00 00  00 00 00 00 00 31 39 39   .............199
0330 : 37 31 32 30 34 31 33 31  36 30 30 30 30 00 00 00   7120413160000...
0340 : 00 00 00 00 00 00 00 00  00 00 00 00 00 00 00 00   ................
0350 : 00 00 00 00 00 00 00 00  00 00 00 00 00 00 00 00   ................
0360 : 00 00 00 00 00 00 00 00  00 00 00 00 00 00 00 00   ................
0370 : 00 01 00 00 46 53 00 00  54 4D 00 14 00 00 08 00   ....FS..TM......

Tracks and Write Offsets:
    DAT:

<rom name="Amiga Format Disc 22 January 1998.bin" size="782035296" crc="d4251a7a" md5="a88c989b1d3b71b22b308f6dd8eee4d5" sha1="021ad0fb43f375e866cb95d1a79b9ad7fd6a7896" />

    Cuesheet:

FILE "Amiga Format Disc 22 January 1998.bin" BINARY
  TRACK 01 MODE1/2352
    INDEX 01 00:00:00

    Write Offset: -22

Common Disc Info:
    Title: Amiga Format Disc 24: March 1998
    Foreign Title (Non-latin): (OPTIONAL)
    Disc Number / Letter: (OPTIONAL)
    Disc Title: (OPTIONAL)
    System: Commodore Amiga
    Media Type: CD-ROM
    Category: Coverdiscs
    Region: UK
    Languages: English
    Disc Serial: AF/108/3/98

    Ringcode Information:
        Data Side Mastering Code (laser branded/etched): AF108/3/98    CD Systems UK    13984
        Data Side Mastering SID Code: IFPI 5Q03
        Data Side Toolstamp or Mastering Code (engraved/stamped): (REQUIRED, IF EXISTS)
        Data Side Mould SID Code: (REQUIRED, IF EXISTS)
        Data Side Additional Mould: (REQUIRED, IF EXISTS)
        Label Side Mould SID Code: (REQUIRED, IF EXISTS)
        Label Side Additional Mould: 
    Barcode: (OPTIONAL)
    EXE/Build Date: (REQUIRED)
    Error Count: 0
    Comments: (OPTIONAL)
    Contents: (OPTIONAL)

Version and Editions:
    Version: (REQUIRED, IF EXISTS)
    Edition/Release: Original (VERIFY THIS)

Extras:
    Primary Volume Descriptor (PVD):

0320 : 00 00 00 00 00 00 00 00  00 00 00 00 00 31 39 39   .............199
0330 : 38 30 31 32 36 31 37 32  32 30 37 30 30 00 00 00   8012617220700...
0340 : 00 00 00 00 00 00 00 00  00 00 00 00 00 00 00 00   ................
0350 : 00 00 00 00 00 00 00 00  00 00 00 00 00 00 00 00   ................
0360 : 00 00 00 00 00 00 00 00  00 00 00 00 00 00 00 00   ................
0370 : 00 01 00 00 46 53 00 00  54 4D 00 14 00 00 08 00   ....FS..TM......

Tracks and Write Offsets:
    DAT:

<rom name="AFCD24.bin" size="769729632" crc="01b0e323" md5="d4590cd069807421e23e7817c33b2cc3" sha1="9222722627c7718436bc89287dcad9cbb769ff75" />

    Cuesheet:

FILE "AFCD24.bin" BINARY
  TRACK 01 MODE1/2352
    INDEX 01 00:00:00

    Write Offset: -22

Common Disc Info:
    Title: Amiga Format Disc 25: April 1998
    Foreign Title (Non-latin): (OPTIONAL)
    Disc Number / Letter: (OPTIONAL)
    Disc Title: (OPTIONAL)
    System: Commodore Amiga
    Media Type: CD-ROM
    Category: Coverdiscs
    Region: UK
    Languages: English
    Disc Serial: AF/109/4/98

    Ringcode Information:
        Data Side Mastering Code (laser branded/etched): AF109/4/98/A    CD Systems UK    14363
        Data Side Mastering SID Code: (REQUIRED, IF EXISTS)
        Data Side Toolstamp or Mastering Code (engraved/stamped): (REQUIRED, IF EXISTS)
        Data Side Mould SID Code: (REQUIRED, IF EXISTS)
        Data Side Additional Mould: (REQUIRED, IF EXISTS)
        Label Side Mould SID Code: (REQUIRED, IF EXISTS)
        Label Side Additional Mould: 
    Barcode: (OPTIONAL)
    EXE/Build Date: (REQUIRED)
    Error Count: 0
    Comments: (OPTIONAL)
    Contents: (OPTIONAL)

Version and Editions:
    Version: (REQUIRED, IF EXISTS)
    Edition/Release: Original (VERIFY THIS)

Extras:
    Primary Volume Descriptor (PVD):

0320 : 00 00 00 00 00 00 00 00  00 00 00 00 00 31 39 39   .............199
0330 : 38 30 32 31 38 31 30 33  37 31 35 30 30 00 00 00   8021810371500...
0340 : 00 00 00 00 00 00 00 00  00 00 00 00 00 00 00 00   ................
0350 : 00 00 00 00 00 00 00 00  00 00 00 00 00 00 00 00   ................
0360 : 00 00 00 00 00 00 00 00  00 00 00 00 00 00 00 00   ................
0370 : 00 01 00 00 46 53 00 00  54 4D 00 14 00 00 08 00   ....FS..TM......

Tracks and Write Offsets:
    DAT:

<rom name="AFCD25.bin" size="774384240" crc="13433ce2" md5="c4266673b26f0a017914b256a9c4709d" sha1="fbb992460709abd0a66338247db0d23bf3c7090e" />

    Cuesheet:

FILE "AFCD25.bin" BINARY
  TRACK 01 MODE1/2352
    INDEX 01 00:00:00

    Write Offset: -22

Common Disc Info:
    Title: Amiga Format Disc 26: May 1998
    Foreign Title (Non-latin): (OPTIONAL)
    Disc Number / Letter: (OPTIONAL)
    Disc Title: (OPTIONAL)
    System: Commodore Amiga
    Media Type: CD-ROM
    Category: Coverdiscs
    Region: UK
    Languages: English
    Disc Serial: AF/110/5/98

    Ringcode Information:
        Data Side Mastering Code (laser branded/etched): AF110/MAY/98    CD Systems UK    14821
        Data Side Mastering SID Code: IFPI 5Q03
        Data Side Toolstamp or Mastering Code (engraved/stamped): (REQUIRED, IF EXISTS)
        Data Side Mould SID Code: (REQUIRED, IF EXISTS)
        Data Side Additional Mould: (REQUIRED, IF EXISTS)
        Label Side Mould SID Code: (REQUIRED, IF EXISTS)
        Label Side Additional Mould: 
    Barcode: (OPTIONAL)
    EXE/Build Date: (REQUIRED)
    Error Count: 0
    Comments: (OPTIONAL)
    Contents: (OPTIONAL)

Version and Editions:
    Version: (REQUIRED, IF EXISTS)
    Edition/Release: Original (VERIFY THIS)

Extras:
    Primary Volume Descriptor (PVD):

0320 : 00 00 00 00 00 00 00 00  00 00 00 00 00 31 39 39   .............199
0330 : 38 30 33 31 39 32 31 32  32 34 38 30 30 00 00 00   8031921224800...
0340 : 00 00 00 00 00 00 00 00  00 00 00 00 00 00 00 00   ................
0350 : 00 00 00 00 00 00 00 00  00 00 00 00 00 00 00 00   ................
0360 : 00 00 00 00 00 00 00 00  00 00 00 00 00 00 00 00   ................
0370 : 00 01 00 00 46 53 00 00  54 4D 00 14 00 00 08 00   ....FS..TM......

Tracks and Write Offsets:
    DAT:

<rom name="AFCD26.bin" size="773078880" crc="9a1f93c8" md5="751f5c2cef8ea933af46b788bbe3961e" sha1="85d212b21af3435e0c90d1337af52b3162677304" />

    Cuesheet:

FILE "AFCD26.bin" BINARY
  TRACK 01 MODE1/2352
    INDEX 01 00:00:00

    Write Offset: -22

Common Disc Info:
    Title: Amiga Format Disc 27: June 1998
    Foreign Title (Non-latin): (OPTIONAL)
    Disc Number / Letter: (OPTIONAL)
    Disc Title: (OPTIONAL)
    System: Commodore Amiga
    Media Type: CD-ROM
    Category: Coverdiscs
    Region: UK
    Languages: English
    Disc Serial: AF/111/6/98

    Ringcode Information:
        Data Side Mastering Code (laser branded/etched): AF111/6/98/A    CD Systems UK    15367
        Data Side Mastering SID Code: (REQUIRED, IF EXISTS)
        Data Side Toolstamp or Mastering Code (engraved/stamped): (REQUIRED, IF EXISTS)
        Data Side Mould SID Code: (REQUIRED, IF EXISTS)
        Data Side Additional Mould: (REQUIRED, IF EXISTS)
        Label Side Mould SID Code: (REQUIRED, IF EXISTS)
        Label Side Additional Mould: 
    Barcode: (OPTIONAL)
    EXE/Build Date: (REQUIRED)
    Error Count: 5
    Comments: (OPTIONAL)
    Contents: (OPTIONAL)

Version and Editions:
    Version: (REQUIRED, IF EXISTS)
    Edition/Release: Original (VERIFY THIS)

Extras:
    Primary Volume Descriptor (PVD):

0320 : 00 00 00 00 00 00 00 00  00 00 00 00 00 31 39 39   .............199
0330 : 38 30 34 31 37 31 37 33  38 31 34 30 30 00 00 00   8041717381400...
0340 : 00 00 00 00 00 00 00 00  00 00 00 00 00 00 00 00   ................
0350 : 00 00 00 00 00 00 00 00  00 00 00 00 00 00 00 00   ................
0360 : 00 00 00 00 00 00 00 00  00 00 00 00 00 00 00 00   ................
0370 : 00 01 00 00 46 53 00 00  54 4D 00 14 00 00 08 00   ....FS..TM......

Tracks and Write Offsets:
    DAT:

<rom name="AFCD27.bin" size="768149088" crc="0eb947d8" md5="51e0be4a6b49f4b844dc8d30aff4d68b" sha1="e18f14adab30c7c0df9f85957de016795e5b96d0" />

    Cuesheet:

FILE "AFCD27.bin" BINARY
  TRACK 01 MODE1/2352
    INDEX 01 00:00:00

    Write Offset: -22

This a post for multiple discs, the files are all located here in individual folders: https://mega.nz/folder/ie423DxY#D8a1XUlA7lRtYlg3xEganw

Common Disc Info:
    Title: Amiga Format Disc 17: September 1997
    Foreign Title (Non-latin): (OPTIONAL)
    Disc Number / Letter: (OPTIONAL)
    Disc Title: (OPTIONAL)
    System: Commodore Amiga
    Media Type: CD-ROM
    Category: Coverdiscs
    Region: UK
    Languages: English
    Disc Serial: AF/101/9/97

    Ringcode Information:
        Data Side Mastering Code (laser branded/etched): AMIGA FORMAT CD17    CD Systems UK    10830
        Data Side Mastering SID Code: (REQUIRED, IF EXISTS)
        Data Side Toolstamp or Mastering Code (engraved/stamped): (REQUIRED, IF EXISTS)
        Data Side Mould SID Code: (REQUIRED, IF EXISTS)
        Data Side Additional Mould: (REQUIRED, IF EXISTS)
        Label Side Mould SID Code: (REQUIRED, IF EXISTS)
        Label Side Additional Mould: 
    Barcode: (OPTIONAL)
    EXE/Build Date: (REQUIRED)
    Error Count: 0
    Comments: (OPTIONAL)
    Contents: (OPTIONAL)

Version and Editions:
    Version: (REQUIRED, IF EXISTS)
    Edition/Release: Original (VERIFY THIS)

Extras:
    Primary Volume Descriptor (PVD):

0320 : 20 20 20 20 20 20 20 20  20 20 20 20 20 31 39 39                199
0330 : 37 30 37 30 39 31 33 35  35 32 33 30 30 00 31 39   7070913552300.19
0340 : 37 38 30 31 30 31 30 30  30 30 30 30 30 30 00 31   78010100000000.1
0350 : 39 37 38 30 31 30 31 30  30 30 30 30 30 30 30 00   978010100000000.
0360 : 31 39 37 38 30 31 30 31  30 30 30 30 30 30 30 30   1978010100000000
0370 : 00 01 00 00 46 53 00 00  54 4D 00 14 00 00 08 00   ....FS..TM......

Tracks and Write Offsets:
    DAT:

<rom name="AFCD17.bin" size="691859616" crc="e69ecdbb" md5="1e349351dced5198c1e12fa033677534" sha1="f12ab8bb18bbdfbe9ef9999366b497e321a2076d" />

    Cuesheet:

FILE "AFCD17.bin" BINARY
  TRACK 01 MODE1/2352
    INDEX 01 00:00:00

    Write Offset: -22
Common Disc Info:
    Title: Amiga Format Disc 18: October 1997
    Foreign Title (Non-latin): (OPTIONAL)
    Disc Number / Letter: (OPTIONAL)
    Disc Title: (OPTIONAL)
    System: Commodore Amiga
    Media Type: CD-ROM
    Category: Coverdiscs
    Region: UK
    Languages: English
    Disc Serial: AF/102/10/97

    Ringcode Information:
        Data Side Mastering Code (laser branded/etched): AF/102/10/97    CD Systems UK    11252
        Data Side Mastering SID Code: (REQUIRED, IF EXISTS)
        Data Side Toolstamp or Mastering Code (engraved/stamped): (REQUIRED, IF EXISTS)
        Data Side Mould SID Code: (REQUIRED, IF EXISTS)
        Data Side Additional Mould: (REQUIRED, IF EXISTS)
        Label Side Mould SID Code: (REQUIRED, IF EXISTS)
        Label Side Additional Mould: 
    Barcode: (OPTIONAL)
    EXE/Build Date: (REQUIRED)
    Error Count: 0
    Comments: (OPTIONAL)
    Contents: (OPTIONAL)

Version and Editions:
    Version: (REQUIRED, IF EXISTS)
    Edition/Release: Original (VERIFY THIS)

Extras:
    Primary Volume Descriptor (PVD):

0320 : 00 00 00 00 00 00 00 00  00 00 00 00 00 31 39 39   .............199
0330 : 37 30 38 31 32 31 32 34  32 35 35 30 30 00 00 00   7081212425500...
0340 : 00 00 00 00 00 00 00 00  00 00 00 00 00 00 00 00   ................
0350 : 00 00 00 00 00 00 00 00  00 00 00 00 00 00 00 00   ................
0360 : 00 00 00 00 00 00 00 00  00 00 00 00 00 00 00 00   ................
0370 : 00 01 00 00 46 53 00 00  54 4D 00 14 00 00 08 00   ....FS..TM......

Tracks and Write Offsets:
    DAT:

<rom name="Amiga Format Disc 18 October 1997.bin" size="742366464" crc="89f7ed30" md5="f09306f4f099e6c474adb09063ce1993" sha1="fbb5a6159d03c91bcd569358a841cfbb86523ddd" />

    Cuesheet:

FILE "Amiga Format Disc 18 October 1997.bin" BINARY
  TRACK 01 MODE1/2352
    INDEX 01 00:00:00

    Write Offset: -22

http://redump.org/disc/71743/

https://mega.nz/folder/rSJVhaII#UWECG4Z0p6zNDdC4nQciIw

Common Disc Info:
    Title: Amiga Format Disc 8: Christmas 1996
    Foreign Title (Non-latin): (OPTIONAL)
    Disc Number / Letter: (OPTIONAL)
    Disc Title: (OPTIONAL)
    System: Commodore Amiga
    Media Type: CD-ROM
    Category: Coverdiscs
    Region: UK
    Languages: English
    Disc Serial: AF92 13 96

    Ringcode Information:
        Data Side Mastering Code (laser branded/etched): 83170 AF921396
        Data Side Mastering SID Code: IFPI L041
        Data Side Toolstamp or Mastering Code (engraved/stamped): 1:1:1
        Data Side Mould SID Code: (REQUIRED, IF EXISTS)
        Data Side Additional Mould: (REQUIRED, IF EXISTS)
        Label Side Mould SID Code: (REQUIRED, IF EXISTS)
        Label Side Additional Mould: 
    Barcode: (OPTIONAL)
    EXE/Build Date: (REQUIRED)
    Error Count: 0
    Comments: (OPTIONAL)
    Contents: (OPTIONAL)

Version and Editions:
    Version: (REQUIRED, IF EXISTS)
    Edition/Release: Original (VERIFY THIS)

Extras:
    Primary Volume Descriptor (PVD):

0320 : 20 20 20 20 20 20 20 20  20 20 20 20 20 31 39 39                199
0330 : 36 31 31 31 33 30 39 34  38 35 38 30 30 00 31 39   6111309485800.19
0340 : 37 38 30 31 30 31 30 30  30 30 30 30 30 30 00 31   78010100000000.1
0350 : 39 37 38 30 31 30 31 30  30 30 30 30 30 30 30 00   978010100000000.
0360 : 31 39 37 38 30 31 30 31  30 30 30 30 30 30 30 30   1978010100000000
0370 : 00 01 00 00 46 53 00 00  54 4D 00 14 00 00 08 00   ....FS..TM......

Tracks and Write Offsets:
    DAT:

<rom name="Amiga Format Disc 8 Christmas 1996.bin" size="622616736" crc="441cf120" md5="b566c0984be386ef39cd65d2331c5439" sha1="0043c8b775477199daa623e81da326e6f879d121" />

    Cuesheet:

FILE "Amiga Format Disc 8 Christmas 1996.bin" BINARY
  TRACK 01 MODE1/2352
    INDEX 01 00:00:00

    Write Offset: -22

http://redump.org/disc/77204/

https://mega.nz/folder/eTRjUC7J#bO9nQ8T0qu3mnIjLpBgU3w

Common Disc Info:
    Title: Amiga Format Disc 6: November 1996
    Foreign Title (Non-latin): (OPTIONAL)
    Disc Number / Letter: (OPTIONAL)
    Disc Title: (OPTIONAL)
    System: Commodore Amiga
    Media Type: CD-ROM
    Category: Coverdiscs
    Region: UK
    Languages: English
    Disc Serial: AF90 11 96

    Ringcode Information:
        Data Side Mastering Code (laser branded/etched): 82860 AF901196
        Data Side Mastering SID Code: (REQUIRED, IF EXISTS)
        Data Side Toolstamp or Mastering Code (engraved/stamped): 1:1:3
        Data Side Mould SID Code: (REQUIRED, IF EXISTS)
        Data Side Additional Mould: (REQUIRED, IF EXISTS)
        Label Side Mould SID Code: (REQUIRED, IF EXISTS)
        Label Side Additional Mould: 
    Barcode: (OPTIONAL)
    EXE/Build Date: (REQUIRED)
    Error Count: 0
    Comments: (OPTIONAL)
    Contents: (OPTIONAL)

Version and Editions:
    Version: (REQUIRED, IF EXISTS)
    Edition/Release: Original (VERIFY THIS)

Extras:
    Primary Volume Descriptor (PVD):

0320 : 20 20 20 20 20 20 20 20  20 20 20 20 20 31 39 39                199
0330 : 36 30 39 31 34 31 33 35  36 30 38 30 30 00 31 39   6091413560800.19
0340 : 39 36 30 39 31 34 31 34  30 32 30 30 30 30 00 31   96091414020000.1
0350 : 39 37 38 30 31 30 31 30  30 30 30 30 30 30 30 00   978010100000000.
0360 : 31 39 39 36 30 39 31 31  30 39 35 32 30 30 30 30   1996091109520000
0370 : 00 01 00 00 46 53 00 00  54 4D 00 14 00 00 08 00   ....FS..TM......

Tracks and Write Offsets:
    DAT:

<rom name="Amiga Format Disc 6 November 1996.bin" size="723378768" crc="11e0ae51" md5="bc31b35225381ee3f6c5c16997326386" sha1="4947c4dbf3a375df458831c71305e13d59f7d7d9" />

    Cuesheet:

CATALOG 0000000000000
FILE "Amiga Format Disc 6 November 1996.bin" BINARY
  TRACK 01 MODE1/2352
    INDEX 01 00:00:00

    Write Offset: 0

https://mega.nz/folder/qHRFXQaT#cQnbosbg8vt_VCGzDcUbHA


Common Disc Info:
    Title: Amiga Format Disc 15: July 1997
    Foreign Title (Non-latin): (OPTIONAL)
    Disc Number / Letter: (OPTIONAL)
    Disc Title: (OPTIONAL)
    System: Commodore Amiga
    Media Type: CD-ROM
    Category: Coverdiscs
    Region: UK
    Languages: English
    Disc Serial: AF99 7 97

    Ringcode Information:
        Data Side Mastering Code (laser branded/etched): AAA1427 CDR02767 PC WISE
        Data Side Mastering SID Code: IFPI L122
        Data Side Toolstamp or Mastering Code (engraved/stamped): 1:2
        Data Side Mould SID Code: (REQUIRED, IF EXISTS)
        Data Side Additional Mould: (REQUIRED, IF EXISTS)
        Label Side Mould SID Code: (REQUIRED, IF EXISTS)
        Label Side Additional Mould: 
    Barcode: (OPTIONAL)
    EXE/Build Date: (REQUIRED)
    Error Count: 0
    Comments: (OPTIONAL)
    Contents: (OPTIONAL)

Version and Editions:
    Version: (REQUIRED, IF EXISTS)
    Edition/Release: Original (VERIFY THIS)

Extras:
    Primary Volume Descriptor (PVD):

0320 : 20 20 20 20 20 20 20 20  20 20 20 20 20 31 39 39                199
0330 : 37 30 35 32 31 31 31 32  33 30 35 30 30 00 31 39   7052111230500.19
0340 : 37 38 30 31 30 31 30 30  30 30 30 30 30 30 00 31   78010100000000.1
0350 : 39 37 38 30 31 30 31 30  30 30 30 30 30 30 30 00   978010100000000.
0360 : 31 39 37 38 30 31 30 31  30 30 30 30 30 30 30 30   1978010100000000
0370 : 00 01 00 00 46 53 00 00  54 4D 00 14 00 00 08 00   ....FS..TM......

Tracks and Write Offsets:
    DAT:

<rom name="AFCD15.bin" size="776082384" crc="10da7f4a" md5="a8fbb848fd0aed790ac392b9d33c8703" sha1="7375694fd1c1d089769d48446714dc9a6a270dd7" />

    Cuesheet:

CATALOG 0000000000000
FILE "AFCD15.bin" BINARY
  TRACK 01 MODE1/2352
    INDEX 01 00:00:00

    Write Offset: 0

https://mega.nz/folder/qGRnlaqb#AwADfgq9W8EIQMgd334eFA


Common Disc Info:
    Title: Amiga Format Disc 9: January 1997
    Foreign Title (Non-latin): (OPTIONAL)
    Disc Number / Letter: (OPTIONAL)
    Disc Title: (OPTIONAL)
    System: Commodore Amiga
    Media Type: CD-ROM
    Category: Coverdiscs
    Region: UK
    Languages: English
    Disc Serial: AF93 1 97

    Ringcode Information:
        Data Side Mastering Code (laser branded/etched): 83233    AF930197-1    
        Data Side Mastering SID Code: IFPI L041
        Data Side Toolstamp or Mastering Code (engraved/stamped): 1:1:4
        Data Side Mould SID Code: (REQUIRED, IF EXISTS)
        Data Side Additional Mould: (REQUIRED, IF EXISTS)
        Label Side Mould SID Code: (REQUIRED, IF EXISTS)
        Label Side Additional Mould: 
    Barcode: (OPTIONAL)
    EXE/Build Date: (REQUIRED)
    Error Count: 0
    Comments: (OPTIONAL)
    Contents: (OPTIONAL)

Version and Editions:
    Version: (REQUIRED, IF EXISTS)
    Edition/Release: Original (VERIFY THIS)

Extras:
    Primary Volume Descriptor (PVD):

0320 : 20 20 20 20 20 20 20 20  20 20 20 20 20 31 39 39                199
0330 : 36 31 31 32 39 31 33 33  31 35 38 30 30 00 31 39   6112913315800.19
0340 : 37 38 30 31 30 31 30 30  30 30 30 30 30 30 00 31   78010100000000.1
0350 : 39 37 38 30 31 30 31 30  30 30 30 30 30 30 30 00   978010100000000.
0360 : 31 39 37 38 30 31 30 31  30 30 30 30 30 30 30 30   1978010100000000
0370 : 00 01 00 00 46 53 00 00  54 4D 00 14 00 00 08 00   ....FS..TM......

Tracks and Write Offsets:
    DAT:

<rom name="Amiga Format Disc 9 January 1997.bin" size="693642432" crc="8cd64dfb" md5="316290b1e6bffab7999792c2f2fe2f03" sha1="70893aa10a755cee9a915cc6b968eb16cf0885de" />

    Cuesheet:

FILE "Amiga Format Disc 9 January 1997.bin" BINARY
  TRACK 01 MODE1/2352
    INDEX 01 00:00:00

    Write Offset: -22

whoops this should have been in verifications, have moved.

whoops this should have been in verifications, have moved.

https://mega.nz/folder/zaZjmSRT#kCXAD9awwR8cDUTnS8k-iw

Common Disc Info:
    Title: Amiga Format Disc 4: September 1996
    Foreign Title (Non-latin): (OPTIONAL)
    Disc Number / Letter: (OPTIONAL)
    Disc Title: (OPTIONAL)
    System: Commodore Amiga
    Media Type: CD-ROM
    Category: Coverdiscs
    Region: UK
    Languages: English
    Disc Serial: AF88 9 96

    Ringcode Information:
        Data Side Mastering Code (laser branded/etched): 82615 AF88996
        Data Side Mastering SID Code: IFPI l042
        Data Side Toolstamp or Mastering Code (engraved/stamped): 1:1:1
        Data Side Mould SID Code: (REQUIRED, IF EXISTS)
        Data Side Additional Mould: (REQUIRED, IF EXISTS)
        Label Side Mould SID Code: (REQUIRED, IF EXISTS)
        Label Side Additional Mould: 
    Barcode: (OPTIONAL)
    EXE/Build Date: (REQUIRED)
    Error Count: 0
    Comments: (OPTIONAL)
    Contents: (OPTIONAL)

Version and Editions:
    Version: (REQUIRED, IF EXISTS)
    Edition/Release: Original (VERIFY THIS)

Extras:
    Primary Volume Descriptor (PVD):

0320 : 20 20 20 20 20 20 20 20  20 20 20 20 20 31 39 39                199
0330 : 36 30 37 31 36 31 35 34  36 32 35 30 30 00 31 39   6071615462500.19
0340 : 39 36 30 37 31 32 31 34  35 33 30 30 30 30 00 31   96071214530000.1
0350 : 39 39 39 30 37 31 37 30  39 33 32 30 30 30 30 00   999071709320000.
0360 : 31 39 39 36 30 37 31 37  30 39 33 31 30 30 30 30   1996071709310000
0370 : 00 01 00 00 46 53 00 00  54 4D 00 14 00 00 08 00   ....FS..TM......

Tracks and Write Offsets:
    DAT:

<rom name="Amiga Format Disc 4 September 1996.bin" size="633673488" crc="deb65aaa" md5="52d30278825f56ca8eafdbad6485c882" sha1="0f436285c5dde2ce62e6440f36383759708c69af" />

    Cuesheet:

CATALOG 0000000000000
FILE "Amiga Format Disc 4 September 1996.bin" BINARY
  TRACK 01 MODE1/2352
    INDEX 01 00:00:00

    Write Offset: 222

https://mega.nz/folder/GGAxDApY#m3L82EaNI-lxaK1fIHB6ag

Common Disc Info:
    Title: Amiga Format Disc 3: August 1996
    Foreign Title (Non-latin): (OPTIONAL)
    Disc Number / Letter: (OPTIONAL)
    Disc Title: (OPTIONAL)
    System: Commodore Amiga
    Media Type: CD-ROM
    Category: Coverdiscs
    Region: UK
    Languages: English
    Disc Serial: AF87 8 96

    Ringcode Information:
        Data Side Mastering Code (laser branded/etched): 82514 AF 87 8 96
        Data Side Mastering SID Code: IFPI L041
        Data Side Toolstamp or Mastering Code (engraved/stamped): 1:1:3
        Data Side Mould SID Code: (REQUIRED, IF EXISTS)
        Data Side Additional Mould: (REQUIRED, IF EXISTS)
        Label Side Mould SID Code: (REQUIRED, IF EXISTS)
        Label Side Additional Mould: 
    Barcode: (OPTIONAL)
    EXE/Build Date: (REQUIRED)
    Error Count: 0
    Comments: (OPTIONAL)
    Contents: (OPTIONAL)

Version and Editions:
    Version: (REQUIRED, IF EXISTS)
    Edition/Release: Original (VERIFY THIS)

Extras:
    Primary Volume Descriptor (PVD):

0320 : 20 20 20 20 20 20 20 20  20 20 20 20 20 31 39 39                199
0330 : 36 30 36 32 31 31 32 30  32 32 37 30 30 00 31 39   6062112022700.19
0340 : 39 36 30 36 31 39 31 34  35 33 30 30 30 30 00 31   96061914530000.1
0350 : 39 37 38 30 31 30 31 30  30 30 30 30 30 30 30 00   978010100000000.
0360 : 31 39 37 38 30 31 30 31  30 30 30 30 30 30 30 30   1978010100000000
0370 : 00 01 00 00 46 53 00 00  54 4D 00 14 00 00 08 00   ....FS..TM......

Tracks and Write Offsets:
    DAT:

<rom name="Amiga Format Disc 3 August 1996 (Track 1).bin" size="572241600" crc="8552aab9" md5="4486343b4c60fe21dc26e52c05a9b2c0" sha1="f67d7c13f3c988f42ce9b08a26f9116a7d90c0ee" />
<rom name="Amiga Format Disc 3 August 1996 (Track 2).bin" size="29576400" crc="27894222" md5="bef089f1c27f5351d6f4f1c2080de4fd" sha1="ed5ef21b597563e6e151add6f1d65353f5901a5a" />
<rom name="Amiga Format Disc 3 August 1996 (Track 3).bin" size="2956464" crc="23bd8e73" md5="84f3117b1e66fca41a5145d5dac9777d" sha1="7b4063cf69499512cc6d69700ff24cc5dd705e57" />
<rom name="Amiga Format Disc 3 August 1996 (Track 4).bin" size="18559632" crc="c01c59cf" md5="b1ba5b8eca6b9420513ae9756d9c4168" sha1="e09408098a6a1cf2dc0f5d83d80c2f872be95bd9" />
<rom name="Amiga Format Disc 3 August 1996 (Track 5).bin" size="8408400" crc="c438fb6c" md5="7bcb4ccb0e6c5713137a48cc3143f8ba" sha1="fb4e2e7c113f1e1dd4a5469fd28d0152806221b5" />
<rom name="Amiga Format Disc 3 August 1996 (Track 6).bin" size="87609648" crc="d186bc13" md5="9a53104e56bfcc4895b05f2844e87ab8" sha1="0c4ccb64dd4a02dfec7f3981eb0df233d5a7f236" />

    Cuesheet:

FILE "Amiga Format Disc 3 August 1996 (Track 1).bin" BINARY
  TRACK 01 MODE1/2352
    INDEX 01 00:00:00
FILE "Amiga Format Disc 3 August 1996 (Track 2).bin" BINARY
  TRACK 02 AUDIO
    INDEX 00 00:00:00
    INDEX 01 00:02:74
FILE "Amiga Format Disc 3 August 1996 (Track 3).bin" BINARY
  TRACK 03 AUDIO
    INDEX 00 00:00:00
    INDEX 01 00:01:74
FILE "Amiga Format Disc 3 August 1996 (Track 4).bin" BINARY
  TRACK 04 AUDIO
    INDEX 00 00:00:00
    INDEX 01 00:01:74
FILE "Amiga Format Disc 3 August 1996 (Track 5).bin" BINARY
  TRACK 05 AUDIO
    INDEX 00 00:00:00
    INDEX 01 00:01:74
FILE "Amiga Format Disc 3 August 1996 (Track 6).bin" BINARY
  TRACK 06 AUDIO
    INDEX 00 00:00:00
    INDEX 01 00:01:74

    Write Offset: -22

link: https://mega.nz/folder/PPQHAaYb#5-aGmW4I7N899BFtp20D7w

Common Disc Info:
    Title: Amiga Format Disc 1: June 1996
    Foreign Title (Non-latin): (OPTIONAL)
    Disc Number / Letter: (OPTIONAL)
    Disc Title: (OPTIONAL)
    System: Commodore Amiga
    Media Type: CD-ROM
    Category: Coverdiscs
    Region: UK
    Languages: English
    Disc Serial: AF85 6 96

    Ringcode Information:
        Data Side Mastering Code (laser branded/etched): 82287-AMIGA FORMAT JUNE 96
        Data Side Mastering SID Code: IFPI L041
        Data Side Toolstamp or Mastering Code (engraved/stamped): (REQUIRED, IF EXISTS)
        Data Side Mould SID Code: (REQUIRED, IF EXISTS)
        Data Side Additional Mould: (REQUIRED, IF EXISTS)
        Label Side Mould SID Code: (REQUIRED, IF EXISTS)
        Label Side Additional Mould: 
    Barcode: (OPTIONAL)
    EXE/Build Date: (REQUIRED)
    Error Count: 0
    Comments: (OPTIONAL)
    Contents: (OPTIONAL)

Version and Editions:
    Version: (REQUIRED, IF EXISTS)
    Edition/Release: Original (VERIFY THIS)

Extras:
    Primary Volume Descriptor (PVD):

0320 : 20 20 20 20 20 20 20 20  20 20 20 20 20 31 39 39                199
0330 : 36 30 34 32 39 30 33 31  34 30 30 30 30 00 31 39   6042903140000.19
0340 : 37 38 30 31 30 31 30 30  30 30 30 30 30 30 00 31   78010100000000.1
0350 : 39 37 38 30 31 30 31 30  30 30 30 30 30 30 30 00   978010100000000.
0360 : 31 39 37 38 30 31 30 31  30 30 30 30 30 30 30 30   1978010100000000
0370 : 00 01 00 00 00 00 00 00  00 00 00 00 00 00 00 00   ................

Tracks and Write Offsets:
    DAT:

<rom name="Amiga Format Disc 1 June 1996.bin" size="739854528" crc="e2ccad87" md5="afd1345063caf1c0795044ef2fb25ec1" sha1="3c5959c6005c9dca826eea1e4aa30c5e490aeee6" />

    Cuesheet:

FILE "Amiga Format Disc 1 June 1996.bin" BINARY
  TRACK 01 MODE1/2352
    INDEX 01 00:00:00

    Write Offset: -22

It's a cover mount from Amiga computing so I've added that to the name, or should it be as a note or somewhere else as I think the contents were also their own standalone release.

view here: https://mega.nz/folder/7aRRVACR#fKi6ot3DnD1f5dPrE8KeUw

Common Disc Info:
    Title: Amiga Computing: The Weird Science Multimedia Toolkit
    Foreign Title (Non-latin): (OPTIONAL)
    Disc Number / Letter: (OPTIONAL)
    Disc Title: (OPTIONAL)
    System: Commodore Amiga
    Media Type: CD-ROM
    Category: Coverdiscs
    Region: UK
    Languages: English
    Disc Serial: (REQUIRED, IF EXISTS)

    Ringcode Information:
        Data Side Mastering Code (laser branded/etched): CDR00524    AMIGA COMPUTING MAY    PC WISE LTD
        Data Side Mastering SID Code: (REQUIRED, IF EXISTS)
        Data Side Toolstamp or Mastering Code (engraved/stamped): (REQUIRED, IF EXISTS)
        Data Side Mould SID Code: (REQUIRED, IF EXISTS)
        Data Side Additional Mould: (REQUIRED, IF EXISTS)
        Label Side Mould SID Code: (REQUIRED, IF EXISTS)
        Label Side Additional Mould: 
    Barcode: (OPTIONAL)
    EXE/Build Date: (REQUIRED)
    Error Count: 0
    Comments: (OPTIONAL)
    Contents: (OPTIONAL)

Version and Editions:
    Version: (REQUIRED, IF EXISTS)
    Edition/Release: Original (VERIFY THIS)

Extras:
    Primary Volume Descriptor (PVD):

0320 : 00 00 00 00 00 00 00 00  00 00 00 00 00 31 39 39   .............199
0330 : 33 30 39 30 31 31 30 32  32 30 35 30 30 00 00 00   3090110220500...
0340 : 00 00 00 00 00 00 00 00  00 00 00 00 00 00 00 00   ................
0350 : 00 00 00 00 00 00 00 00  00 00 00 00 00 00 00 00   ................
0360 : 00 00 00 00 00 00 00 00  00 00 00 00 00 00 00 00   ................
0370 : 00 01 00 00 46 53 00 00  54 4D 00 14 00 00 56 88   ....FS..TM....V.

Tracks and Write Offsets:
    DAT:

<rom name="The Weird Science Multimedia Toolkit.bin" size="659910048" crc="0e1a5c3b" md5="ecbc81923350c987fb10ffc0f6f3cabf" sha1="23d6c553d76e42579055c983a5bd5da2d70b33a1" />

    Cuesheet:

FILE "The Weird Science Multimedia Toolkit.bin" BINARY
  TRACK 01 MODE1/2352
    INDEX 01 00:00:00

    Write Offset: -22

Another Amiga CD dump, I've got about 40 cds dumped now to add, but wanted to make sure I was getting it right first before I upload all the rest.

Data is here https://mega.nz/folder/KCgjRaBD#ZyF0pFxXPsPSaN7aVCibTg

Common Disc Info:
    Title: The Epic Interactive Encyclopedia 1998 Edition
    Foreign Title (Non-latin): (OPTIONAL)
    Disc Number / Letter: (OPTIONAL)
    Disc Title: (OPTIONAL)
    System: Commodore Amiga
    Media Type: CD-ROM
    Category: Multimedia
    Region: UK
    Languages: English
    Disc Serial: (REQUIRED, IF EXISTS)

    Ringcode Information:
        Data Side Mastering Code (laser branded/etched): FD5892
        Data Side Mastering SID Code: IFPI L042
        Data Side Toolstamp or Mastering Code (engraved/stamped): 1:1:2
        Data Side Mould SID Code: (REQUIRED, IF EXISTS)
        Data Side Additional Mould: (REQUIRED, IF EXISTS)
        Label Side Mould SID Code: (REQUIRED, IF EXISTS)
        Label Side Additional Mould: 
    Barcode: 5014293047517
    EXE/Build Date: (REQUIRED)
    Error Count: 0
    Comments: (OPTIONAL)
    Contents: (OPTIONAL)

Version and Editions:
    Version: (REQUIRED, IF EXISTS)
    Edition/Release: Original (VERIFY THIS)

Extras:
    Primary Volume Descriptor (PVD):

0320 : 20 20 20 20 20 20 20 20  20 20 20 20 20 31 39 39                199
0330 : 38 30 34 32 38 32 31 33  30 30 37 33 37 00 31 39   8042821300737.19
0340 : 37 38 30 31 30 31 30 30  30 30 30 30 34 38 00 31   78010100000048.1
0350 : 39 37 38 30 31 30 31 30  30 30 30 30 30 37 34 00   978010100000074.
0360 : 31 39 37 38 30 31 30 31  30 30 30 30 30 30 37 32   1978010100000072
0370 : 00 01 00 00 00 00 00 00  00 00 00 00 00 00 00 00   ................

Tracks and Write Offsets:
    DAT:

<rom name="The Epic Interactive Encyclopedia 1998 Edition.bin" size="743608320" crc="27d2df56" md5="f3929a0c2529dc8e25050c1b22ba720d" sha1="9b257776045b39f0669694914efc2deea6f4e727" />

    Cuesheet:

FILE "The Epic Interactive Encyclopedia 1998 Edition.bin" BINARY
  TRACK 01 MODE1/2352
    INDEX 01 00:00:00

    Write Offset: -22

I hope I've done everything right, this is my first contribution so do let me know if there's anything wrong, I've a lot more to dump.

https://mega.nz/folder/2TwyFQCB#jMH24_CGuvgkBIMMOViZgQ

I've kept the naming of the disc consistent with other entries for Amiga Format, but on the disc it is listed a bit differently - see the picture in the folder above. Hopefully this is correct?

Common Disc Info:
    Title: Amiga Format Disc 48: January 2000
    Foreign Title (Non-latin): (OPTIONAL)
    Disc Number / Letter: (OPTIONAL)
    Disc Title: (OPTIONAL)
    System: Commodore Amiga
    Media Type: CD-ROM
    Category: Coverdiscs
    Region: UK
    Languages: English
    Disc Serial: AF/132/1/00

    Ringcode Information:
        Data Side Mastering Code (laser branded/etched): AF132/01/00    B6136 9112425
        Data Side Mastering SID Code: IFPI L055
        Data Side Toolstamp or Mastering Code (engraved/stamped): (REQUIRED, IF EXISTS)
        Data Side Mould SID Code: IFPI 2Z09
        Data Side Additional Mould: (REQUIRED, IF EXISTS)
        Label Side Mould SID Code: (REQUIRED, IF EXISTS)
        Label Side Additional Mould: 
    Barcode: (OPTIONAL)
    EXE/Build Date: (REQUIRED)
    Error Count: 0
    Comments: 
    Contents: (OPTIONAL)

Version and Editions:
    Version: (REQUIRED, IF EXISTS)
    Edition/Release: Original (VERIFY THIS)

Extras:
    Primary Volume Descriptor (PVD):

0320 : 00 00 00 00 00 00 00 00  00 00 00 00 00 31 39 39   .............199
0330 : 39 31 31 31 37 31 34 34  36 30 32 30 30 00 00 00   9111714460200...
0340 : 00 00 00 00 00 00 00 00  00 00 00 00 00 00 00 00   ................
0350 : 00 00 00 00 00 00 00 00  00 00 00 00 00 00 00 00   ................
0360 : 00 00 00 00 00 00 00 00  00 00 00 00 00 00 00 00   ................
0370 : 00 01 00 00 46 53 00 00  00 00 00 00 00 00 00 00   ....FS..........

Tracks and Write Offsets:
    DAT:

<rom name="AFCD48 (Track 1).bin" size="758153088" crc="51b3196b" md5="3c4229ea5235048bb8658fe83271f456" sha1="25bc886f269b7c2b45df59cc5dded74c9d2bd2eb" />
<rom name="AFCD48 (Track 2).bin" size="19420464" crc="94d90887" md5="74346d7079cb764262b1c81f9042f760" sha1="ed69d237f59d52906f57c001f902ee858102694b" />

    Cuesheet:

FILE "AFCD48 (Track 1).bin" BINARY
  TRACK 01 MODE1/2352
    INDEX 01 00:00:00
FILE "AFCD48 (Track 2).bin" BINARY
  TRACK 02 AUDIO
    INDEX 00 00:00:00
    INDEX 01 00:02:00

    Write Offset: -22