Disc 2 Match
http://redump.org/disc/66092/


Common Disc Info:
    Title: Yoru no Nai Kuni 2: Shingetsu no Hanayome: Original Soundtrack (Disc 2)
    Foreign Title (Non-latin): よるのないくに2 ~新月の花嫁~ オリジナルサウンドトラック
    Disc Number / Letter: 2
    Disc Title: 
    System: Audio CD
    Media Type: CD-ROM
    Category: Bonus Discs
    Matching IDs: 66092
    Region: Japan
    Languages: Klingon (CHANGE THIS)
    Disc Serial: KTGS-40371CD-2

    Ringcode Information:
        Data Side Mastering Code (laser branded/etched): KTGS-40371CD-2    -RC11-
        Data Side Mastering SID Code: IFPI LY21
        Data Side Toolstamp or Mastering Code (engraved/stamped): 
        Data Side Mould SID Code: IFPI 7605
        Data Side Additional Mould: 
        Label Side Mould SID Code: 
        Label Side Additional Mould: 
    Barcode: 4 988615 087066
    Error Count: 0
    Comments: 
    Contents:

01    mi'd rauna    1:52
02    戦恋歌    2:38
03    研究所    2:51
04    恐れ知れず    2:51
05    ieil jekh    0:52
06    大切なこと    0:09
07    Молчание и гнев    2:04
08    静寂に溶けて    1:31
09    巫女    3:07
10    鏡の底奥    1:32
11    囚われの剣    0:50
12    深蒼の零城    1:31
13    華を貪る者    1:04
14    Sadistic Limbs    1:43
15    蒼き血の淵    1:40
16    My Night    2:17
17    ひとしずく    2:55
18    勇壮の攻め    1:43
19    夜が明けル前にこの先ヲ -nizh-    5:45
20    偽りの血環    1:11
21    やがて迫る選択    0:52
22    光を思う    2:30
23    Destino    2:38
24    Fortuna    2:09
25    情歌    0:46
26    Malvasia    3:21
27    美しき悲壮    3:38
28    Finale from op.07 Suite for "Lily"    5:54
29    Pioggia di stelle    4:31
30    月影の微睡    5:53
31    Lucia (Short Ver.)    1:37

Version and Editions:
    Version: 
    Edition/Release: Original Premium Box

Extras:
    Primary Volume Descriptor (PVD): Disc has no PVD

Tracks and Write Offsets:
    DAT:

<rom name="Yoru no Nai Kuni 2 - Shingetsu no Hanayome - Original Soundtrack (Japan) (Disc 2) (Bundled with [PS4] Yoru no Nai Kuni 2 (Japan) (Premium Box)) (Track 01).bin" size="19486320" crc="a8efe888" md5="196c39a826117b3fca56d6a06d5500c1" sha1="c6a12c07c274a841a724609f8f743d264108c42a" />
<rom name="Yoru no Nai Kuni 2 - Shingetsu no Hanayome - Original Soundtrack (Japan) (Disc 2) (Bundled with [PS4] Yoru no Nai Kuni 2 (Japan) (Premium Box)) (Track 02).bin" size="27948816" crc="faab6eac" md5="d5c1989fb00e3d2991e73423149a30a1" sha1="e8e27dedae91b5660a4677575ba3313aba05c94c" />
<rom name="Yoru no Nai Kuni 2 - Shingetsu no Hanayome - Original Soundtrack (Japan) (Disc 2) (Bundled with [PS4] Yoru no Nai Kuni 2 (Japan) (Premium Box)) (Track 03).bin" size="30194976" crc="b89b7d5a" md5="ab2ed2d70e04710bba75996f4126cc32" sha1="b0c7723cdf26eb3d89c7d98157b0e0a361789513" />
<rom name="Yoru no Nai Kuni 2 - Shingetsu no Hanayome - Original Soundtrack (Japan) (Disc 2) (Bundled with [PS4] Yoru no Nai Kuni 2 (Japan) (Premium Box)) (Track 04).bin" size="30190272" crc="f243da89" md5="66c6187d832d7d32670b56456d10021e" sha1="256e9f23c36264de4458476736d54be96efd10fb" />
<rom name="Yoru no Nai Kuni 2 - Shingetsu no Hanayome - Original Soundtrack (Japan) (Disc 2) (Bundled with [PS4] Yoru no Nai Kuni 2 (Japan) (Premium Box)) (Track 05).bin" size="9179856" crc="907a42c1" md5="0325cc5ad2876b57219514debfab3ec6" sha1="55bba1e962cfe50df9b4422732daad178b227cee" />
<rom name="Yoru no Nai Kuni 2 - Shingetsu no Hanayome - Original Soundtrack (Japan) (Disc 2) (Bundled with [PS4] Yoru no Nai Kuni 2 (Japan) (Premium Box)) (Track 06).bin" size="1524096" crc="e220bd5b" md5="3e03acda14e555d2b06ce1a7faa053c8" sha1="764066fd595783fa24056a0ebbc2e4900700e9a8" />
<rom name="Yoru no Nai Kuni 2 - Shingetsu no Hanayome - Original Soundtrack (Japan) (Disc 2) (Bundled with [PS4] Yoru no Nai Kuni 2 (Japan) (Premium Box)) (Track 07).bin" size="21875952" crc="25bc3f85" md5="a7ee1f95eba104561cdb4f6b86270710" sha1="ab198d685ca54d7a2e50cd79c34e3b3a67ba9176" />
<rom name="Yoru no Nai Kuni 2 - Shingetsu no Hanayome - Original Soundtrack (Japan) (Disc 2) (Bundled with [PS4] Yoru no Nai Kuni 2 (Japan) (Premium Box)) (Track 08).bin" size="15993600" crc="6d2df6f2" md5="5c163bb3e06407ee262ea36a8d0bde9c" sha1="2af62cc77c9a2feefebf37136fa272c3375b4e87" />
<rom name="Yoru no Nai Kuni 2 - Shingetsu no Hanayome - Original Soundtrack (Japan) (Disc 2) (Bundled with [PS4] Yoru no Nai Kuni 2 (Japan) (Premium Box)) (Track 09).bin" size="32993856" crc="2d8a73f2" md5="79551443ee72e936199454d11b99a7ce" sha1="7555188ff8653d3371c0cec4183d8c3d38d726e7" />
<rom name="Yoru no Nai Kuni 2 - Shingetsu no Hanayome - Original Soundtrack (Japan) (Disc 2) (Bundled with [PS4] Yoru no Nai Kuni 2 (Japan) (Premium Box)) (Track 10).bin" size="16184112" crc="dde1c9d0" md5="fbd088b95ef93bd7ff23c62e17f7fc20" sha1="e7283ef0de05083ab7e9093a1b47092d9fe93e3f" />
<rom name="Yoru no Nai Kuni 2 - Shingetsu no Hanayome - Original Soundtrack (Japan) (Disc 2) (Bundled with [PS4] Yoru no Nai Kuni 2 (Japan) (Premium Box)) (Track 11).bin" size="8862336" crc="435cb552" md5="1da37bac2c6bed325a2ff436ca1d81cb" sha1="7e39373a63958e5f09b66370cb99600b29e27d31" />
<rom name="Yoru no Nai Kuni 2 - Shingetsu no Hanayome - Original Soundtrack (Japan) (Disc 2) (Bundled with [PS4] Yoru no Nai Kuni 2 (Japan) (Premium Box)) (Track 12).bin" size="16115904" crc="b0aaf7fc" md5="a8591428cbac42bcd87ab96da6dae27a" sha1="2df3dfa65302901eecffb8d95966dcaf367725cc" />
<rom name="Yoru no Nai Kuni 2 - Shingetsu no Hanayome - Original Soundtrack (Japan) (Disc 2) (Bundled with [PS4] Yoru no Nai Kuni 2 (Japan) (Premium Box)) (Track 13).bin" size="11230800" crc="7925bb16" md5="3950cc76942d25fbb6ab81580a7ff63e" sha1="498183b474c43efb06ebada07d81047676ab15d3" />
<rom name="Yoru no Nai Kuni 2 - Shingetsu no Hanayome - Original Soundtrack (Japan) (Disc 2) (Bundled with [PS4] Yoru no Nai Kuni 2 (Japan) (Premium Box)) (Track 14).bin" size="18159792" crc="3bd0318a" md5="b478d6e54e99311d84a1822a6d4343dd" sha1="071f41e629dcaa3e018aad701f339a02f30a50e6" />
<rom name="Yoru no Nai Kuni 2 - Shingetsu no Hanayome - Original Soundtrack (Japan) (Disc 2) (Bundled with [PS4] Yoru no Nai Kuni 2 (Japan) (Premium Box)) (Track 15).bin" size="17569440" crc="d1e7749b" md5="4454952f8fa2e11b056acd346f2d2933" sha1="8976c4d08570213ca89a8aafa01eb9048a19409b" />
<rom name="Yoru no Nai Kuni 2 - Shingetsu no Hanayome - Original Soundtrack (Japan) (Disc 2) (Bundled with [PS4] Yoru no Nai Kuni 2 (Japan) (Premium Box)) (Track 16).bin" size="24209136" crc="53ee1de2" md5="496ea7e75d9f3834e6736a8bf241ed72" sha1="5f19ef3afbf24d80b99cb47ecdd77002b8630b40" />
<rom name="Yoru no Nai Kuni 2 - Shingetsu no Hanayome - Original Soundtrack (Japan) (Disc 2) (Bundled with [PS4] Yoru no Nai Kuni 2 (Japan) (Premium Box)) (Track 17).bin" size="30886464" crc="9ee11adc" md5="8290c64c04d4ca3fa4d30286edee2f61" sha1="8d149557a6b59918dd0597b220bfe275941d6972" />
<rom name="Yoru no Nai Kuni 2 - Shingetsu no Hanayome - Original Soundtrack (Japan) (Disc 2) (Bundled with [PS4] Yoru no Nai Kuni 2 (Japan) (Premium Box)) (Track 18).bin" size="18157440" crc="cad61590" md5="344fe8de8776ad362365d4ce05737792" sha1="6d99b1c33dd1f9b4a80989866c65a36047254003" />
<rom name="Yoru no Nai Kuni 2 - Shingetsu no Hanayome - Original Soundtrack (Japan) (Disc 2) (Bundled with [PS4] Yoru no Nai Kuni 2 (Japan) (Premium Box)) (Track 19).bin" size="60940320" crc="f945d6d4" md5="b64ca649ac85cbb2d95ba8f8790ad020" sha1="8a61f6348edd00bbd02e0dcb9f69c56748d150eb" />
<rom name="Yoru no Nai Kuni 2 - Shingetsu no Hanayome - Original Soundtrack (Japan) (Disc 2) (Bundled with [PS4] Yoru no Nai Kuni 2 (Japan) (Premium Box)) (Track 20).bin" size="12451488" crc="27fa93c2" md5="fafe26d02324fef6b3d978846706225e" sha1="0fe1cea6647701c6af298cb2dbf41a1ccaec35ac" />
<rom name="Yoru no Nai Kuni 2 - Shingetsu no Hanayome - Original Soundtrack (Japan) (Disc 2) (Bundled with [PS4] Yoru no Nai Kuni 2 (Japan) (Premium Box)) (Track 21).bin" size="9090480" crc="e5b75ca9" md5="89fd8b484d2d237d11e953096f83968b" sha1="0939a1db70316b71ffddab495577560e876efc09" />
<rom name="Yoru no Nai Kuni 2 - Shingetsu no Hanayome - Original Soundtrack (Japan) (Disc 2) (Bundled with [PS4] Yoru no Nai Kuni 2 (Japan) (Premium Box)) (Track 22).bin" size="26372976" crc="eb007c81" md5="049dc90a98dd2662397ad726c55bfbe2" sha1="48a4a8f7dd3e80a8a8fc14fe9b995631e1ad073b" />
<rom name="Yoru no Nai Kuni 2 - Shingetsu no Hanayome - Original Soundtrack (Japan) (Disc 2) (Bundled with [PS4] Yoru no Nai Kuni 2 (Japan) (Premium Box)) (Track 23).bin" size="27826512" crc="04132896" md5="1879983411c29315753dd0283cc0a616" sha1="77bfb34c483200de7ed4ac36c2dc12522f791c65" />
<rom name="Yoru no Nai Kuni 2 - Shingetsu no Hanayome - Original Soundtrack (Japan) (Disc 2) (Bundled with [PS4] Yoru no Nai Kuni 2 (Japan) (Premium Box)) (Track 24).bin" size="22710912" crc="8797a31e" md5="5c48caf1b3681f1c591eb601c1520e46" sha1="9c42a7396c61f5b88d6101fcaf30eea66a6b1213" />
<rom name="Yoru no Nai Kuni 2 - Shingetsu no Hanayome - Original Soundtrack (Japan) (Disc 2) (Bundled with [PS4] Yoru no Nai Kuni 2 (Japan) (Premium Box)) (Track 25).bin" size="8050896" crc="66f3e9d1" md5="dbec078d20e4e18e1a9277be27cd05e1" sha1="7781c1617a1cf59208d7cda3b8e44ad771e0cecc" />
<rom name="Yoru no Nai Kuni 2 - Shingetsu no Hanayome - Original Soundtrack (Japan) (Disc 2) (Bundled with [PS4] Yoru no Nai Kuni 2 (Japan) (Premium Box)) (Track 26).bin" size="35522256" crc="f7e7588b" md5="9ee2499dff56c4ed6f6f91b8242df0a8" sha1="f6afe8c0bc92ab6b59a204e88e934a18cce3d9dd" />
<rom name="Yoru no Nai Kuni 2 - Shingetsu no Hanayome - Original Soundtrack (Japan) (Disc 2) (Bundled with [PS4] Yoru no Nai Kuni 2 (Japan) (Premium Box)) (Track 27).bin" size="38429328" crc="54225f2e" md5="90c85849056e39375324b625dc23fb51" sha1="6643579c1dfb962787d351a4c51abb16a7b147a0" />
<rom name="Yoru no Nai Kuni 2 - Shingetsu no Hanayome - Original Soundtrack (Japan) (Disc 2) (Bundled with [PS4] Yoru no Nai Kuni 2 (Japan) (Premium Box)) (Track 28).bin" size="62459712" crc="1187ad8a" md5="52412e53764fb7b1c726fff2430229d6" sha1="fb8715e8cbfa882f51d46bda4069f263864157fc" />
<rom name="Yoru no Nai Kuni 2 - Shingetsu no Hanayome - Original Soundtrack (Japan) (Disc 2) (Bundled with [PS4] Yoru no Nai Kuni 2 (Japan) (Premium Box)) (Track 29).bin" size="47853792" crc="64d17a9b" md5="9786d088f5fea3816bf28bdcf142bc5f" sha1="bdebabbe2689cc2aad2488a3149887ab5ae05a9f" />
<rom name="Yoru no Nai Kuni 2 - Shingetsu no Hanayome - Original Soundtrack (Japan) (Disc 2) (Bundled with [PS4] Yoru no Nai Kuni 2 (Japan) (Premium Box)) (Track 30).bin" size="62332704" crc="1cf5e822" md5="9bd56a50bc39170851642ff8bb3909eb" sha1="203b24705985c710962e93420379582541d46c62" />
<rom name="Yoru no Nai Kuni 2 - Shingetsu no Hanayome - Original Soundtrack (Japan) (Disc 2) (Bundled with [PS4] Yoru no Nai Kuni 2 (Japan) (Premium Box)) (Track 31).bin" size="17527104" crc="5ebec384" md5="a0f603b5a1707524447eb659320fe606" sha1="7cb627143d8f24af0339fc39dc3e4d674008cb55" />

    Cuesheet:

FILE "Yoru no Nai Kuni 2 - Shingetsu no Hanayome - Original Soundtrack (Japan) (Disc 2) (Bundled with [PS4] Yoru no Nai Kuni 2 (Japan) (Premium Box)) (Track 01).bin" BINARY
  TRACK 01 AUDIO
    ISRC JPD101750067
    INDEX 01 00:00:00
FILE "Yoru no Nai Kuni 2 - Shingetsu no Hanayome - Original Soundtrack (Japan) (Disc 2) (Bundled with [PS4] Yoru no Nai Kuni 2 (Japan) (Premium Box)) (Track 02).bin" BINARY
  TRACK 02 AUDIO
    ISRC JPD101750068
    INDEX 00 00:00:00
    INDEX 01 00:02:00
FILE "Yoru no Nai Kuni 2 - Shingetsu no Hanayome - Original Soundtrack (Japan) (Disc 2) (Bundled with [PS4] Yoru no Nai Kuni 2 (Japan) (Premium Box)) (Track 03).bin" BINARY
  TRACK 03 AUDIO
    ISRC JPD101750069
    INDEX 00 00:00:00
    INDEX 01 00:02:00
FILE "Yoru no Nai Kuni 2 - Shingetsu no Hanayome - Original Soundtrack (Japan) (Disc 2) (Bundled with [PS4] Yoru no Nai Kuni 2 (Japan) (Premium Box)) (Track 04).bin" BINARY
  TRACK 04 AUDIO
    ISRC JPD101750070
    INDEX 00 00:00:00
    INDEX 01 00:02:00
FILE "Yoru no Nai Kuni 2 - Shingetsu no Hanayome - Original Soundtrack (Japan) (Disc 2) (Bundled with [PS4] Yoru no Nai Kuni 2 (Japan) (Premium Box)) (Track 05).bin" BINARY
  TRACK 05 AUDIO
    ISRC JPD101750071
    INDEX 00 00:00:00
    INDEX 01 00:02:00
FILE "Yoru no Nai Kuni 2 - Shingetsu no Hanayome - Original Soundtrack (Japan) (Disc 2) (Bundled with [PS4] Yoru no Nai Kuni 2 (Japan) (Premium Box)) (Track 06).bin" BINARY
  TRACK 06 AUDIO
    ISRC JPD101750072
    INDEX 00 00:00:00
    INDEX 01 00:02:00
FILE "Yoru no Nai Kuni 2 - Shingetsu no Hanayome - Original Soundtrack (Japan) (Disc 2) (Bundled with [PS4] Yoru no Nai Kuni 2 (Japan) (Premium Box)) (Track 07).bin" BINARY
  TRACK 07 AUDIO
    ISRC JPD101750073
    INDEX 00 00:00:00
    INDEX 01 00:02:00
FILE "Yoru no Nai Kuni 2 - Shingetsu no Hanayome - Original Soundtrack (Japan) (Disc 2) (Bundled with [PS4] Yoru no Nai Kuni 2 (Japan) (Premium Box)) (Track 08).bin" BINARY
  TRACK 08 AUDIO
    ISRC JPD101750074
    INDEX 00 00:00:00
    INDEX 01 00:02:00
FILE "Yoru no Nai Kuni 2 - Shingetsu no Hanayome - Original Soundtrack (Japan) (Disc 2) (Bundled with [PS4] Yoru no Nai Kuni 2 (Japan) (Premium Box)) (Track 09).bin" BINARY
  TRACK 09 AUDIO
    ISRC JPD101750075
    INDEX 00 00:00:00
    INDEX 01 00:02:00
FILE "Yoru no Nai Kuni 2 - Shingetsu no Hanayome - Original Soundtrack (Japan) (Disc 2) (Bundled with [PS4] Yoru no Nai Kuni 2 (Japan) (Premium Box)) (Track 10).bin" BINARY
  TRACK 10 AUDIO
    ISRC JPD101750076
    INDEX 00 00:00:00
    INDEX 01 00:02:00
FILE "Yoru no Nai Kuni 2 - Shingetsu no Hanayome - Original Soundtrack (Japan) (Disc 2) (Bundled with [PS4] Yoru no Nai Kuni 2 (Japan) (Premium Box)) (Track 11).bin" BINARY
  TRACK 11 AUDIO
    ISRC JPD101750077
    INDEX 00 00:00:00
    INDEX 01 00:02:00
FILE "Yoru no Nai Kuni 2 - Shingetsu no Hanayome - Original Soundtrack (Japan) (Disc 2) (Bundled with [PS4] Yoru no Nai Kuni 2 (Japan) (Premium Box)) (Track 12).bin" BINARY
  TRACK 12 AUDIO
    ISRC JPD101750078
    INDEX 00 00:00:00
    INDEX 01 00:02:00
FILE "Yoru no Nai Kuni 2 - Shingetsu no Hanayome - Original Soundtrack (Japan) (Disc 2) (Bundled with [PS4] Yoru no Nai Kuni 2 (Japan) (Premium Box)) (Track 13).bin" BINARY
  TRACK 13 AUDIO
    ISRC JPD101750079
    INDEX 00 00:00:00
    INDEX 01 00:02:00
FILE "Yoru no Nai Kuni 2 - Shingetsu no Hanayome - Original Soundtrack (Japan) (Disc 2) (Bundled with [PS4] Yoru no Nai Kuni 2 (Japan) (Premium Box)) (Track 14).bin" BINARY
  TRACK 14 AUDIO
    ISRC JPD101750080
    INDEX 00 00:00:00
    INDEX 01 00:02:00
FILE "Yoru no Nai Kuni 2 - Shingetsu no Hanayome - Original Soundtrack (Japan) (Disc 2) (Bundled with [PS4] Yoru no Nai Kuni 2 (Japan) (Premium Box)) (Track 15).bin" BINARY
  TRACK 15 AUDIO
    ISRC JPD101750081
    INDEX 00 00:00:00
    INDEX 01 00:02:00
FILE "Yoru no Nai Kuni 2 - Shingetsu no Hanayome - Original Soundtrack (Japan) (Disc 2) (Bundled with [PS4] Yoru no Nai Kuni 2 (Japan) (Premium Box)) (Track 16).bin" BINARY
  TRACK 16 AUDIO
    ISRC JPD101750082
    INDEX 00 00:00:00
    INDEX 01 00:02:00
FILE "Yoru no Nai Kuni 2 - Shingetsu no Hanayome - Original Soundtrack (Japan) (Disc 2) (Bundled with [PS4] Yoru no Nai Kuni 2 (Japan) (Premium Box)) (Track 17).bin" BINARY
  TRACK 17 AUDIO
    ISRC JPD101750083
    INDEX 00 00:00:00
    INDEX 01 00:02:00
FILE "Yoru no Nai Kuni 2 - Shingetsu no Hanayome - Original Soundtrack (Japan) (Disc 2) (Bundled with [PS4] Yoru no Nai Kuni 2 (Japan) (Premium Box)) (Track 18).bin" BINARY
  TRACK 18 AUDIO
    ISRC JPD101750084
    INDEX 00 00:00:00
    INDEX 01 00:02:00
FILE "Yoru no Nai Kuni 2 - Shingetsu no Hanayome - Original Soundtrack (Japan) (Disc 2) (Bundled with [PS4] Yoru no Nai Kuni 2 (Japan) (Premium Box)) (Track 19).bin" BINARY
  TRACK 19 AUDIO
    ISRC JPD101750085
    INDEX 00 00:00:00
    INDEX 01 00:02:00
FILE "Yoru no Nai Kuni 2 - Shingetsu no Hanayome - Original Soundtrack (Japan) (Disc 2) (Bundled with [PS4] Yoru no Nai Kuni 2 (Japan) (Premium Box)) (Track 20).bin" BINARY
  TRACK 20 AUDIO
    ISRC JPD101750086
    INDEX 00 00:00:00
    INDEX 01 00:02:00
FILE "Yoru no Nai Kuni 2 - Shingetsu no Hanayome - Original Soundtrack (Japan) (Disc 2) (Bundled with [PS4] Yoru no Nai Kuni 2 (Japan) (Premium Box)) (Track 21).bin" BINARY
  TRACK 21 AUDIO
    ISRC JPD101750087
    INDEX 00 00:00:00
    INDEX 01 00:02:00
FILE "Yoru no Nai Kuni 2 - Shingetsu no Hanayome - Original Soundtrack (Japan) (Disc 2) (Bundled with [PS4] Yoru no Nai Kuni 2 (Japan) (Premium Box)) (Track 22).bin" BINARY
  TRACK 22 AUDIO
    ISRC JPD101750088
    INDEX 00 00:00:00
    INDEX 01 00:02:00
FILE "Yoru no Nai Kuni 2 - Shingetsu no Hanayome - Original Soundtrack (Japan) (Disc 2) (Bundled with [PS4] Yoru no Nai Kuni 2 (Japan) (Premium Box)) (Track 23).bin" BINARY
  TRACK 23 AUDIO
    ISRC JPD101750089
    INDEX 00 00:00:00
    INDEX 01 00:02:00
FILE "Yoru no Nai Kuni 2 - Shingetsu no Hanayome - Original Soundtrack (Japan) (Disc 2) (Bundled with [PS4] Yoru no Nai Kuni 2 (Japan) (Premium Box)) (Track 24).bin" BINARY
  TRACK 24 AUDIO
    ISRC JPD101750090
    INDEX 00 00:00:00
    INDEX 01 00:02:00
FILE "Yoru no Nai Kuni 2 - Shingetsu no Hanayome - Original Soundtrack (Japan) (Disc 2) (Bundled with [PS4] Yoru no Nai Kuni 2 (Japan) (Premium Box)) (Track 25).bin" BINARY
  TRACK 25 AUDIO
    ISRC JPD101750091
    INDEX 00 00:00:00
    INDEX 01 00:02:00
FILE "Yoru no Nai Kuni 2 - Shingetsu no Hanayome - Original Soundtrack (Japan) (Disc 2) (Bundled with [PS4] Yoru no Nai Kuni 2 (Japan) (Premium Box)) (Track 26).bin" BINARY
  TRACK 26 AUDIO
    ISRC JPD101750092
    INDEX 00 00:00:00
    INDEX 01 00:02:00
FILE "Yoru no Nai Kuni 2 - Shingetsu no Hanayome - Original Soundtrack (Japan) (Disc 2) (Bundled with [PS4] Yoru no Nai Kuni 2 (Japan) (Premium Box)) (Track 27).bin" BINARY
  TRACK 27 AUDIO
    ISRC JPD101750093
    INDEX 00 00:00:00
    INDEX 01 00:02:00
FILE "Yoru no Nai Kuni 2 - Shingetsu no Hanayome - Original Soundtrack (Japan) (Disc 2) (Bundled with [PS4] Yoru no Nai Kuni 2 (Japan) (Premium Box)) (Track 28).bin" BINARY
  TRACK 28 AUDIO
    ISRC JPD101750094
    INDEX 00 00:00:00
    INDEX 01 00:02:00
FILE "Yoru no Nai Kuni 2 - Shingetsu no Hanayome - Original Soundtrack (Japan) (Disc 2) (Bundled with [PS4] Yoru no Nai Kuni 2 (Japan) (Premium Box)) (Track 29).bin" BINARY
  TRACK 29 AUDIO
    ISRC JPD101750095
    INDEX 00 00:00:00
    INDEX 01 00:02:00
FILE "Yoru no Nai Kuni 2 - Shingetsu no Hanayome - Original Soundtrack (Japan) (Disc 2) (Bundled with [PS4] Yoru no Nai Kuni 2 (Japan) (Premium Box)) (Track 30).bin" BINARY
  TRACK 30 AUDIO
    ISRC JPD101750096
    INDEX 00 00:00:00
    INDEX 01 00:02:00
FILE "Yoru no Nai Kuni 2 - Shingetsu no Hanayome - Original Soundtrack (Japan) (Disc 2) (Bundled with [PS4] Yoru no Nai Kuni 2 (Japan) (Premium Box)) (Track 31).bin" BINARY
  TRACK 31 AUDIO
    ISRC JPD101750097
    INDEX 00 00:00:00
    INDEX 01 00:02:00

    Write Offset: 0

Logs
https://mega.nz/file/GI02UBJL#lwXVuSJrZ … e9mmCn0O1c

Match
http://redump.org/disc/66091/


Common Disc Info:
    Title: Yoru no Nai Kuni 2: Shingetsu no Hanayome: Original Soundtrack (Disc 1)
    Foreign Title (Non-latin): よるのないくに2 ~新月の花嫁~ オリジナルサウンドトラック
    Disc Number / Letter: 1
    Disc Title: 
    System: Audio CD
    Media Type: CD-ROM
    Category: Bonus Discs
    Matching IDs: 66091
    Region: Japan
    Languages: Klingon (CHANGE THIS)
    Disc Serial: KTGS-40371CD-1

    Ringcode Information:
        Data Side Mastering Code (laser branded/etched): KTGS-40371CD-1    -RC11-
        Data Side Mastering SID Code: IFPI LY21
        Data Side Toolstamp or Mastering Code (engraved/stamped): 
        Data Side Mould SID Code: IFPI 7602
        Data Side Additional Mould: 
        Label Side Mould SID Code: 
        Label Side Additional Mould: 
    Barcode: 4 988615 087066
    Error Count: 0
    Comments: 
    Contents:

01    Lucia    4:05
02    徒花    0:51
03    El Viento    2:12
04    二色花    1:36
05    夜色の花飾り    2:20
06    Pallide Memorie    1:22
07    夜闇を駆けて    1:52
08    Omen    2:32
09    Brides Room    2:10
10    休息    0:07
11    昏き抱擁    2:21
12    詠縁    2:01
13    蒼い記憶    3:07
14    その意志は誰が為    2:10
15    傀儡の怪魚    2:10
16    La calma    2:53
17    叙情    1:46
18    幸せのレシピ    1:40
19    Monumento Antiguo    3:07
20    David    2:01
21    映された翳    2:33
22    Repetitio    1:19
23    成果は如何に    0:44
24    Danza de blanco    1:49
25    黒衣の円舞曲    1:45
26    教皇    4:14
27    Time up    0:34
28    成果期待できず    0:09
29    次の鼓動    0:12
30    夢は夢の中に    2:25
31    蒼月    2:09
32    白百合    2:02
33    花弁の雫    1:47
34    星色に濡れた花    2:29
35    Lilies    1:25
36    道化師の輪舞    2:23
37    Lucia (for PV)    1:27

Version and Editions:
    Version: 
    Edition/Release: Original Premium Box

Extras:
    Primary Volume Descriptor (PVD): Disc has no PVD

Tracks and Write Offsets:
    DAT:

<rom name="Yoru no Nai Kuni 2 - Shingetsu no Hanayome - Original Soundtrack (Japan) (Disc 1) (Bundled with [PS4] Yoru no Nai Kuni 2 (Japan) (Premium Box)) (Track 01).bin" size="43274448" crc="66f7938e" md5="5ee25fc1cc0a374aa562e4bdeddd9761" sha1="1038919e6658e5049bb3a2f75ec046628d1faff8" />
<rom name="Yoru no Nai Kuni 2 - Shingetsu no Hanayome - Original Soundtrack (Japan) (Disc 1) (Bundled with [PS4] Yoru no Nai Kuni 2 (Japan) (Premium Box)) (Track 02).bin" size="9015216" crc="587a527e" md5="64f16e7aad924869936822bfb9a0b17d" sha1="79e3da4d8bc7876a282f524ca71dbd44e3bb8374" />
<rom name="Yoru no Nai Kuni 2 - Shingetsu no Hanayome - Original Soundtrack (Japan) (Disc 1) (Bundled with [PS4] Yoru no Nai Kuni 2 (Japan) (Premium Box)) (Track 03).bin" size="23284800" crc="2cacb343" md5="06137b40a95e7b5987d331b27baeec71" sha1="57b4cb38df7b49742e8c5be40d97c96e7b87d242" />
<rom name="Yoru no Nai Kuni 2 - Shingetsu no Hanayome - Original Soundtrack (Japan) (Disc 1) (Bundled with [PS4] Yoru no Nai Kuni 2 (Japan) (Premium Box)) (Track 04).bin" size="16936752" crc="f8d2d423" md5="6607919cbcdd5bf3e2a7c73ae9f78a50" sha1="1b1ff909282a07c84bd946e867bfa67f7598af34" />
<rom name="Yoru no Nai Kuni 2 - Shingetsu no Hanayome - Original Soundtrack (Japan) (Disc 1) (Bundled with [PS4] Yoru no Nai Kuni 2 (Japan) (Premium Box)) (Track 05).bin" size="24608976" crc="9099e31c" md5="3f8bffdbf8f4f2f7c463bd9088faf60d" sha1="fb6b4c43fc860c757891dc88fc14cffc630e6756" />
<rom name="Yoru no Nai Kuni 2 - Shingetsu no Hanayome - Original Soundtrack (Japan) (Disc 1) (Bundled with [PS4] Yoru no Nai Kuni 2 (Japan) (Premium Box)) (Track 06).bin" size="14533008" crc="eb9d1df2" md5="6f0b9d941abafcd802a2ffdbb9a9cbf7" sha1="d67884cc3cc8c3b8f051bd1932e95fe70e7e4771" />
<rom name="Yoru no Nai Kuni 2 - Shingetsu no Hanayome - Original Soundtrack (Japan) (Disc 1) (Bundled with [PS4] Yoru no Nai Kuni 2 (Japan) (Premium Box)) (Track 07).bin" size="19669776" crc="16462669" md5="4d149c7844a892d038ae4a12e1e74905" sha1="5c53edfa95e42e5acdaa079edf35bb9ac1c71a5d" />
<rom name="Yoru no Nai Kuni 2 - Shingetsu no Hanayome - Original Soundtrack (Japan) (Disc 1) (Bundled with [PS4] Yoru no Nai Kuni 2 (Japan) (Premium Box)) (Track 08).bin" size="26812800" crc="a9b59669" md5="26cfafb9b635ab24702c3e48e5a399bf" sha1="fc24269fe9e3475e70ffe8d7e7130c0587a4ffde" />
<rom name="Yoru no Nai Kuni 2 - Shingetsu no Hanayome - Original Soundtrack (Japan) (Disc 1) (Bundled with [PS4] Yoru no Nai Kuni 2 (Japan) (Premium Box)) (Track 09).bin" size="22868496" crc="37ad71cd" md5="782dcde537553425889d35567425a478" sha1="5dce627a6374e6da47777e8ee6a94808faa36bc2" />
<rom name="Yoru no Nai Kuni 2 - Shingetsu no Hanayome - Original Soundtrack (Japan) (Disc 1) (Bundled with [PS4] Yoru no Nai Kuni 2 (Japan) (Premium Box)) (Track 10).bin" size="1246560" crc="e4a6876c" md5="55aa4209965546978aaabe9e8cf8a128" sha1="f29c633c4f22b4ffce4895bae752039fa831a848" />
<rom name="Yoru no Nai Kuni 2 - Shingetsu no Hanayome - Original Soundtrack (Japan) (Disc 1) (Bundled with [PS4] Yoru no Nai Kuni 2 (Japan) (Premium Box)) (Track 11).bin" size="24794784" crc="a4ce2ec8" md5="6b92b015cdfbff894b6d06667ab68af3" sha1="215ea8338cab8714bbdef2b69c7377469db43616" />
<rom name="Yoru no Nai Kuni 2 - Shingetsu no Hanayome - Original Soundtrack (Japan) (Disc 1) (Bundled with [PS4] Yoru no Nai Kuni 2 (Japan) (Premium Box)) (Track 12).bin" size="21309120" crc="140c70a6" md5="ab23e0817f73f44f329de4223dbd0ad4" sha1="b2dfcb0470f76266cb315f6746efca6fc4efee07" />
<rom name="Yoru no Nai Kuni 2 - Shingetsu no Hanayome - Original Soundtrack (Japan) (Disc 1) (Bundled with [PS4] Yoru no Nai Kuni 2 (Japan) (Premium Box)) (Track 13).bin" size="32958576" crc="a5fa1842" md5="9a96d4e9461a960862589749543ab682" sha1="993dbc1af55a7320cdee7788f18677a078446c14" />
<rom name="Yoru no Nai Kuni 2 - Shingetsu no Hanayome - Original Soundtrack (Japan) (Disc 1) (Bundled with [PS4] Yoru no Nai Kuni 2 (Japan) (Premium Box)) (Track 14).bin" size="22887312" crc="53855cbf" md5="34f5ba634624cc1dc6ca41b04f2cafc2" sha1="6199e26db8682fa6e88d56ee467d7eb8879733c8" />
<rom name="Yoru no Nai Kuni 2 - Shingetsu no Hanayome - Original Soundtrack (Japan) (Disc 1) (Bundled with [PS4] Yoru no Nai Kuni 2 (Japan) (Premium Box)) (Track 15).bin" size="22936704" crc="f747c336" md5="aa0d4a9a0ec2e3fc45e5e61280617671" sha1="1317f88a6cdf2085b90263f9ef15f3bea2288854" />
<rom name="Yoru no Nai Kuni 2 - Shingetsu no Hanayome - Original Soundtrack (Japan) (Disc 1) (Bundled with [PS4] Yoru no Nai Kuni 2 (Japan) (Premium Box)) (Track 16).bin" size="30488976" crc="d1283d0a" md5="6f889e8d7e3cc070af64ea01564da94a" sha1="319fe2cd4775e54c5446f5723975d5e0332b7c81" />
<rom name="Yoru no Nai Kuni 2 - Shingetsu no Hanayome - Original Soundtrack (Japan) (Disc 1) (Bundled with [PS4] Yoru no Nai Kuni 2 (Japan) (Premium Box)) (Track 17).bin" size="18696048" crc="837e9a4c" md5="da89cafdd73d805abda05186cc0c9530" sha1="76e87e5aceec303d529827104f454c334834c1ac" />
<rom name="Yoru no Nai Kuni 2 - Shingetsu no Hanayome - Original Soundtrack (Japan) (Disc 1) (Bundled with [PS4] Yoru no Nai Kuni 2 (Japan) (Premium Box)) (Track 18).bin" size="17555328" crc="9348ca1b" md5="869fb1c34b4d7beb7e4c32df5889836e" sha1="5462a1973b73a820e6d732ff65c563d241f60e23" />
<rom name="Yoru no Nai Kuni 2 - Shingetsu no Hanayome - Original Soundtrack (Japan) (Disc 1) (Bundled with [PS4] Yoru no Nai Kuni 2 (Japan) (Premium Box)) (Track 19).bin" size="33059712" crc="5943f503" md5="a8f5a5c0d275a8a151b449e9687c326a" sha1="477c45e1839380a56cdaed1e05c916140c0bc0f5" />
<rom name="Yoru no Nai Kuni 2 - Shingetsu no Hanayome - Original Soundtrack (Japan) (Disc 1) (Bundled with [PS4] Yoru no Nai Kuni 2 (Japan) (Premium Box)) (Track 20).bin" size="21426720" crc="c7cffbcb" md5="fcb6472d7209cac64bcf081bcf407c9b" sha1="2f72157baddcff97ef31e9765ddfe4fb04db3607" />
<rom name="Yoru no Nai Kuni 2 - Shingetsu no Hanayome - Original Soundtrack (Japan) (Disc 1) (Bundled with [PS4] Yoru no Nai Kuni 2 (Japan) (Premium Box)) (Track 21).bin" size="27036240" crc="55254c79" md5="f115105682fa62681e1c519bb0914be3" sha1="88ef56445e9e45db203b672978009d51f2934579" />
<rom name="Yoru no Nai Kuni 2 - Shingetsu no Hanayome - Original Soundtrack (Japan) (Disc 1) (Bundled with [PS4] Yoru no Nai Kuni 2 (Japan) (Premium Box)) (Track 22).bin" size="13935600" crc="0185be86" md5="f2a583d047803a068efe6e8e414106fd" sha1="a407885540427dfb2b78f2f6a98b6379bf8349a8" />
<rom name="Yoru no Nai Kuni 2 - Shingetsu no Hanayome - Original Soundtrack (Japan) (Disc 1) (Bundled with [PS4] Yoru no Nai Kuni 2 (Japan) (Premium Box)) (Track 23).bin" size="7848624" crc="a361daf5" md5="da345b4639f4f38898037260314ac2fd" sha1="f507c98c2902991bcb1180fceac19de6e133c2ff" />
<rom name="Yoru no Nai Kuni 2 - Shingetsu no Hanayome - Original Soundtrack (Japan) (Disc 1) (Bundled with [PS4] Yoru no Nai Kuni 2 (Japan) (Premium Box)) (Track 24).bin" size="19171152" crc="184d6c57" md5="0f1e9277bd16ee98ca7a4b2ee4cff6a9" sha1="c2ab67bf79c778ee0462f7b8ca541c8bb640832a" />
<rom name="Yoru no Nai Kuni 2 - Shingetsu no Hanayome - Original Soundtrack (Japan) (Disc 1) (Bundled with [PS4] Yoru no Nai Kuni 2 (Japan) (Premium Box)) (Track 25).bin" size="18522000" crc="184d84ca" md5="6a28be7a736cb67722de08277b612f5f" sha1="fab5efe252109b16048872501e25e4670af81879" />
<rom name="Yoru no Nai Kuni 2 - Shingetsu no Hanayome - Original Soundtrack (Japan) (Disc 1) (Bundled with [PS4] Yoru no Nai Kuni 2 (Japan) (Premium Box)) (Track 26).bin" size="44824416" crc="ced0847c" md5="167362ca4061a3dad86b36aa26f93236" sha1="e1a44853782a5c50fb601c3547170362d802e606" />
<rom name="Yoru no Nai Kuni 2 - Shingetsu no Hanayome - Original Soundtrack (Japan) (Disc 1) (Bundled with [PS4] Yoru no Nai Kuni 2 (Japan) (Premium Box)) (Track 27).bin" size="5997600" crc="98a6c8ec" md5="f049e84572f95e88ba8e25448a5f73a2" sha1="b362229c17452177a98c32fe2f061c758cc0a68c" />
<rom name="Yoru no Nai Kuni 2 - Shingetsu no Hanayome - Original Soundtrack (Japan) (Disc 1) (Bundled with [PS4] Yoru no Nai Kuni 2 (Japan) (Premium Box)) (Track 28).bin" size="1625232" crc="34dc4a6c" md5="7b3821740415446687dcb7d9dd80640f" sha1="434ff3dcfd118ca537f2e8f521587108311b26a7" />
<rom name="Yoru no Nai Kuni 2 - Shingetsu no Hanayome - Original Soundtrack (Japan) (Disc 1) (Bundled with [PS4] Yoru no Nai Kuni 2 (Japan) (Premium Box)) (Track 29).bin" size="2097984" crc="545a8c15" md5="8ab182992f6b52ad04199d457487eb3c" sha1="93cff66b561f82f064cdeb0ce023b407cdffec4e" />
<rom name="Yoru no Nai Kuni 2 - Shingetsu no Hanayome - Original Soundtrack (Japan) (Disc 1) (Bundled with [PS4] Yoru no Nai Kuni 2 (Japan) (Premium Box)) (Track 30).bin" size="25563888" crc="420b3951" md5="06dacdab7bb9d6cd2021ff87583c99d9" sha1="24ef49e68d6c2b84973d9c3c79d3cd278de930e8" />
<rom name="Yoru no Nai Kuni 2 - Shingetsu no Hanayome - Original Soundtrack (Japan) (Disc 1) (Bundled with [PS4] Yoru no Nai Kuni 2 (Japan) (Premium Box)) (Track 31).bin" size="22755600" crc="d65cd94c" md5="84928ce849eca5a88bf03ee85ea3a714" sha1="532b8606f0539545a2fc190ef2128b8a2d29ee0d" />
<rom name="Yoru no Nai Kuni 2 - Shingetsu no Hanayome - Original Soundtrack (Japan) (Disc 1) (Bundled with [PS4] Yoru no Nai Kuni 2 (Japan) (Premium Box)) (Track 32).bin" size="21520800" crc="ce7747fb" md5="7b1d79254277bc61b7c412d1b09b5dbe" sha1="dc454034452c80440cebc15d3b442d623b22441d" />
<rom name="Yoru no Nai Kuni 2 - Shingetsu no Hanayome - Original Soundtrack (Japan) (Disc 1) (Bundled with [PS4] Yoru no Nai Kuni 2 (Japan) (Premium Box)) (Track 33).bin" size="18924192" crc="7833519b" md5="5aa77991bb1c3b9aacc2c19098ae258b" sha1="a54178c9db6958b8fa7d5703e6272807828bb742" />
<rom name="Yoru no Nai Kuni 2 - Shingetsu no Hanayome - Original Soundtrack (Japan) (Disc 1) (Bundled with [PS4] Yoru no Nai Kuni 2 (Japan) (Premium Box)) (Track 34).bin" size="26323584" crc="b72b55c2" md5="ad73e72d57bf6a866f0ef3956e1e2547" sha1="3d19395a110c839f5e907f498afc5625e07d2d35" />
<rom name="Yoru no Nai Kuni 2 - Shingetsu no Hanayome - Original Soundtrack (Japan) (Disc 1) (Bundled with [PS4] Yoru no Nai Kuni 2 (Japan) (Premium Box)) (Track 35).bin" size="15081024" crc="896c51b6" md5="ab8396be96e62678cd07390bd4795e6d" sha1="ba2ac2a8218f6fe2b3f0d73fc6ff4e5f4964702d" />
<rom name="Yoru no Nai Kuni 2 - Shingetsu no Hanayome - Original Soundtrack (Japan) (Disc 1) (Bundled with [PS4] Yoru no Nai Kuni 2 (Japan) (Premium Box)) (Track 36).bin" size="25227552" crc="6d68e530" md5="2aff74c9e5a27350b26141bf85dfe82a" sha1="7969d21c0ed87ebbc8a57ab80a615cb9fa2cb203" />
<rom name="Yoru no Nai Kuni 2 - Shingetsu no Hanayome - Original Soundtrack (Japan) (Disc 1) (Bundled with [PS4] Yoru no Nai Kuni 2 (Japan) (Premium Box)) (Track 37).bin" size="15292704" crc="513b473d" md5="ea8b5f4f22af4263219bd9ca9b4cbb1a" sha1="f4afc38e9f7dad050125f2daa76d28409c9042d5" />

    Cuesheet:

FILE "Yoru no Nai Kuni 2 - Shingetsu no Hanayome - Original Soundtrack (Japan) (Disc 1) (Bundled with [PS4] Yoru no Nai Kuni 2 (Japan) (Premium Box)) (Track 01).bin" BINARY
  TRACK 01 AUDIO
    ISRC JPD101750030
    INDEX 01 00:00:00
FILE "Yoru no Nai Kuni 2 - Shingetsu no Hanayome - Original Soundtrack (Japan) (Disc 1) (Bundled with [PS4] Yoru no Nai Kuni 2 (Japan) (Premium Box)) (Track 02).bin" BINARY
  TRACK 02 AUDIO
    ISRC JPD101750031
    INDEX 01 00:00:00
FILE "Yoru no Nai Kuni 2 - Shingetsu no Hanayome - Original Soundtrack (Japan) (Disc 1) (Bundled with [PS4] Yoru no Nai Kuni 2 (Japan) (Premium Box)) (Track 03).bin" BINARY
  TRACK 03 AUDIO
    ISRC JPD101750032
    INDEX 01 00:00:00
FILE "Yoru no Nai Kuni 2 - Shingetsu no Hanayome - Original Soundtrack (Japan) (Disc 1) (Bundled with [PS4] Yoru no Nai Kuni 2 (Japan) (Premium Box)) (Track 04).bin" BINARY
  TRACK 04 AUDIO
    ISRC JPD101750033
    INDEX 01 00:00:00
FILE "Yoru no Nai Kuni 2 - Shingetsu no Hanayome - Original Soundtrack (Japan) (Disc 1) (Bundled with [PS4] Yoru no Nai Kuni 2 (Japan) (Premium Box)) (Track 05).bin" BINARY
  TRACK 05 AUDIO
    ISRC JPD101750034
    INDEX 01 00:00:00
FILE "Yoru no Nai Kuni 2 - Shingetsu no Hanayome - Original Soundtrack (Japan) (Disc 1) (Bundled with [PS4] Yoru no Nai Kuni 2 (Japan) (Premium Box)) (Track 06).bin" BINARY
  TRACK 06 AUDIO
    ISRC JPD101750035
    INDEX 01 00:00:00
FILE "Yoru no Nai Kuni 2 - Shingetsu no Hanayome - Original Soundtrack (Japan) (Disc 1) (Bundled with [PS4] Yoru no Nai Kuni 2 (Japan) (Premium Box)) (Track 07).bin" BINARY
  TRACK 07 AUDIO
    ISRC JPD101750036
    INDEX 01 00:00:00
FILE "Yoru no Nai Kuni 2 - Shingetsu no Hanayome - Original Soundtrack (Japan) (Disc 1) (Bundled with [PS4] Yoru no Nai Kuni 2 (Japan) (Premium Box)) (Track 08).bin" BINARY
  TRACK 08 AUDIO
    ISRC JPD101750037
    INDEX 01 00:00:00
FILE "Yoru no Nai Kuni 2 - Shingetsu no Hanayome - Original Soundtrack (Japan) (Disc 1) (Bundled with [PS4] Yoru no Nai Kuni 2 (Japan) (Premium Box)) (Track 09).bin" BINARY
  TRACK 09 AUDIO
    ISRC JPD101750038
    INDEX 01 00:00:00
FILE "Yoru no Nai Kuni 2 - Shingetsu no Hanayome - Original Soundtrack (Japan) (Disc 1) (Bundled with [PS4] Yoru no Nai Kuni 2 (Japan) (Premium Box)) (Track 10).bin" BINARY
  TRACK 10 AUDIO
    ISRC JPD101750039
    INDEX 01 00:00:00
FILE "Yoru no Nai Kuni 2 - Shingetsu no Hanayome - Original Soundtrack (Japan) (Disc 1) (Bundled with [PS4] Yoru no Nai Kuni 2 (Japan) (Premium Box)) (Track 11).bin" BINARY
  TRACK 11 AUDIO
    ISRC JPD101750040
    INDEX 01 00:00:00
FILE "Yoru no Nai Kuni 2 - Shingetsu no Hanayome - Original Soundtrack (Japan) (Disc 1) (Bundled with [PS4] Yoru no Nai Kuni 2 (Japan) (Premium Box)) (Track 12).bin" BINARY
  TRACK 12 AUDIO
    ISRC JPD101750041
    INDEX 01 00:00:00
FILE "Yoru no Nai Kuni 2 - Shingetsu no Hanayome - Original Soundtrack (Japan) (Disc 1) (Bundled with [PS4] Yoru no Nai Kuni 2 (Japan) (Premium Box)) (Track 13).bin" BINARY
  TRACK 13 AUDIO
    ISRC JPD101750042
    INDEX 01 00:00:00
FILE "Yoru no Nai Kuni 2 - Shingetsu no Hanayome - Original Soundtrack (Japan) (Disc 1) (Bundled with [PS4] Yoru no Nai Kuni 2 (Japan) (Premium Box)) (Track 14).bin" BINARY
  TRACK 14 AUDIO
    ISRC JPD101750043
    INDEX 01 00:00:00
FILE "Yoru no Nai Kuni 2 - Shingetsu no Hanayome - Original Soundtrack (Japan) (Disc 1) (Bundled with [PS4] Yoru no Nai Kuni 2 (Japan) (Premium Box)) (Track 15).bin" BINARY
  TRACK 15 AUDIO
    ISRC JPD101750044
    INDEX 01 00:00:00
FILE "Yoru no Nai Kuni 2 - Shingetsu no Hanayome - Original Soundtrack (Japan) (Disc 1) (Bundled with [PS4] Yoru no Nai Kuni 2 (Japan) (Premium Box)) (Track 16).bin" BINARY
  TRACK 16 AUDIO
    ISRC JPD101750045
    INDEX 01 00:00:00
FILE "Yoru no Nai Kuni 2 - Shingetsu no Hanayome - Original Soundtrack (Japan) (Disc 1) (Bundled with [PS4] Yoru no Nai Kuni 2 (Japan) (Premium Box)) (Track 17).bin" BINARY
  TRACK 17 AUDIO
    ISRC JPD101750046
    INDEX 01 00:00:00
FILE "Yoru no Nai Kuni 2 - Shingetsu no Hanayome - Original Soundtrack (Japan) (Disc 1) (Bundled with [PS4] Yoru no Nai Kuni 2 (Japan) (Premium Box)) (Track 18).bin" BINARY
  TRACK 18 AUDIO
    ISRC JPD101750047
    INDEX 01 00:00:00
FILE "Yoru no Nai Kuni 2 - Shingetsu no Hanayome - Original Soundtrack (Japan) (Disc 1) (Bundled with [PS4] Yoru no Nai Kuni 2 (Japan) (Premium Box)) (Track 19).bin" BINARY
  TRACK 19 AUDIO
    ISRC JPD101750048
    INDEX 01 00:00:00
FILE "Yoru no Nai Kuni 2 - Shingetsu no Hanayome - Original Soundtrack (Japan) (Disc 1) (Bundled with [PS4] Yoru no Nai Kuni 2 (Japan) (Premium Box)) (Track 20).bin" BINARY
  TRACK 20 AUDIO
    ISRC JPD101750049
    INDEX 01 00:00:00
FILE "Yoru no Nai Kuni 2 - Shingetsu no Hanayome - Original Soundtrack (Japan) (Disc 1) (Bundled with [PS4] Yoru no Nai Kuni 2 (Japan) (Premium Box)) (Track 21).bin" BINARY
  TRACK 21 AUDIO
    ISRC JPD101750050
    INDEX 01 00:00:00
FILE "Yoru no Nai Kuni 2 - Shingetsu no Hanayome - Original Soundtrack (Japan) (Disc 1) (Bundled with [PS4] Yoru no Nai Kuni 2 (Japan) (Premium Box)) (Track 22).bin" BINARY
  TRACK 22 AUDIO
    ISRC JPD101750051
    INDEX 01 00:00:00
FILE "Yoru no Nai Kuni 2 - Shingetsu no Hanayome - Original Soundtrack (Japan) (Disc 1) (Bundled with [PS4] Yoru no Nai Kuni 2 (Japan) (Premium Box)) (Track 23).bin" BINARY
  TRACK 23 AUDIO
    ISRC JPD101750052
    INDEX 01 00:00:00
FILE "Yoru no Nai Kuni 2 - Shingetsu no Hanayome - Original Soundtrack (Japan) (Disc 1) (Bundled with [PS4] Yoru no Nai Kuni 2 (Japan) (Premium Box)) (Track 24).bin" BINARY
  TRACK 24 AUDIO
    ISRC JPD101750053
    INDEX 01 00:00:00
FILE "Yoru no Nai Kuni 2 - Shingetsu no Hanayome - Original Soundtrack (Japan) (Disc 1) (Bundled with [PS4] Yoru no Nai Kuni 2 (Japan) (Premium Box)) (Track 25).bin" BINARY
  TRACK 25 AUDIO
    ISRC JPD101750054
    INDEX 01 00:00:00
FILE "Yoru no Nai Kuni 2 - Shingetsu no Hanayome - Original Soundtrack (Japan) (Disc 1) (Bundled with [PS4] Yoru no Nai Kuni 2 (Japan) (Premium Box)) (Track 26).bin" BINARY
  TRACK 26 AUDIO
    ISRC JPD101750055
    INDEX 01 00:00:00
FILE "Yoru no Nai Kuni 2 - Shingetsu no Hanayome - Original Soundtrack (Japan) (Disc 1) (Bundled with [PS4] Yoru no Nai Kuni 2 (Japan) (Premium Box)) (Track 27).bin" BINARY
  TRACK 27 AUDIO
    ISRC JPD101750056
    INDEX 01 00:00:00
FILE "Yoru no Nai Kuni 2 - Shingetsu no Hanayome - Original Soundtrack (Japan) (Disc 1) (Bundled with [PS4] Yoru no Nai Kuni 2 (Japan) (Premium Box)) (Track 28).bin" BINARY
  TRACK 28 AUDIO
    ISRC JPD101750057
    INDEX 01 00:00:00
FILE "Yoru no Nai Kuni 2 - Shingetsu no Hanayome - Original Soundtrack (Japan) (Disc 1) (Bundled with [PS4] Yoru no Nai Kuni 2 (Japan) (Premium Box)) (Track 29).bin" BINARY
  TRACK 29 AUDIO
    ISRC JPD101750058
    INDEX 01 00:00:00
FILE "Yoru no Nai Kuni 2 - Shingetsu no Hanayome - Original Soundtrack (Japan) (Disc 1) (Bundled with [PS4] Yoru no Nai Kuni 2 (Japan) (Premium Box)) (Track 30).bin" BINARY
  TRACK 30 AUDIO
    ISRC JPD101750059
    INDEX 01 00:00:00
FILE "Yoru no Nai Kuni 2 - Shingetsu no Hanayome - Original Soundtrack (Japan) (Disc 1) (Bundled with [PS4] Yoru no Nai Kuni 2 (Japan) (Premium Box)) (Track 31).bin" BINARY
  TRACK 31 AUDIO
    ISRC JPD101750060
    INDEX 01 00:00:00
FILE "Yoru no Nai Kuni 2 - Shingetsu no Hanayome - Original Soundtrack (Japan) (Disc 1) (Bundled with [PS4] Yoru no Nai Kuni 2 (Japan) (Premium Box)) (Track 32).bin" BINARY
  TRACK 32 AUDIO
    ISRC JPD101750061
    INDEX 01 00:00:00
FILE "Yoru no Nai Kuni 2 - Shingetsu no Hanayome - Original Soundtrack (Japan) (Disc 1) (Bundled with [PS4] Yoru no Nai Kuni 2 (Japan) (Premium Box)) (Track 33).bin" BINARY
  TRACK 33 AUDIO
    ISRC JPD101750062
    INDEX 01 00:00:00
FILE "Yoru no Nai Kuni 2 - Shingetsu no Hanayome - Original Soundtrack (Japan) (Disc 1) (Bundled with [PS4] Yoru no Nai Kuni 2 (Japan) (Premium Box)) (Track 34).bin" BINARY
  TRACK 34 AUDIO
    ISRC JPD101750063
    INDEX 01 00:00:00
FILE "Yoru no Nai Kuni 2 - Shingetsu no Hanayome - Original Soundtrack (Japan) (Disc 1) (Bundled with [PS4] Yoru no Nai Kuni 2 (Japan) (Premium Box)) (Track 35).bin" BINARY
  TRACK 35 AUDIO
    ISRC JPD101750064
    INDEX 01 00:00:00
FILE "Yoru no Nai Kuni 2 - Shingetsu no Hanayome - Original Soundtrack (Japan) (Disc 1) (Bundled with [PS4] Yoru no Nai Kuni 2 (Japan) (Premium Box)) (Track 36).bin" BINARY
  TRACK 36 AUDIO
    ISRC JPD101750065
    INDEX 01 00:00:00
FILE "Yoru no Nai Kuni 2 - Shingetsu no Hanayome - Original Soundtrack (Japan) (Disc 1) (Bundled with [PS4] Yoru no Nai Kuni 2 (Japan) (Premium Box)) (Track 37).bin" BINARY
  TRACK 37 AUDIO
    ISRC JPD101750066
    INDEX 01 00:00:00

    Write Offset: 0

Logs
https://mega.nz/file/mF82VDbR#NeiqfF34w … pWojzTdWmQ

Disc 2 Match
http://redump.org/disc/66090/


Common Disc Info:
    Title: Yoru no Nai Kuni: Official Sound Track (Disc 2)
    Foreign Title (Non-latin): よるのないくに オフィシャルサウンドトラック
    Disc Number / Letter: 2
    Disc Title: 
    System: Audio CD
    Media Type: CD-ROM
    Category: Bonus Discs
    Matching IDs: 66090
    Region: Japan
    Languages: Klingon (CHANGE THIS)
    Disc Serial: KTGS-40300CD-2

    Ringcode Information:
        Data Side Mastering Code (laser branded/etched): KTGS-40300CD-2    -RC01-
        Data Side Mastering SID Code: IFPI LZ49
        Data Side Toolstamp or Mastering Code (engraved/stamped): 
        Data Side Mould SID Code: IFPI 7607
        Data Side Additional Mould: 
        Label Side Mould SID Code: 
        Label Side Additional Mould: 
    Barcode: 4 988615 067990
    Error Count: 0
    Comments: 
    Contents:

01 Hotel Ende 2:32
02 教皇 1:24
03 Castle in Dusk 2:14
04 desire 1:39
05 Rhapsodia 2:28
06 天衣無双 6:37
07 beelze 2:18
08 婉麗 1:47
09 いつもの景色、いつものキミ 1:52
10 Reptile Queen 1:56
11 Edge of Apocalypse 2:52
12 合わせ鏡と道化 1:36
13 The Girl of the Opera 2:03
14 arietta 1:17
15 悲憤慷慨 3:36
16 錦上に花を添えるが如く 2:32
17 星灯り、ふたつ 1:43
18 holy 1:39
19 Bloody Blue 2:47
20 鐘響く深淵へ 2:02
21 互いの想いを胸に 0:40
22 Who wishes dawn? 3:23
23 Regretto 5:02
24 まどろみ 2:04
25 Eve 4:52
26 ferim de Grenstrats 0:36
27 ferim de Grenstrats-N 0:36
28 ferim de Tsukito 0:35
29 ferim de Tsukito-N 0:55
30 ferim de FantomX 0:42
31 ferim de FantomX-N 0:42
32 ferim de Heizdral 0:37
33 ferim de Noirdral-N 1:20
34 ferim de 神威 0:45
35 ferim de 神威-N 0:45
36 predge -fyse- 1:20
37 predge -elt- 1:18
38 Regret -plei- 0:52

Version and Editions:
    Version: 
    Edition/Release: Premium Box

Extras:
    Primary Volume Descriptor (PVD): Disc has no PVD

Tracks and Write Offsets:
    DAT:

<rom name="Yoru no Nai Kuni - Official Sound Track (Japan) (Disc 2) (Bundled with [PS4] Yoru no Nai Kuni (Japan) (Premium Box)) (Track 01).bin" size="26410608" crc="3f83df5d" md5="95390c2129f9674f411d9c5cc96e4519" sha1="5b96191078103bbb9e4f32bd5f0b7026576c6238" />
<rom name="Yoru no Nai Kuni - Official Sound Track (Japan) (Disc 2) (Bundled with [PS4] Yoru no Nai Kuni (Japan) (Premium Box)) (Track 02).bin" size="14862288" crc="9c2f413f" md5="43ce8406f89cc57d92ba66676f80a774" sha1="46375b043bb5b3ebb75146425e82d65a4c043bbe" />
<rom name="Yoru no Nai Kuni - Official Sound Track (Japan) (Disc 2) (Bundled with [PS4] Yoru no Nai Kuni (Japan) (Premium Box)) (Track 03).bin" size="23557632" crc="9f26c347" md5="343bf264f5a8898da1a3f27390f2e3db" sha1="f5c3e9766c96af6e992ffd633352213ab4de417a" />
<rom name="Yoru no Nai Kuni - Official Sound Track (Japan) (Disc 2) (Bundled with [PS4] Yoru no Nai Kuni (Japan) (Premium Box)) (Track 04).bin" size="17508288" crc="df9940ae" md5="cd3259422f746afd52a09cad1e88a64d" sha1="328f7edeeced5b671e6376e2862d85d5473eed2c" />
<rom name="Yoru no Nai Kuni - Official Sound Track (Japan) (Disc 2) (Bundled with [PS4] Yoru no Nai Kuni (Japan) (Premium Box)) (Track 05).bin" size="26069568" crc="424cdbc1" md5="62ad2cc2372536940898459337fbe791" sha1="fc028e05793576d4e19bcaab7b59eb8b5b256018" />
<rom name="Yoru no Nai Kuni - Official Sound Track (Japan) (Disc 2) (Bundled with [PS4] Yoru no Nai Kuni (Japan) (Premium Box)) (Track 06).bin" size="69983760" crc="88f7ba3d" md5="ad08ca020c7cc15ed046a4a7736aa21f" sha1="574686ff4b802bbed4c6107b6c1088a37307c536" />
<rom name="Yoru no Nai Kuni - Official Sound Track (Japan) (Disc 2) (Bundled with [PS4] Yoru no Nai Kuni (Japan) (Premium Box)) (Track 07).bin" size="24404352" crc="f82a391f" md5="af993cc7bc3bd87f0bfa4c7ab0d70d56" sha1="2acb6dbfca564107e4bdfaa0a1921a85508cc89e" />
<rom name="Yoru no Nai Kuni - Official Sound Track (Japan) (Disc 2) (Bundled with [PS4] Yoru no Nai Kuni (Japan) (Premium Box)) (Track 08).bin" size="18898320" crc="6b938fa9" md5="ea2960af29bb6415095b6faab68ec73b" sha1="b07b83252805fbbb8c89f1fdf284eb9f6e70c962" />
<rom name="Yoru no Nai Kuni - Official Sound Track (Japan) (Disc 2) (Bundled with [PS4] Yoru no Nai Kuni (Japan) (Premium Box)) (Track 09).bin" size="19730928" crc="679e2065" md5="c8d75d5325718b1a23b21fb74557e5f8" sha1="da05b32d7c23b5cc4c0ed0003c7bf650c7ea3b41" />
<rom name="Yoru no Nai Kuni - Official Sound Track (Japan) (Disc 2) (Bundled with [PS4] Yoru no Nai Kuni (Japan) (Premium Box)) (Track 10).bin" size="20474160" crc="32113b83" md5="1081253af2cffa1793992abf34cae864" sha1="395af684fd25245e8a13464e9592037d38e7949f" />
<rom name="Yoru no Nai Kuni - Official Sound Track (Japan) (Disc 2) (Bundled with [PS4] Yoru no Nai Kuni (Japan) (Premium Box)) (Track 11).bin" size="30253776" crc="78aa17ab" md5="d49b73cd4e25fc58f9f5923c3dd579fe" sha1="c5dd46d49cfbdcfbbc69739d961168db30a759b2" />
<rom name="Yoru no Nai Kuni - Official Sound Track (Japan) (Disc 2) (Bundled with [PS4] Yoru no Nai Kuni (Japan) (Premium Box)) (Track 12).bin" size="16960272" crc="1844c267" md5="ff00f6de0519c9dc6545f7ba3b9e6400" sha1="9cd31b263f81aaab9ef71d3a9a4a55de28088052" />
<rom name="Yoru no Nai Kuni - Official Sound Track (Japan) (Disc 2) (Bundled with [PS4] Yoru no Nai Kuni (Japan) (Premium Box)) (Track 13).bin" size="21758352" crc="7e66bc20" md5="94b16f305dcb89964c9d7be14503b576" sha1="d5093473d1b0d7070d0f68825107aabedbd9a58e" />
<rom name="Yoru no Nai Kuni - Official Sound Track (Japan) (Disc 2) (Bundled with [PS4] Yoru no Nai Kuni (Japan) (Premium Box)) (Track 14).bin" size="13632192" crc="5566b620" md5="095eca77b0288374fdbd4dad048baddc" sha1="56b5ef4b0e752e0299df4093570740f50d909804" />
<rom name="Yoru no Nai Kuni - Official Sound Track (Japan) (Disc 2) (Bundled with [PS4] Yoru no Nai Kuni (Japan) (Premium Box)) (Track 15).bin" size="38081232" crc="915bae67" md5="5e5c4410be834bb6d245c98184d156b7" sha1="8eb6d6557236938aea6475b913a7b20a39b4f20d" />
<rom name="Yoru no Nai Kuni - Official Sound Track (Japan) (Disc 2) (Bundled with [PS4] Yoru no Nai Kuni (Japan) (Premium Box)) (Track 16).bin" size="26768112" crc="98cea578" md5="8350eb7f76000b8e986841af475e1236" sha1="66a4445d3fa721590cd9dd078e9184961d448016" />
<rom name="Yoru no Nai Kuni - Official Sound Track (Japan) (Disc 2) (Bundled with [PS4] Yoru no Nai Kuni (Japan) (Premium Box)) (Track 17).bin" size="18126864" crc="77d5bcfe" md5="c60eb92f5f55aa06337f279e09df9438" sha1="a21a79ba2c231ef21fb84a73c372e42bcfb071ff" />
<rom name="Yoru no Nai Kuni - Official Sound Track (Japan) (Disc 2) (Bundled with [PS4] Yoru no Nai Kuni (Japan) (Premium Box)) (Track 18).bin" size="17461248" crc="a99841cf" md5="d2d021434ed3345ac671405f2ffad755" sha1="c7700208ff42293e42acc772e0a4cb9d14261c8d" />
<rom name="Yoru no Nai Kuni - Official Sound Track (Japan) (Disc 2) (Bundled with [PS4] Yoru no Nai Kuni (Japan) (Premium Box)) (Track 19).bin" size="29482320" crc="0ea338a5" md5="1c931819eda0b561ce181706703d0903" sha1="521f3e05289128206c1be8a630ad5a27ed983f33" />
<rom name="Yoru no Nai Kuni - Official Sound Track (Japan) (Disc 2) (Bundled with [PS4] Yoru no Nai Kuni (Japan) (Premium Box)) (Track 20).bin" size="21516096" crc="8d2e9bdd" md5="eef672ce434a7d8f1b6de3dd6c4a4d27" sha1="d6fe07e7526058d8f2b8608e83958085749a1e14" />
<rom name="Yoru no Nai Kuni - Official Sound Track (Japan) (Disc 2) (Bundled with [PS4] Yoru no Nai Kuni (Japan) (Premium Box)) (Track 21).bin" size="6990144" crc="1233733a" md5="6c1f99b1c0b6c7271becc5b4e2c3a8c6" sha1="1edc88b1fa1e6e63ed40019f612ef0c844bfe71b" />
<rom name="Yoru no Nai Kuni - Official Sound Track (Japan) (Disc 2) (Bundled with [PS4] Yoru no Nai Kuni (Japan) (Premium Box)) (Track 22).bin" size="35729232" crc="0ff852a4" md5="c652a739ca1bd406c21c3fb08152c1ac" sha1="5f2914f2bff31f4c714c92a43f8e92dfd53615ce" />
<rom name="Yoru no Nai Kuni - Official Sound Track (Japan) (Disc 2) (Bundled with [PS4] Yoru no Nai Kuni (Japan) (Premium Box)) (Track 23).bin" size="53228112" crc="21074f1b" md5="28a475a92be75e13866735089bd4683e" sha1="0532526f1064ef556ca64b339dacd8ce8de3238c" />
<rom name="Yoru no Nai Kuni - Official Sound Track (Japan) (Disc 2) (Bundled with [PS4] Yoru no Nai Kuni (Japan) (Premium Box)) (Track 24).bin" size="21805392" crc="93968371" md5="9c628977488007b0f71557d248109b93" sha1="d6480be48664ac0c3a3154178b31ab835ced603b" />
<rom name="Yoru no Nai Kuni - Official Sound Track (Japan) (Disc 2) (Bundled with [PS4] Yoru no Nai Kuni (Japan) (Premium Box)) (Track 25).bin" size="51562896" crc="f0a4e267" md5="37f52fe893c5e37ed5b6c081458683ce" sha1="3e1c1430e73679ae84541e17f8fd9afbfb38fe94" />
<rom name="Yoru no Nai Kuni - Official Sound Track (Japan) (Disc 2) (Bundled with [PS4] Yoru no Nai Kuni (Japan) (Premium Box)) (Track 26).bin" size="6406848" crc="fd9ccdb7" md5="97188c6481ee57a7f165fa140254c01b" sha1="9bb82cdc4dd423e4bda908699f0c018433277039" />
<rom name="Yoru no Nai Kuni - Official Sound Track (Japan) (Disc 2) (Bundled with [PS4] Yoru no Nai Kuni (Japan) (Premium Box)) (Track 27).bin" size="6406848" crc="a6a04966" md5="92ae72beac4a18138c5cd9aae9f2bd79" sha1="c38f2430c39d55b5a0e1ae4af8c5728c880ca403" />
<rom name="Yoru no Nai Kuni - Official Sound Track (Japan) (Disc 2) (Bundled with [PS4] Yoru no Nai Kuni (Japan) (Premium Box)) (Track 28).bin" size="6211632" crc="df533f19" md5="b6ce3bbdfc2ee9b942904d1df321c3ab" sha1="74e2919f54394abf59632887a2d53b1821bbe2e8" />
<rom name="Yoru no Nai Kuni - Official Sound Track (Japan) (Disc 2) (Bundled with [PS4] Yoru no Nai Kuni (Japan) (Premium Box)) (Track 29).bin" size="9643200" crc="47172e13" md5="8b9133038620e16861ae12254f770313" sha1="c29cc7a3f21d2be6ccb51c78f84bb54a12478466" />
<rom name="Yoru no Nai Kuni - Official Sound Track (Japan) (Disc 2) (Bundled with [PS4] Yoru no Nai Kuni (Japan) (Premium Box)) (Track 30).bin" size="7397040" crc="5ddd8a48" md5="e579e528f9c9bca17f97564eb0e3425f" sha1="fc0255a2e9a3bedad5ee3418a55bce02a4d9f653" />
<rom name="Yoru no Nai Kuni - Official Sound Track (Japan) (Disc 2) (Bundled with [PS4] Yoru no Nai Kuni (Japan) (Premium Box)) (Track 31).bin" size="7397040" crc="34051cb4" md5="ce0faf9b4d72c8a3d8114df7c1214903" sha1="b3657d20a688f54746a4f079f72565505e26f3a2" />
<rom name="Yoru no Nai Kuni - Official Sound Track (Japan) (Disc 2) (Bundled with [PS4] Yoru no Nai Kuni (Japan) (Premium Box)) (Track 32).bin" size="6540912" crc="b613b87d" md5="eccce1a6bf4548f367501a72355a5799" sha1="899e761f8947648d864a232b3f010c5311e662f2" />
<rom name="Yoru no Nai Kuni - Official Sound Track (Japan) (Disc 2) (Bundled with [PS4] Yoru no Nai Kuni (Japan) (Premium Box)) (Track 33).bin" size="14064960" crc="7ff1af24" md5="d237dbff287db532f8bb0882ca317ca0" sha1="2c14039f2bc3f4048dcdba8497de1061c3550a3c" />
<rom name="Yoru no Nai Kuni - Official Sound Track (Japan) (Disc 2) (Bundled with [PS4] Yoru no Nai Kuni (Japan) (Premium Box)) (Track 34).bin" size="7858032" crc="cbc14675" md5="b0d2341f18652f779e567416aa465284" sha1="3c0a550ef9b793db687205e54273b87ecbea2082" />
<rom name="Yoru no Nai Kuni - Official Sound Track (Japan) (Disc 2) (Bundled with [PS4] Yoru no Nai Kuni (Japan) (Premium Box)) (Track 35).bin" size="7858032" crc="f1cc0ca8" md5="a78d43c2ba1b110bd0850cd1db37936d" sha1="2696ad13c2848a289627e530c410b79d3fdf2ae0" />
<rom name="Yoru no Nai Kuni - Official Sound Track (Japan) (Disc 2) (Bundled with [PS4] Yoru no Nai Kuni (Japan) (Premium Box)) (Track 36).bin" size="14079072" crc="81e9e070" md5="564a8db4fc9c6c4ba6fb5d897026775e" sha1="539d0d6250c4c0ad1a97166fef6263c6680de788" />
<rom name="Yoru no Nai Kuni - Official Sound Track (Japan) (Disc 2) (Bundled with [PS4] Yoru no Nai Kuni (Japan) (Premium Box)) (Track 37).bin" size="13806240" crc="2d705c2b" md5="1613bbe4539f6099a2fa3bd1c7eaacad" sha1="38b3e8926d4b467e747675e8131574ae7894bd7d" />
<rom name="Yoru no Nai Kuni - Official Sound Track (Japan) (Disc 2) (Bundled with [PS4] Yoru no Nai Kuni (Japan) (Premium Box)) (Track 38).bin" size="9478560" crc="548e346b" md5="9b8b0fe972aafdfb8b78c6b693bf8782" sha1="d6378b3c06251908c2bd7e710489c0bc6952d4e8" />

    Cuesheet:

FILE "Yoru no Nai Kuni - Official Sound Track (Japan) (Disc 2) (Bundled with [PS4] Yoru no Nai Kuni (Japan) (Premium Box)) (Track 01).bin" BINARY
  TRACK 01 AUDIO
    ISRC JPD101550410
    INDEX 01 00:00:00
FILE "Yoru no Nai Kuni - Official Sound Track (Japan) (Disc 2) (Bundled with [PS4] Yoru no Nai Kuni (Japan) (Premium Box)) (Track 02).bin" BINARY
  TRACK 02 AUDIO
    ISRC JPD101550411
    INDEX 00 00:00:00
    INDEX 01 00:02:11
FILE "Yoru no Nai Kuni - Official Sound Track (Japan) (Disc 2) (Bundled with [PS4] Yoru no Nai Kuni (Japan) (Premium Box)) (Track 03).bin" BINARY
  TRACK 03 AUDIO
    ISRC JPD101550412
    INDEX 00 00:00:00
    INDEX 01 00:02:00
FILE "Yoru no Nai Kuni - Official Sound Track (Japan) (Disc 2) (Bundled with [PS4] Yoru no Nai Kuni (Japan) (Premium Box)) (Track 04).bin" BINARY
  TRACK 04 AUDIO
    ISRC JPD101550413
    INDEX 00 00:00:00
    INDEX 01 00:02:00
FILE "Yoru no Nai Kuni - Official Sound Track (Japan) (Disc 2) (Bundled with [PS4] Yoru no Nai Kuni (Japan) (Premium Box)) (Track 05).bin" BINARY
  TRACK 05 AUDIO
    ISRC JPD101550414
    INDEX 00 00:00:00
    INDEX 01 00:02:00
FILE "Yoru no Nai Kuni - Official Sound Track (Japan) (Disc 2) (Bundled with [PS4] Yoru no Nai Kuni (Japan) (Premium Box)) (Track 06).bin" BINARY
  TRACK 06 AUDIO
    ISRC JPD101550415
    INDEX 00 00:00:00
    INDEX 01 00:02:00
FILE "Yoru no Nai Kuni - Official Sound Track (Japan) (Disc 2) (Bundled with [PS4] Yoru no Nai Kuni (Japan) (Premium Box)) (Track 07).bin" BINARY
  TRACK 07 AUDIO
    ISRC JPD101550416
    INDEX 00 00:00:00
    INDEX 01 00:02:00
FILE "Yoru no Nai Kuni - Official Sound Track (Japan) (Disc 2) (Bundled with [PS4] Yoru no Nai Kuni (Japan) (Premium Box)) (Track 08).bin" BINARY
  TRACK 08 AUDIO
    ISRC JPD101550417
    INDEX 00 00:00:00
    INDEX 01 00:02:00
FILE "Yoru no Nai Kuni - Official Sound Track (Japan) (Disc 2) (Bundled with [PS4] Yoru no Nai Kuni (Japan) (Premium Box)) (Track 09).bin" BINARY
  TRACK 09 AUDIO
    ISRC JPD101550418
    INDEX 00 00:00:00
    INDEX 01 00:02:00
FILE "Yoru no Nai Kuni - Official Sound Track (Japan) (Disc 2) (Bundled with [PS4] Yoru no Nai Kuni (Japan) (Premium Box)) (Track 10).bin" BINARY
  TRACK 10 AUDIO
    ISRC JPD101550419
    INDEX 00 00:00:00
    INDEX 01 00:02:00
FILE "Yoru no Nai Kuni - Official Sound Track (Japan) (Disc 2) (Bundled with [PS4] Yoru no Nai Kuni (Japan) (Premium Box)) (Track 11).bin" BINARY
  TRACK 11 AUDIO
    ISRC JPD101550420
    INDEX 00 00:00:00
    INDEX 01 00:02:00
FILE "Yoru no Nai Kuni - Official Sound Track (Japan) (Disc 2) (Bundled with [PS4] Yoru no Nai Kuni (Japan) (Premium Box)) (Track 12).bin" BINARY
  TRACK 12 AUDIO
    ISRC JPD101550421
    INDEX 00 00:00:00
    INDEX 01 00:02:00
FILE "Yoru no Nai Kuni - Official Sound Track (Japan) (Disc 2) (Bundled with [PS4] Yoru no Nai Kuni (Japan) (Premium Box)) (Track 13).bin" BINARY
  TRACK 13 AUDIO
    ISRC JPD101550422
    INDEX 00 00:00:00
    INDEX 01 00:02:00
FILE "Yoru no Nai Kuni - Official Sound Track (Japan) (Disc 2) (Bundled with [PS4] Yoru no Nai Kuni (Japan) (Premium Box)) (Track 14).bin" BINARY
  TRACK 14 AUDIO
    ISRC JPD101550423
    INDEX 00 00:00:00
    INDEX 01 00:02:00
FILE "Yoru no Nai Kuni - Official Sound Track (Japan) (Disc 2) (Bundled with [PS4] Yoru no Nai Kuni (Japan) (Premium Box)) (Track 15).bin" BINARY
  TRACK 15 AUDIO
    ISRC JPD101550424
    INDEX 00 00:00:00
    INDEX 01 00:02:00
FILE "Yoru no Nai Kuni - Official Sound Track (Japan) (Disc 2) (Bundled with [PS4] Yoru no Nai Kuni (Japan) (Premium Box)) (Track 16).bin" BINARY
  TRACK 16 AUDIO
    ISRC JPD101550425
    INDEX 00 00:00:00
    INDEX 01 00:02:00
FILE "Yoru no Nai Kuni - Official Sound Track (Japan) (Disc 2) (Bundled with [PS4] Yoru no Nai Kuni (Japan) (Premium Box)) (Track 17).bin" BINARY
  TRACK 17 AUDIO
    ISRC JPD101550426
    INDEX 00 00:00:00
    INDEX 01 00:02:00
FILE "Yoru no Nai Kuni - Official Sound Track (Japan) (Disc 2) (Bundled with [PS4] Yoru no Nai Kuni (Japan) (Premium Box)) (Track 18).bin" BINARY
  TRACK 18 AUDIO
    ISRC JPD101550427
    INDEX 00 00:00:00
    INDEX 01 00:02:00
FILE "Yoru no Nai Kuni - Official Sound Track (Japan) (Disc 2) (Bundled with [PS4] Yoru no Nai Kuni (Japan) (Premium Box)) (Track 19).bin" BINARY
  TRACK 19 AUDIO
    ISRC JPD101550428
    INDEX 00 00:00:00
    INDEX 01 00:02:00
FILE "Yoru no Nai Kuni - Official Sound Track (Japan) (Disc 2) (Bundled with [PS4] Yoru no Nai Kuni (Japan) (Premium Box)) (Track 20).bin" BINARY
  TRACK 20 AUDIO
    ISRC JPD101550429
    INDEX 00 00:00:00
    INDEX 01 00:02:00
FILE "Yoru no Nai Kuni - Official Sound Track (Japan) (Disc 2) (Bundled with [PS4] Yoru no Nai Kuni (Japan) (Premium Box)) (Track 21).bin" BINARY
  TRACK 21 AUDIO
    ISRC JPD101550430
    INDEX 00 00:00:00
    INDEX 01 00:02:00
FILE "Yoru no Nai Kuni - Official Sound Track (Japan) (Disc 2) (Bundled with [PS4] Yoru no Nai Kuni (Japan) (Premium Box)) (Track 22).bin" BINARY
  TRACK 22 AUDIO
    ISRC JPD101550431
    INDEX 00 00:00:00
    INDEX 01 00:02:00
FILE "Yoru no Nai Kuni - Official Sound Track (Japan) (Disc 2) (Bundled with [PS4] Yoru no Nai Kuni (Japan) (Premium Box)) (Track 23).bin" BINARY
  TRACK 23 AUDIO
    ISRC JPD101550432
    INDEX 00 00:00:00
    INDEX 01 00:02:00
FILE "Yoru no Nai Kuni - Official Sound Track (Japan) (Disc 2) (Bundled with [PS4] Yoru no Nai Kuni (Japan) (Premium Box)) (Track 24).bin" BINARY
  TRACK 24 AUDIO
    ISRC JPD101550433
    INDEX 00 00:00:00
    INDEX 01 00:02:00
FILE "Yoru no Nai Kuni - Official Sound Track (Japan) (Disc 2) (Bundled with [PS4] Yoru no Nai Kuni (Japan) (Premium Box)) (Track 25).bin" BINARY
  TRACK 25 AUDIO
    ISRC JPD101550434
    INDEX 00 00:00:00
    INDEX 01 00:02:00
FILE "Yoru no Nai Kuni - Official Sound Track (Japan) (Disc 2) (Bundled with [PS4] Yoru no Nai Kuni (Japan) (Premium Box)) (Track 26).bin" BINARY
  TRACK 26 AUDIO
    ISRC JPD101550435
    INDEX 00 00:00:00
    INDEX 01 00:02:00
FILE "Yoru no Nai Kuni - Official Sound Track (Japan) (Disc 2) (Bundled with [PS4] Yoru no Nai Kuni (Japan) (Premium Box)) (Track 27).bin" BINARY
  TRACK 27 AUDIO
    ISRC JPD101550436
    INDEX 00 00:00:00
    INDEX 01 00:02:00
FILE "Yoru no Nai Kuni - Official Sound Track (Japan) (Disc 2) (Bundled with [PS4] Yoru no Nai Kuni (Japan) (Premium Box)) (Track 28).bin" BINARY
  TRACK 28 AUDIO
    ISRC JPD101550437
    INDEX 00 00:00:00
    INDEX 01 00:02:00
FILE "Yoru no Nai Kuni - Official Sound Track (Japan) (Disc 2) (Bundled with [PS4] Yoru no Nai Kuni (Japan) (Premium Box)) (Track 29).bin" BINARY
  TRACK 29 AUDIO
    ISRC JPD101550438
    INDEX 00 00:00:00
    INDEX 01 00:02:00
FILE "Yoru no Nai Kuni - Official Sound Track (Japan) (Disc 2) (Bundled with [PS4] Yoru no Nai Kuni (Japan) (Premium Box)) (Track 30).bin" BINARY
  TRACK 30 AUDIO
    ISRC JPD101550439
    INDEX 00 00:00:00
    INDEX 01 00:02:00
FILE "Yoru no Nai Kuni - Official Sound Track (Japan) (Disc 2) (Bundled with [PS4] Yoru no Nai Kuni (Japan) (Premium Box)) (Track 31).bin" BINARY
  TRACK 31 AUDIO
    ISRC JPD101550440
    INDEX 00 00:00:00
    INDEX 01 00:02:00
FILE "Yoru no Nai Kuni - Official Sound Track (Japan) (Disc 2) (Bundled with [PS4] Yoru no Nai Kuni (Japan) (Premium Box)) (Track 32).bin" BINARY
  TRACK 32 AUDIO
    ISRC JPD101550441
    INDEX 00 00:00:00
    INDEX 01 00:02:00
FILE "Yoru no Nai Kuni - Official Sound Track (Japan) (Disc 2) (Bundled with [PS4] Yoru no Nai Kuni (Japan) (Premium Box)) (Track 33).bin" BINARY
  TRACK 33 AUDIO
    ISRC JPD101550442
    INDEX 00 00:00:00
    INDEX 01 00:02:00
FILE "Yoru no Nai Kuni - Official Sound Track (Japan) (Disc 2) (Bundled with [PS4] Yoru no Nai Kuni (Japan) (Premium Box)) (Track 34).bin" BINARY
  TRACK 34 AUDIO
    ISRC JPD101550443
    INDEX 00 00:00:00
    INDEX 01 00:02:00
FILE "Yoru no Nai Kuni - Official Sound Track (Japan) (Disc 2) (Bundled with [PS4] Yoru no Nai Kuni (Japan) (Premium Box)) (Track 35).bin" BINARY
  TRACK 35 AUDIO
    ISRC JPD101550444
    INDEX 00 00:00:00
    INDEX 01 00:02:00
FILE "Yoru no Nai Kuni - Official Sound Track (Japan) (Disc 2) (Bundled with [PS4] Yoru no Nai Kuni (Japan) (Premium Box)) (Track 36).bin" BINARY
  TRACK 36 AUDIO
    ISRC JPD101550445
    INDEX 00 00:00:00
    INDEX 01 00:02:00
FILE "Yoru no Nai Kuni - Official Sound Track (Japan) (Disc 2) (Bundled with [PS4] Yoru no Nai Kuni (Japan) (Premium Box)) (Track 37).bin" BINARY
  TRACK 37 AUDIO
    ISRC JPD101550446
    INDEX 00 00:00:00
    INDEX 01 00:02:00
FILE "Yoru no Nai Kuni - Official Sound Track (Japan) (Disc 2) (Bundled with [PS4] Yoru no Nai Kuni (Japan) (Premium Box)) (Track 38).bin" BINARY
  TRACK 38 AUDIO
    ISRC JPD101550447
    INDEX 00 00:00:00
    INDEX 01 00:02:00

    Write Offset: 0

Logs
https://mega.nz/file/DI00EB6D#3ogMtZUau … MeF1j5v9eA

Match
http://redump.org/disc/66089/


Common Disc Info:
    Title: Yoru no Nai Kuni: Official Sound Track (Disc 1)
    Foreign Title (Non-latin): よるのないくに オフィシャルサウンドトラック
    Disc Number / Letter: 1
    Disc Title: 
    System: Audio CD
    Media Type: CD-ROM
    Category: Bonus Discs
    Matching IDs: 66089
    Region: Japan
    Languages: Klingon (CHANGE THIS)
    Disc Serial: KTGS-40300CD-1

    Ringcode Information:
        Data Side Mastering Code (laser branded/etched): KTGS-40300CD-1    -RC11-
        Data Side Mastering SID Code: IFPI LZ49
        Data Side Toolstamp or Mastering Code (engraved/stamped): 
        Data Side Mould SID Code: IFPI 7607
        Data Side Additional Mould: 
        Label Side Mould SID Code: 
        Label Side Additional Mould: 
    Barcode: 4 988615 067990
    Error Count: 0
    Comments: 
    Contents:

01 Eve on Piano 0:47
02 Overture 1:34
03 夜想曲 1:40
04 雨花 2:22
05 Lady Crimson 2:54
06 足音 2:12
07 霧の中で 1:42
08 Malicious Roses 3:32
09 デンワノオト 1:28
10 anxiety 1:34
11 Goliath Z 2:00
12 夜が明けル前にこの先ヲ 2:21
13 Are you enjoying the time of Ende? 1:17
14 ordinary days 1:34
15 滲む影 2:12
16 私と夜とセルヴァンと 1:23
17 Rusty Trail 2:24
18 Illegal Gimmick 2:27
19 How can I help you? 1:08
20 Lunatic Circus 2:00
21 Waltzing Gallop 1:44
22 Masquerade 2:24
23 夜に吞まれて 2:23
24 Vivace 1:34
25 花は雨のように散って 3:20
26 ダンスは後悔と共に 2:13
27 Shallow Grave 2:20
28 Vermilion 3:04
29 Paja 1:58
30 1つの終を迎えて 1:52
31 私と夜とセルヴァンと (solo) 0:19
32 Warrior's Gate 0:52
33 悲しき吸血鬼(Ver.MMXV) 3:00
34 Winner's Road 0:55
35 Invention 0:09
36 predge 3:00

Version and Editions:
    Version: 
    Edition/Release: Premium Box

Extras:
    Primary Volume Descriptor (PVD): Disc has no PVD

Tracks and Write Offsets:
    DAT:

<rom name="Yoru no Nai Kuni - Official Sound Track (Japan) (Disc 1) (Bundled with [PS4] Yoru no Nai Kuni (Japan) (Premium Box)) (Track 01).bin" size="8001504" crc="28088e19" md5="4b6726b1fa32d37851baa54c83b65141" sha1="009255afe7f80be59a846b768094cdec12994fbc" />
<rom name="Yoru no Nai Kuni - Official Sound Track (Japan) (Disc 1) (Bundled with [PS4] Yoru no Nai Kuni (Japan) (Premium Box)) (Track 02).bin" size="16588656" crc="58587056" md5="318937df5e4c6faeeaac85e0b9da3cc3" sha1="90e2684c49bb9220483c00de94bc7104c1647843" />
<rom name="Yoru no Nai Kuni - Official Sound Track (Japan) (Disc 1) (Bundled with [PS4] Yoru no Nai Kuni (Japan) (Premium Box)) (Track 03).bin" size="17600016" crc="32dc93a4" md5="b7e8f232490efbf7bf829e810b22c27b" sha1="1852853da6e73ae001a806fc1ed03855552d96c9" />
<rom name="Yoru no Nai Kuni - Official Sound Track (Japan) (Disc 1) (Bundled with [PS4] Yoru no Nai Kuni (Japan) (Premium Box)) (Track 04).bin" size="25069968" crc="41f373d3" md5="f4e127b88b95d2e77f158683043dcdfb" sha1="424c0530179f56d519990c5fca7ad3e4fe40e136" />
<rom name="Yoru no Nai Kuni - Official Sound Track (Japan) (Disc 1) (Bundled with [PS4] Yoru no Nai Kuni (Japan) (Premium Box)) (Track 05).bin" size="30648912" crc="ade82dee" md5="fdab4eff767623b8b2e02e862b9f3472" sha1="4dc87c433cc1a9dac8431fed732d77c15d4cc2bb" />
<rom name="Yoru no Nai Kuni - Official Sound Track (Japan) (Disc 1) (Bundled with [PS4] Yoru no Nai Kuni (Japan) (Premium Box)) (Track 06).bin" size="23348304" crc="fefa4922" md5="178a61c301fb854c9e747bbdbb954110" sha1="fef2f065f548d0b3ec0a64ef70a7bbd5f56a8d37" />
<rom name="Yoru no Nai Kuni - Official Sound Track (Japan) (Disc 1) (Bundled with [PS4] Yoru no Nai Kuni (Japan) (Premium Box)) (Track 07).bin" size="17936352" crc="4c587518" md5="31a1c182856060e95d14a6f355a3d5ba" sha1="93b44ec877ad061cbfdd4f7f9b7c1c2d8ccc8858" />
<rom name="Yoru no Nai Kuni - Official Sound Track (Japan) (Disc 1) (Bundled with [PS4] Yoru no Nai Kuni (Japan) (Premium Box)) (Track 08).bin" size="37328592" crc="596fd25e" md5="c4756eb65d87c4a8f85db31dcad40277" sha1="270527ce74bff4173399cf2000d14a40ad632f7c" />
<rom name="Yoru no Nai Kuni - Official Sound Track (Japan) (Disc 1) (Bundled with [PS4] Yoru no Nai Kuni (Japan) (Premium Box)) (Track 09).bin" size="15544368" crc="a63cfc29" md5="ed1c65afa3d35d912fa413ed94e7a458" sha1="4e784e83395eb6c3b643eb572cec5788b3a89e8a" />
<rom name="Yoru no Nai Kuni - Official Sound Track (Japan) (Disc 1) (Bundled with [PS4] Yoru no Nai Kuni (Japan) (Premium Box)) (Track 10).bin" size="16534560" crc="304039ce" md5="46b990df1989ebb3cbca625641ec6eec" sha1="31f2502c195654eb135d0d048b2deb49a1b63865" />
<rom name="Yoru no Nai Kuni - Official Sound Track (Japan) (Disc 1) (Bundled with [PS4] Yoru no Nai Kuni (Japan) (Premium Box)) (Track 11).bin" size="21156240" crc="ac66f41c" md5="f115fafcfa189d3aef693e22611a1a26" sha1="815cafc6f12d0b1de9d5098291cad189f91faa0b" />
<rom name="Yoru no Nai Kuni - Official Sound Track (Japan) (Disc 1) (Bundled with [PS4] Yoru no Nai Kuni (Japan) (Premium Box)) (Track 12).bin" size="24862992" crc="01413d04" md5="98b32a487e40632c7a7b756ac845195f" sha1="5ecb84033179458927c09728afc3dc09ea99b65e" />
<rom name="Yoru no Nai Kuni - Official Sound Track (Japan) (Disc 1) (Bundled with [PS4] Yoru no Nai Kuni (Japan) (Premium Box)) (Track 13).bin" size="13514592" crc="ba231e1e" md5="3637d86390d023b73436e38d4353ad57" sha1="056194d7466babc832e040cbb233149e5ec61379" />
<rom name="Yoru no Nai Kuni - Official Sound Track (Japan) (Disc 1) (Bundled with [PS4] Yoru no Nai Kuni (Japan) (Premium Box)) (Track 14).bin" size="16598064" crc="c6edafd1" md5="57cf47c0dd4e1aaf7eeb4a0551bb45fa" sha1="44877da115bdaedd047281d2eaf6dd9104e4a72a" />
<rom name="Yoru no Nai Kuni - Official Sound Track (Japan) (Disc 1) (Bundled with [PS4] Yoru no Nai Kuni (Japan) (Premium Box)) (Track 15).bin" size="23350656" crc="59cf4c38" md5="f2fbdd57464dc716b6fc8b559dfea136" sha1="72f61f408807a26b2b44028dacd50139114b301d" />
<rom name="Yoru no Nai Kuni - Official Sound Track (Japan) (Disc 1) (Bundled with [PS4] Yoru no Nai Kuni (Japan) (Premium Box)) (Track 16).bin" size="14641200" crc="f54185be" md5="4c1750d5a8f58e8f04f4e59c7874de7b" sha1="afb40c5fd72d8217db33e56fb5b0f5b07372445e" />
<rom name="Yoru no Nai Kuni - Official Sound Track (Japan) (Disc 1) (Bundled with [PS4] Yoru no Nai Kuni (Japan) (Premium Box)) (Track 17).bin" size="25323984" crc="c338b4aa" md5="20e4e7697f35b0cb1b6a5b71652eaa5b" sha1="36339a5c25c86b9e6dc46394619aeb1c1296378d" />
<rom name="Yoru no Nai Kuni - Official Sound Track (Japan) (Disc 1) (Bundled with [PS4] Yoru no Nai Kuni (Japan) (Premium Box)) (Track 18).bin" size="25914336" crc="3c511a7d" md5="b30eee769bd51ce2816500895f813c4c" sha1="7b6a3f1a9c2036b82c186689137a4d49e5061b21" />
<rom name="Yoru no Nai Kuni - Official Sound Track (Japan) (Disc 1) (Bundled with [PS4] Yoru no Nai Kuni (Japan) (Premium Box)) (Track 19).bin" size="11966976" crc="dbe296ac" md5="cd89ece85306a66382b3b88c820a75b6" sha1="d9611d575517533cf2bbe90a3b81adbc67b13a58" />
<rom name="Yoru no Nai Kuni - Official Sound Track (Japan) (Disc 1) (Bundled with [PS4] Yoru no Nai Kuni (Japan) (Premium Box)) (Track 20).bin" size="21125664" crc="7bcdf652" md5="caebd0b2ed0ca4432926c801061ee4a8" sha1="16c9dca50e7ba51d0afe30a9b19158e4b6a0c0eb" />
<rom name="Yoru no Nai Kuni - Official Sound Track (Japan) (Disc 1) (Bundled with [PS4] Yoru no Nai Kuni (Japan) (Premium Box)) (Track 21).bin" size="18387936" crc="d8960330" md5="ebe080dd6fb351bc34762a1043362129" sha1="0d25ac8c58e5c4e72f937532f991bda6a2391dc6" />
<rom name="Yoru no Nai Kuni - Official Sound Track (Japan) (Disc 1) (Bundled with [PS4] Yoru no Nai Kuni (Japan) (Premium Box)) (Track 22).bin" size="25467456" crc="f1d9d54e" md5="378f5b98db109b0ee1111ae1b05c8ce3" sha1="ebeb0f57f4f79724dada19c5f2307f09f82a61d7" />
<rom name="Yoru no Nai Kuni - Official Sound Track (Japan) (Disc 1) (Bundled with [PS4] Yoru no Nai Kuni (Japan) (Premium Box)) (Track 23).bin" size="25267536" crc="9aba6c41" md5="ad3e134f9c8fbf457d7b46081cc370d3" sha1="8910f746337cda5cc856e42b7f59576a33fde4c6" />
<rom name="Yoru no Nai Kuni - Official Sound Track (Japan) (Disc 1) (Bundled with [PS4] Yoru no Nai Kuni (Japan) (Premium Box)) (Track 24).bin" size="16623936" crc="4968c06e" md5="36601562cbb9ea47ce53b526853f2c03" sha1="aa98c1d45f77c80667b422d08c70978387517673" />
<rom name="Yoru no Nai Kuni - Official Sound Track (Japan) (Disc 1) (Bundled with [PS4] Yoru no Nai Kuni (Japan) (Premium Box)) (Track 25).bin" size="33953472" crc="e5f8261b" md5="5481d11cd2b97c6cfd0d979932633691" sha1="244e8b600f84d74b012f8ba962750c2bf5e4506a" />
<rom name="Yoru no Nai Kuni - Official Sound Track (Japan) (Disc 1) (Bundled with [PS4] Yoru no Nai Kuni (Japan) (Premium Box)) (Track 26).bin" size="24820656" crc="997cbb6e" md5="8770a0b92ae1ae44c56e9b5d96625176" sha1="838acfeffcb3fccbdee0e86c3212cf4b4e48fd70" />
<rom name="Yoru no Nai Kuni - Official Sound Track (Japan) (Disc 1) (Bundled with [PS4] Yoru no Nai Kuni (Japan) (Premium Box)) (Track 27).bin" size="24698352" crc="d29c02bf" md5="af95dcefc3c556ecec498b3e7e954ed6" sha1="507bedd8630d522b81dd05b7c95abe6cfbc4008a" />
<rom name="Yoru no Nai Kuni - Official Sound Track (Japan) (Disc 1) (Bundled with [PS4] Yoru no Nai Kuni (Japan) (Premium Box)) (Track 28).bin" size="32412912" crc="9e32bfd6" md5="13e0126e7c6e725e6bb5bedf2bb30f66" sha1="1b4a2b19471e2ee80c456ef39ee53999255acd62" />
<rom name="Yoru no Nai Kuni - Official Sound Track (Japan) (Disc 1) (Bundled with [PS4] Yoru no Nai Kuni (Japan) (Premium Box)) (Track 29).bin" size="20786976" crc="b1883cb0" md5="f09668de753d951ccd439676ed8ee4b9" sha1="bd15c5f99c2645c8ca502afb9ead7a2feb6da2f9" />
<rom name="Yoru no Nai Kuni - Official Sound Track (Japan) (Disc 1) (Bundled with [PS4] Yoru no Nai Kuni (Japan) (Premium Box)) (Track 30).bin" size="19737984" crc="afbde837" md5="1a169a1010a9cc2e767bd4d8ad66848d" sha1="84039ab59c9d42a35734e242cb2e52b6e3c0c601" />
<rom name="Yoru no Nai Kuni - Official Sound Track (Japan) (Disc 1) (Bundled with [PS4] Yoru no Nai Kuni (Japan) (Premium Box)) (Track 31).bin" size="3306912" crc="929dbc84" md5="853bb3c677d0801ea8f407115938452e" sha1="d8a2b720f6b4c5cf5ab5f20691c0e2c6fc26bd13" />
<rom name="Yoru no Nai Kuni - Official Sound Track (Japan) (Disc 1) (Bundled with [PS4] Yoru no Nai Kuni (Japan) (Premium Box)) (Track 32).bin" size="9189264" crc="0b5f77c4" md5="fa47e08b3a5daa2ddb8b3ba3e5cf7636" sha1="da1ed242cd332d6e6d2036f411f6fe2e2b839b91" />
<rom name="Yoru no Nai Kuni - Official Sound Track (Japan) (Disc 1) (Bundled with [PS4] Yoru no Nai Kuni (Japan) (Premium Box)) (Track 33).bin" size="31679088" crc="039d9d98" md5="7f0cda337e6298ca4cc82375cb64d2fb" sha1="f9ddb0ed3e4f0a8e5eb22543b8a31288138da82f" />
<rom name="Yoru no Nai Kuni - Official Sound Track (Japan) (Disc 1) (Bundled with [PS4] Yoru no Nai Kuni (Japan) (Premium Box)) (Track 34).bin" size="9781968" crc="c8dfa1b9" md5="86e5fb831484e248aa52480db8d64e6c" sha1="5ace36454bc7cf26c649ebd88dd2ad31ed8debdc" />
<rom name="Yoru no Nai Kuni - Official Sound Track (Japan) (Disc 1) (Bundled with [PS4] Yoru no Nai Kuni (Japan) (Premium Box)) (Track 35).bin" size="1566432" crc="6e28fb49" md5="31952860f610a5562b80138665b7717e" sha1="4ddcf191f288e69ab018833dae69aa2d38f94624" />
<rom name="Yoru no Nai Kuni - Official Sound Track (Japan) (Disc 1) (Bundled with [PS4] Yoru no Nai Kuni (Japan) (Premium Box)) (Track 36).bin" size="32081280" crc="4dbc97cb" md5="5764b909bac60bf953789eaa572f0fc2" sha1="09dc591523aca5f2841a4d2bf2b76f5a22de458f" />

    Cuesheet:

FILE "Yoru no Nai Kuni - Official Sound Track (Japan) (Disc 1) (Bundled with [PS4] Yoru no Nai Kuni (Japan) (Premium Box)) (Track 01).bin" BINARY
  TRACK 01 AUDIO
    ISRC JPD101550375
    INDEX 01 00:00:00
FILE "Yoru no Nai Kuni - Official Sound Track (Japan) (Disc 1) (Bundled with [PS4] Yoru no Nai Kuni (Japan) (Premium Box)) (Track 02).bin" BINARY
  TRACK 02 AUDIO
    ISRC JPD101550376
    INDEX 00 00:00:00
    INDEX 01 00:02:00
FILE "Yoru no Nai Kuni - Official Sound Track (Japan) (Disc 1) (Bundled with [PS4] Yoru no Nai Kuni (Japan) (Premium Box)) (Track 03).bin" BINARY
  TRACK 03 AUDIO
    ISRC JPD101550377
    INDEX 00 00:00:00
    INDEX 01 00:02:00
FILE "Yoru no Nai Kuni - Official Sound Track (Japan) (Disc 1) (Bundled with [PS4] Yoru no Nai Kuni (Japan) (Premium Box)) (Track 04).bin" BINARY
  TRACK 04 AUDIO
    ISRC JPD101550378
    INDEX 00 00:00:00
    INDEX 01 00:02:00
FILE "Yoru no Nai Kuni - Official Sound Track (Japan) (Disc 1) (Bundled with [PS4] Yoru no Nai Kuni (Japan) (Premium Box)) (Track 05).bin" BINARY
  TRACK 05 AUDIO
    ISRC JPD101550379
    INDEX 00 00:00:00
    INDEX 01 00:02:00
FILE "Yoru no Nai Kuni - Official Sound Track (Japan) (Disc 1) (Bundled with [PS4] Yoru no Nai Kuni (Japan) (Premium Box)) (Track 06).bin" BINARY
  TRACK 06 AUDIO
    ISRC JPD101550380
    INDEX 00 00:00:00
    INDEX 01 00:02:00
FILE "Yoru no Nai Kuni - Official Sound Track (Japan) (Disc 1) (Bundled with [PS4] Yoru no Nai Kuni (Japan) (Premium Box)) (Track 07).bin" BINARY
  TRACK 07 AUDIO
    ISRC JPD101550381
    INDEX 00 00:00:00
    INDEX 01 00:02:00
FILE "Yoru no Nai Kuni - Official Sound Track (Japan) (Disc 1) (Bundled with [PS4] Yoru no Nai Kuni (Japan) (Premium Box)) (Track 08).bin" BINARY
  TRACK 08 AUDIO
    ISRC JPD101550382
    INDEX 00 00:00:00
    INDEX 01 00:02:00
FILE "Yoru no Nai Kuni - Official Sound Track (Japan) (Disc 1) (Bundled with [PS4] Yoru no Nai Kuni (Japan) (Premium Box)) (Track 09).bin" BINARY
  TRACK 09 AUDIO
    ISRC JPD101550383
    INDEX 00 00:00:00
    INDEX 01 00:02:00
FILE "Yoru no Nai Kuni - Official Sound Track (Japan) (Disc 1) (Bundled with [PS4] Yoru no Nai Kuni (Japan) (Premium Box)) (Track 10).bin" BINARY
  TRACK 10 AUDIO
    ISRC JPD101550384
    INDEX 00 00:00:00
    INDEX 01 00:02:00
FILE "Yoru no Nai Kuni - Official Sound Track (Japan) (Disc 1) (Bundled with [PS4] Yoru no Nai Kuni (Japan) (Premium Box)) (Track 11).bin" BINARY
  TRACK 11 AUDIO
    ISRC JPD101550385
    INDEX 00 00:00:00
    INDEX 01 00:02:00
FILE "Yoru no Nai Kuni - Official Sound Track (Japan) (Disc 1) (Bundled with [PS4] Yoru no Nai Kuni (Japan) (Premium Box)) (Track 12).bin" BINARY
  TRACK 12 AUDIO
    ISRC JPD101550386
    INDEX 00 00:00:00
    INDEX 01 00:02:00
FILE "Yoru no Nai Kuni - Official Sound Track (Japan) (Disc 1) (Bundled with [PS4] Yoru no Nai Kuni (Japan) (Premium Box)) (Track 13).bin" BINARY
  TRACK 13 AUDIO
    ISRC JPD101550387
    INDEX 00 00:00:00
    INDEX 01 00:02:00
FILE "Yoru no Nai Kuni - Official Sound Track (Japan) (Disc 1) (Bundled with [PS4] Yoru no Nai Kuni (Japan) (Premium Box)) (Track 14).bin" BINARY
  TRACK 14 AUDIO
    ISRC JPD101550388
    INDEX 00 00:00:00
    INDEX 01 00:02:00
FILE "Yoru no Nai Kuni - Official Sound Track (Japan) (Disc 1) (Bundled with [PS4] Yoru no Nai Kuni (Japan) (Premium Box)) (Track 15).bin" BINARY
  TRACK 15 AUDIO
    ISRC JPD101550389
    INDEX 00 00:00:00
    INDEX 01 00:02:00
FILE "Yoru no Nai Kuni - Official Sound Track (Japan) (Disc 1) (Bundled with [PS4] Yoru no Nai Kuni (Japan) (Premium Box)) (Track 16).bin" BINARY
  TRACK 16 AUDIO
    ISRC JPD101550390
    INDEX 00 00:00:00
    INDEX 01 00:02:00
FILE "Yoru no Nai Kuni - Official Sound Track (Japan) (Disc 1) (Bundled with [PS4] Yoru no Nai Kuni (Japan) (Premium Box)) (Track 17).bin" BINARY
  TRACK 17 AUDIO
    ISRC JPD101550391
    INDEX 00 00:00:00
    INDEX 01 00:02:00
FILE "Yoru no Nai Kuni - Official Sound Track (Japan) (Disc 1) (Bundled with [PS4] Yoru no Nai Kuni (Japan) (Premium Box)) (Track 18).bin" BINARY
  TRACK 18 AUDIO
    ISRC JPD101550392
    INDEX 00 00:00:00
    INDEX 01 00:02:00
FILE "Yoru no Nai Kuni - Official Sound Track (Japan) (Disc 1) (Bundled with [PS4] Yoru no Nai Kuni (Japan) (Premium Box)) (Track 19).bin" BINARY
  TRACK 19 AUDIO
    ISRC JPD101550393
    INDEX 00 00:00:00
    INDEX 01 00:02:00
FILE "Yoru no Nai Kuni - Official Sound Track (Japan) (Disc 1) (Bundled with [PS4] Yoru no Nai Kuni (Japan) (Premium Box)) (Track 20).bin" BINARY
  TRACK 20 AUDIO
    ISRC JPD101550394
    INDEX 00 00:00:00
    INDEX 01 00:02:00
FILE "Yoru no Nai Kuni - Official Sound Track (Japan) (Disc 1) (Bundled with [PS4] Yoru no Nai Kuni (Japan) (Premium Box)) (Track 21).bin" BINARY
  TRACK 21 AUDIO
    ISRC JPD101550395
    INDEX 00 00:00:00
    INDEX 01 00:02:00
FILE "Yoru no Nai Kuni - Official Sound Track (Japan) (Disc 1) (Bundled with [PS4] Yoru no Nai Kuni (Japan) (Premium Box)) (Track 22).bin" BINARY
  TRACK 22 AUDIO
    ISRC JPD101550396
    INDEX 00 00:00:00
    INDEX 01 00:02:00
FILE "Yoru no Nai Kuni - Official Sound Track (Japan) (Disc 1) (Bundled with [PS4] Yoru no Nai Kuni (Japan) (Premium Box)) (Track 23).bin" BINARY
  TRACK 23 AUDIO
    ISRC JPD101550397
    INDEX 00 00:00:00
    INDEX 01 00:02:00
FILE "Yoru no Nai Kuni - Official Sound Track (Japan) (Disc 1) (Bundled with [PS4] Yoru no Nai Kuni (Japan) (Premium Box)) (Track 24).bin" BINARY
  TRACK 24 AUDIO
    ISRC JPD101550398
    INDEX 00 00:00:00
    INDEX 01 00:02:00
FILE "Yoru no Nai Kuni - Official Sound Track (Japan) (Disc 1) (Bundled with [PS4] Yoru no Nai Kuni (Japan) (Premium Box)) (Track 25).bin" BINARY
  TRACK 25 AUDIO
    ISRC JPD101550399
    INDEX 00 00:00:00
    INDEX 01 00:02:00
FILE "Yoru no Nai Kuni - Official Sound Track (Japan) (Disc 1) (Bundled with [PS4] Yoru no Nai Kuni (Japan) (Premium Box)) (Track 26).bin" BINARY
  TRACK 26 AUDIO
    ISRC JPD101550400
    INDEX 00 00:00:00
    INDEX 01 00:09:21
FILE "Yoru no Nai Kuni - Official Sound Track (Japan) (Disc 1) (Bundled with [PS4] Yoru no Nai Kuni (Japan) (Premium Box)) (Track 27).bin" BINARY
  TRACK 27 AUDIO
    ISRC JPD101550401
    INDEX 00 00:00:00
    INDEX 01 00:02:00
FILE "Yoru no Nai Kuni - Official Sound Track (Japan) (Disc 1) (Bundled with [PS4] Yoru no Nai Kuni (Japan) (Premium Box)) (Track 28).bin" BINARY
  TRACK 28 AUDIO
    ISRC JPD101550402
    INDEX 00 00:00:00
    INDEX 01 00:02:00
FILE "Yoru no Nai Kuni - Official Sound Track (Japan) (Disc 1) (Bundled with [PS4] Yoru no Nai Kuni (Japan) (Premium Box)) (Track 29).bin" BINARY
  TRACK 29 AUDIO
    ISRC JPD101550403
    INDEX 00 00:00:00
    INDEX 01 00:02:00
FILE "Yoru no Nai Kuni - Official Sound Track (Japan) (Disc 1) (Bundled with [PS4] Yoru no Nai Kuni (Japan) (Premium Box)) (Track 30).bin" BINARY
  TRACK 30 AUDIO
    ISRC JPD101550404
    INDEX 00 00:00:00
    INDEX 01 00:02:00
FILE "Yoru no Nai Kuni - Official Sound Track (Japan) (Disc 1) (Bundled with [PS4] Yoru no Nai Kuni (Japan) (Premium Box)) (Track 31).bin" BINARY
  TRACK 31 AUDIO
    ISRC JPD101550405
    INDEX 00 00:00:00
    INDEX 01 00:02:00
FILE "Yoru no Nai Kuni - Official Sound Track (Japan) (Disc 1) (Bundled with [PS4] Yoru no Nai Kuni (Japan) (Premium Box)) (Track 32).bin" BINARY
  TRACK 32 AUDIO
    ISRC JPD101550406
    INDEX 00 00:00:00
    INDEX 01 00:02:00
FILE "Yoru no Nai Kuni - Official Sound Track (Japan) (Disc 1) (Bundled with [PS4] Yoru no Nai Kuni (Japan) (Premium Box)) (Track 33).bin" BINARY
  TRACK 33 AUDIO
    ISRC JPD101550407
    INDEX 00 00:00:00
    INDEX 01 00:02:00
FILE "Yoru no Nai Kuni - Official Sound Track (Japan) (Disc 1) (Bundled with [PS4] Yoru no Nai Kuni (Japan) (Premium Box)) (Track 34).bin" BINARY
  TRACK 34 AUDIO
    ISRC JPD101550408
    INDEX 00 00:00:00
    INDEX 01 00:02:00
FILE "Yoru no Nai Kuni - Official Sound Track (Japan) (Disc 1) (Bundled with [PS4] Yoru no Nai Kuni (Japan) (Premium Box)) (Track 35).bin" BINARY
  TRACK 35 AUDIO
    ISRC JPD101550409
    INDEX 00 00:00:00
    INDEX 01 00:02:00
FILE "Yoru no Nai Kuni - Official Sound Track (Japan) (Disc 1) (Bundled with [PS4] Yoru no Nai Kuni (Japan) (Premium Box)) (Track 36).bin" BINARY
  TRACK 36 AUDIO
    ISRC JPD101550410
    INDEX 00 00:00:00
    INDEX 01 00:02:00

    Write Offset: 0

Logs
https://mega.nz/file/qVdnyKoJ#6VBckF3RO … Onmq-5PxMM

Match
http://redump.org/disc/77537/


Common Disc Info:
    Title: The Legend of Heroes: Zero no Kiseki: Original Soundtrack Mini
    Foreign Title (Non-latin): エイユウデンセツ ゼロノキセキ サントラミニ
    Disc Number / Letter: 
    Disc Title: 
    System: Audio CD
    Media Type: CD-ROM
    Category: Bonus Discs
    Matching IDs: 77537
    Region: Japan
    Languages: Klingon (CHANGE THIS)
    Disc Serial: ZERO-OSTMW

    Ringcode Information:
        Data Side Mastering Code (laser branded/etched): ZERO-OSTMW    -RC01-
        Data Side Mastering SID Code: IFPI LY21
        Data Side Toolstamp or Mastering Code (engraved/stamped): 
        Data Side Mould SID Code: IFPI 7603
        Data Side Additional Mould: 
        Label Side Mould SID Code: 
        Label Side Additional Mould: 
    Barcode: 
    Error Count: 0
    Comments: Preorder Bonus Disc for Eiyuu Densetsu: Zero no Kiseki. However this disc uses the Western version of the name "The Legend Of Heroes" instead of "Eiyuu Densetsu" on both cover and disc.
    Contents:

01 way of life 2:00
02 叡智への誘い 2:32
03 On The Green Road 2:27
04 Inevitable Struggle 2:41
05 Get Over The Barrier! -Roaring Version- 4:11

Version and Editions:
    Version: 
    Edition/Release: Preorder Bonus (White Edition)

Extras:
    Primary Volume Descriptor (PVD): Disc has no PVD

Tracks and Write Offsets:
    DAT:

<rom name="Audio CD (Track 1).bin" size="20756400" crc="a79796d7" md5="d6ba0e626db3159b1dce807822b22505" sha1="4f1cb2cba57ba915df932baec2bec717bc066e16" />
<rom name="Audio CD (Track 2).bin" size="26798688" crc="033a47c1" md5="c2df6bdbd2e6ed8d84e32dabd88d0fb5" sha1="2cea350c3fef8c17110cdb1390ff1138dc5ee35d" />
<rom name="Audio CD (Track 3).bin" size="25975488" crc="be84f4b6" md5="e2b901bc5e7faea29acc7387833cf9a7" sha1="51966b357521965a2735cf6eea9a46bbf1f2d614" />
<rom name="Audio CD (Track 4).bin" size="28435680" crc="8caf0c9f" md5="80f770599e99605171ff87fdeb1707ce" sha1="901769b65aa1c5c1b7a282cfd7094aecc663d7c9" />
<rom name="Audio CD (Track 5).bin" size="44711520" crc="b614fef2" md5="5d0f844e76323ad011d779862fd49653" sha1="f0cfaae017803e8ee5afecbb9c41ef6af723864b" />

    Cuesheet:

FILE "Audio CD (Track 1).bin" BINARY
  TRACK 01 AUDIO
    INDEX 01 00:00:00
FILE "Audio CD (Track 2).bin" BINARY
  TRACK 02 AUDIO
    INDEX 00 00:00:00
    INDEX 01 00:02:00
FILE "Audio CD (Track 3).bin" BINARY
  TRACK 03 AUDIO
    INDEX 00 00:00:00
    INDEX 01 00:02:00
FILE "Audio CD (Track 4).bin" BINARY
  TRACK 04 AUDIO
    INDEX 00 00:00:00
    INDEX 01 00:02:00
FILE "Audio CD (Track 5).bin" BINARY
  TRACK 05 AUDIO
    INDEX 00 00:00:00
    INDEX 01 00:02:00

    Write Offset: 0

Logs
https://mega.nz/file/nQ8TFQpS#X9Zya191G … gIkSd4K4to

Match
http://redump.org/disc/24068/


Common Disc Info:
    Title: Eiyuu Densetsu: Ao no Kiseki
    Foreign Title (Non-latin): 英雄伝説 碧の軌跡 サントラミニ
    Disc Number / Letter: 
    Disc Title: Original Soundtrack Mini
    System: Audio CD
    Media Type: CD-ROM
    Category: Bonus Discs
    Matching IDs: 24068
    Region: Japan
    Languages: Japanese
    Disc Serial: AO-OSTM

    Ringcode Information:
        Data Side Mastering Code (laser branded/etched): AO-OSTM
        Data Side Mastering SID Code: IFPI LT46
        Data Side Toolstamp or Mastering Code (engraved/stamped): 
        Data Side Mould SID Code: IFPI 1X14
        Data Side Additional Mould: 
        Label Side Mould SID Code: 
        Label Side Additional Mould: 
    Barcode: 
    Error Count: 0
    Comments:

Eiyuu Densetsu: Ao no Kiseki Pre-Order Bonus Disc.

    Contents:

01 碧の軌跡 (Opening size) 2:13
02 木漏れ日の中の静寂 1:55
03 Conflicting Passions 2:02
04 鋼鉄の咆哮 -脅威- 2:08
05 Aoki Shizuku 2:21

Version and Editions:
    Version: 
    Edition/Release: PSP Game Bundle

Extras:
    Primary Volume Descriptor (PVD): Disc has no PVD

Tracks and Write Offsets:
    DAT:

<rom name="Eiyuu Densetsu - Ao no Kiseki (Japan) (Original Soundtrack Mini) (Track 1).bin" size="23063712" crc="8106dc55" md5="02776e0749c4133c975d4c57d38ba242" sha1="82f00a9822cbddb9e4a14ebaad9d8c9beb1238e3" />
<rom name="Eiyuu Densetsu - Ao no Kiseki (Japan) (Original Soundtrack Mini) (Track 2).bin" size="20325984" crc="25d0efa9" md5="963f944f130b11d200460ab8efad30fc" sha1="0191bd662ee17f2da448549fd0a167672b1ed8c4" />
<rom name="Eiyuu Densetsu - Ao no Kiseki (Japan) (Original Soundtrack Mini) (Track 3).bin" size="21509040" crc="dfee5076" md5="cf3c163f8e45daafebd3b251b8e276cb" sha1="2368de5bad60a2252b29291494ddcb13dc4b7e90" />
<rom name="Eiyuu Densetsu - Ao no Kiseki (Japan) (Original Soundtrack Mini) (Track 4).bin" size="22532160" crc="2900e26b" md5="4ad61798940d13464334502a7e6e661c" sha1="d41072f83618b3e1f150ec0a3726d568d21085d8" />
<rom name="Eiyuu Densetsu - Ao no Kiseki (Japan) (Original Soundtrack Mini) (Track 5).bin" size="25267536" crc="932a3c55" md5="5dd33c9e41d9943290c2370a58877445" sha1="ab65f420f5efcbe62369c83eff5bb4bec74ae19f" />

    Cuesheet:

FILE "Eiyuu Densetsu - Ao no Kiseki (Japan) (Original Soundtrack Mini) (Track 1).bin" BINARY
  TRACK 01 AUDIO
    INDEX 01 00:00:00
FILE "Eiyuu Densetsu - Ao no Kiseki (Japan) (Original Soundtrack Mini) (Track 2).bin" BINARY
  TRACK 02 AUDIO
    INDEX 00 00:00:00
    INDEX 01 00:02:00
FILE "Eiyuu Densetsu - Ao no Kiseki (Japan) (Original Soundtrack Mini) (Track 3).bin" BINARY
  TRACK 03 AUDIO
    INDEX 00 00:00:00
    INDEX 01 00:02:00
FILE "Eiyuu Densetsu - Ao no Kiseki (Japan) (Original Soundtrack Mini) (Track 4).bin" BINARY
  TRACK 04 AUDIO
    INDEX 00 00:00:00
    INDEX 01 00:02:00
FILE "Eiyuu Densetsu - Ao no Kiseki (Japan) (Original Soundtrack Mini) (Track 5).bin" BINARY
  TRACK 05 AUDIO
    INDEX 00 00:00:00
    INDEX 01 00:02:00

    Write Offset: 0

Logs
https://mega.nz/file/bIsBDYKb#9pQck03rJ … ZEvv231JYM