1

(0 replies, posted in Verifications)

Disc 1

Verification of http://redump.org/disc/35380/. New Edition, Barcode, Serial, Ring Codes. Added Volume and Languages, I have confirmed that installing the game in those languages gives you translations in-game.

Common Disc Info:
    Title: Sega GT
    Disc Number / Letter: 1
    Disc Title: Installation Disc
    System: IBM PC compatible
    Media Type: CD-ROM
    Category: Games
    Fully Matching ID: 35380
    Region: Europe
    Languages: English, French, German, Italian, Spanish
    Disc Serial: EI-1266-1 ENGLISH

    Ringcode Information:

Data Side Mastering Code (laser branded/etched): EI-1266V1.05-1    1/22/03
Data Side Mastering SID Code: IFPI LR61
Data Side Toolstamp or Mastering Code (engraved/stamped): 
Data Side Mould SID Code: 
Data Side Additional Mould: 
Label Side Mould SID Code: 

    Barcode: 5 017783 558845
    Error Count: 0
    Comments: [T:VOL] SEGA_GT_EU
    Contents: 

Version and Editions:
    Version: 
    Edition/Release: Xplosiv

Extras:
    Primary Volume Descriptor (PVD):

0320 : 20 20 20 20 20 20 20 20  20 20 20 20 20 32 30 30                200
0330 : 31 30 38 33 31 31 30 34  38 30 30 30 30 E4 32 30   1083110480000.20
0340 : 30 31 30 38 33 31 31 30  34 38 30 30 30 30 E4 30   01083110480000.0
0350 : 30 30 30 30 30 30 30 30  30 30 30 30 30 30 30 00   000000000000000.
0360 : 30 30 30 30 30 30 30 30  30 30 30 30 30 30 30 30   0000000000000000
0370 : 00 01 00 00 00 00 00 00  00 00 00 00 00 00 00 00   ................

Copy Protection:
    Copy Protection: None found [OMIT FROM SUBMISSION]
    SubIntention Data (SecuROM/LibCrypt): 

Tracks and Write Offsets:
    DAT:

<rom name="Sega GT (Europe) (Disc 1) (Installation Disc).bin" size="485909088" crc="a1b0f544" md5="1b911999c0952c46bd31c45abafbc8b8" sha1="e452467d0f8c69ea4ba9c5516b786432e6603069" />

    Cuesheet:

FILE "Sega GT (Europe) (Disc 1) (Installation Disc).bin" BINARY
  TRACK 01 MODE1/2352
    INDEX 01 00:00:00

    Write Offset: -12

Dumping Info:
    Dumping Program: Redumper v2024.01.08 build_311
    Date: 2024-03-15 12:43:05
    Manufacturer: PLEXTOR
    Model: CD-R PX-W5224A
    Firmware: 1.04 (04/10/06 17:00)
    Reported Disc Type: CD-ROM

Logs: https://drive.google.com/file/d/1HWmJXA … sp=sharing

Disc 2 is in a terrible condition and I can't dump it, but I have determined it would have been a new dump, not a verification. Therefore, even if I manage to dump it in the future, it won't be submitted through here.

Verification of http://redump.org/disc/359/. New toolstamps and Mould SID.

Common Disc Info:
    Title: Gran Turismo 4
    Disc Number / Letter: 
    Disc Title: 
    System: Sony PlayStation 2
    Media Type: DVD-ROM-9
    Category: Games
    Fully Matching ID: 359
    Region: Europe
    Languages: English, French, German, Italian, Spanish
    Language Selection Via: Bios settings, Language selector, Options menu
    Disc Serial: SCES-51719

    Ringcode Information:

Layer 0 (Outer) Mastering Code (laser branded/etched): Sony DADC    A0100586872-A911    17
Layer 0 (Outer) Mastering SID Code: IFPI L557
Layer 0 (Outer) Toolstamp or Mastering Code (engraved/stamped): A20
Data Side Mould SID Code: IFPI 941V
Data Side Additional Mould: 
Layer 1 (Inner) Mastering Code (laser branded/etched): Sony DADC    A0100586872-B911    47
Layer 1 (Inner) Mastering SID Code: IFPI L557
Layer 1 (Inner) Toolstamp or Mastering Code (engraved/stamped): A5
Label Side Mould SID Code: 

    Barcode: 7 11719 61735 8
    EXE/Build Date: 2005-01-27
    Comments:

[T:ISN] SCES-51719
[T:VOL] GRANTURISMO4

    Contents: 

Version and Editions:
    Version: 1.00
    Edition/Release: Original

Extras:
    Primary Volume Descriptor (PVD):

0320 : 20 20 20 20 20 20 20 20  20 20 20 20 20 32 30 30                200
0330 : 35 30 31 32 37 30 30 32  36 34 32 30 30 24 30 30   5012700264200$00
0340 : 30 30 30 30 30 30 30 30  30 30 30 30 30 30 00 30   00000000000000.0
0350 : 30 30 30 30 30 30 30 30  30 30 30 30 30 30 30 00   000000000000000.
0360 : 30 30 30 30 30 30 30 30  30 30 30 30 30 30 30 30   0000000000000000
0370 : 00 01 00 00 00 00 00 00  00 00 00 00 00 00 00 00   ................

Size & Checksum:
    Layerbreak: 1622400
    Size: 5660540928
    CRC32: e1ca4d84
    MD5: 5b504676595dea8b32cb675993285fca
    SHA1: c9c7b8477b585d7f841fa204ba903bef08e083a3

Dumping Info:
    Dumping Program: Redumper v2024.01.08 build_311
    Date: 2024-03-14 14:36:05
    Manufacturer: ASUS
    Model: DRW-24D5MT
    Firmware: 1.00 (O01790C K82G7MG1309)
    Reported Disc Type: DVD-ROM

Logs: https://drive.google.com/file/d/1ljjCYZ … sp=sharing

Verification of https://redump.org/disc/44945/.

Common Disc Info:
    Title: CyberMycha 01/2005
    Foreign Title (Non-latin): Snow Ride
    Disc Number / Letter: 
    Disc Title: 
    System: IBM PC compatible
    Media Type: CD-ROM
    Category: Coverdiscs
    Fully Matching ID: 44945
    Region: Poland
    Languages: Polish
    Disc Serial: 

    Ringcode Information:

Data Side Mastering Code (laser branded/etched): www.takt.com.pl    takt    2100000243525    takt
Data Side Mastering SID Code: ifpi LK96
Data Side Toolstamp or Mastering Code (engraved/stamped): 
Data Side Mould SID Code: IFPI 9R41
Data Side Additional Mould: 
Label Side Mould SID Code: 

    Barcode: 
    Error Count: 0
    Comments: [T:VOL] SNOWRIDE
    Contents:

<b>Games</b>:
Snow Ride PL

[T:PD]
Alexander

[T:X]
Guide for Locoland

Version and Editions:
    Version: 
    Edition/Release: 

Extras:
    Primary Volume Descriptor (PVD):

0320 : 20 20 20 20 20 20 20 20  20 20 20 20 20 32 30 30                200
0330 : 34 31 32 31 35 32 30 33  38 30 30 30 30 04 32 30   4121520380000.20
0340 : 30 34 31 32 31 35 32 30  33 38 30 30 30 30 04 30   04121520380000.0
0350 : 30 30 30 30 30 30 30 30  30 30 30 30 30 30 30 00   000000000000000.
0360 : 30 30 30 30 30 30 30 30  30 30 30 30 30 30 30 30   0000000000000000
0370 : 00 01 00 00 00 00 00 00  00 00 00 00 00 00 00 00   ................

Copy Protection:
    Copy Protection: None found

Tracks and Write Offsets:
    DAT:

<rom name="CyberMycha 01-2005 (Poland) (Track 01).bin" size="385403424" crc="34dbc227" md5="137bf4534d18940ff7069e87fe83209c" sha1="6bf4b1169d496a3e32702d7562cfd0c915e0a41e" />
<rom name="CyberMycha 01-2005 (Poland) (Track 02).bin" size="16419312" crc="959cf6e0" md5="236e738fd692dbda447192254576a600" sha1="7f2dd4df4d95d79f6c0b1ab96efe82354f9dc870" />
<rom name="CyberMycha 01-2005 (Poland) (Track 03).bin" size="21245616" crc="173bac14" md5="f53b7eb6ee310fdbcd9e87578572486d" sha1="4af909c9cf0d605a934cb23b17f8bd379a0d75fd" />
<rom name="CyberMycha 01-2005 (Poland) (Track 04).bin" size="28231056" crc="753b4384" md5="d902b2c4b19bd7a2c89b26902e63c2c4" sha1="067f6b1e0efa85d2d5517b7d7b058e4ca7be90ae" />
<rom name="CyberMycha 01-2005 (Poland) (Track 05).bin" size="35534016" crc="e522d1c1" md5="cd51bcce482e573354ab75681199d14b" sha1="d284cd15b9833aacd06f32a2d3c058ec9b1e336e" />
<rom name="CyberMycha 01-2005 (Poland) (Track 06).bin" size="20420064" crc="0b9dfe50" md5="29c4a10c63a8dcd8a14f5c83ae4fa051" sha1="9dc30bbb15a8cb8a6897aa47f737a1b149052675" />
<rom name="CyberMycha 01-2005 (Poland) (Track 07).bin" size="26135424" crc="512cbd75" md5="2bd6c0f2d5c24aa08895d9209605c1b7" sha1="eddf00c60a8be577f2154a5bee416e103c2ff815" />
<rom name="CyberMycha 01-2005 (Poland) (Track 08).bin" size="24547824" crc="800f2a1a" md5="895f6ff66ed304bbbdc9d8be34f5fa39" sha1="714f6be9e93a3e6b79106fa4558bf37a4707cd46" />
<rom name="CyberMycha 01-2005 (Poland) (Track 09).bin" size="31406256" crc="789750f0" md5="10fec0cb232fce9b8b4eed1ea32b4d32" sha1="f2c17604b8e16f8e7daffd2227ee9b0596d2425a" />
<rom name="CyberMycha 01-2005 (Poland) (Track 10).bin" size="17498880" crc="68a4948e" md5="71cbccb0750fe1e29fb8f6085b3f9d6e" sha1="7642a7ff96456eac5162d1a7c38e519a66fa6fe8" />
<rom name="CyberMycha 01-2005 (Poland) (Track 11).bin" size="24865344" crc="a1ac738b" md5="fb145aee89fc76e2e19803038f1ded50" sha1="56408c7bf699ea2f9eb7457a161757359ddec121" />
<rom name="CyberMycha 01-2005 (Poland) (Track 12).bin" size="15085728" crc="c10afc34" md5="d2e86a59239cdaaa19d2e11c937e2fe2" sha1="d734a0deb363fa2c6b869569f0bcbfac4b4558a1" />
<rom name="CyberMycha 01-2005 (Poland) (Track 13).bin" size="37185120" crc="7e26c007" md5="acf2e5d079cda683408a342e7e41b235" sha1="6200f194eede3ef6478b571f30712cf82b5f9945" />
<rom name="CyberMycha 01-2005 (Poland) (Track 14).bin" size="22325184" crc="e82ae42a" md5="ac8c2cda0eb9d6d05eafcad2d7e2f3de" sha1="dd2392971b0a7a05433266a3a42f8556cc554b75" />
<rom name="CyberMycha 01-2005 (Poland) (Track 15).bin" size="49695408" crc="67f1949b" md5="ef16424f7f107876a73b98bed9ed79e5" sha1="a55cd258689f772df4093457c2da8e1b3f4b9f62" />

    Cuesheet:

FILE "CyberMycha 01-2005 (Poland) (Track 01).bin" BINARY
  TRACK 01 MODE1/2352
    INDEX 01 00:00:00
FILE "CyberMycha 01-2005 (Poland) (Track 02).bin" BINARY
  TRACK 02 AUDIO
    FLAGS DCP
    INDEX 00 00:00:00
    INDEX 01 00:02:00
FILE "CyberMycha 01-2005 (Poland) (Track 03).bin" BINARY
  TRACK 03 AUDIO
    FLAGS DCP
    INDEX 00 00:00:00
    INDEX 01 00:02:00
FILE "CyberMycha 01-2005 (Poland) (Track 04).bin" BINARY
  TRACK 04 AUDIO
    FLAGS DCP
    INDEX 00 00:00:00
    INDEX 01 00:02:00
FILE "CyberMycha 01-2005 (Poland) (Track 05).bin" BINARY
  TRACK 05 AUDIO
    FLAGS DCP
    INDEX 00 00:00:00
    INDEX 01 00:02:00
FILE "CyberMycha 01-2005 (Poland) (Track 06).bin" BINARY
  TRACK 06 AUDIO
    FLAGS DCP
    INDEX 00 00:00:00
    INDEX 01 00:02:00
FILE "CyberMycha 01-2005 (Poland) (Track 07).bin" BINARY
  TRACK 07 AUDIO
    FLAGS DCP
    INDEX 00 00:00:00
    INDEX 01 00:02:00
FILE "CyberMycha 01-2005 (Poland) (Track 08).bin" BINARY
  TRACK 08 AUDIO
    FLAGS DCP
    INDEX 00 00:00:00
    INDEX 01 00:02:00
FILE "CyberMycha 01-2005 (Poland) (Track 09).bin" BINARY
  TRACK 09 AUDIO
    FLAGS DCP
    INDEX 00 00:00:00
    INDEX 01 00:02:00
FILE "CyberMycha 01-2005 (Poland) (Track 10).bin" BINARY
  TRACK 10 AUDIO
    FLAGS DCP
    INDEX 00 00:00:00
    INDEX 01 00:02:00
FILE "CyberMycha 01-2005 (Poland) (Track 11).bin" BINARY
  TRACK 11 AUDIO
    FLAGS DCP
    INDEX 00 00:00:00
    INDEX 01 00:02:00
FILE "CyberMycha 01-2005 (Poland) (Track 12).bin" BINARY
  TRACK 12 AUDIO
    FLAGS DCP
    INDEX 00 00:00:00
    INDEX 01 00:02:00
FILE "CyberMycha 01-2005 (Poland) (Track 13).bin" BINARY
  TRACK 13 AUDIO
    FLAGS DCP
    INDEX 00 00:00:00
    INDEX 01 00:02:00
FILE "CyberMycha 01-2005 (Poland) (Track 14).bin" BINARY
  TRACK 14 AUDIO
    FLAGS DCP
    INDEX 00 00:00:00
    INDEX 01 00:02:00
FILE "CyberMycha 01-2005 (Poland) (Track 15).bin" BINARY
  TRACK 15 AUDIO
    FLAGS DCP
    INDEX 00 00:00:00
    INDEX 01 00:02:00

    Write Offset: -6

Dumping Info:
    Dumping Program: redumper v2023.08.28 build_211
    Date: 2023-09-12 02:09:32
    Manufacturer: PLEXTOR
    Model: CD-R PX-W5224A
    Firmware: 1.04 (04/10/06 17:00)

Logs: https://drive.google.com/file/d/14AYUjO … sp=sharing

Verification of https://redump.org/disc/44183/.

Common Disc Info:
    Title: Click! Extra 07/2000
    Disc Number / Letter: 
    Disc Title: 
    System: IBM PC compatible
    Media Type: CD-ROM
    Category: Coverdiscs
    Fully Matching ID: 44183
    Region: Poland
    Languages: SILENCE! (CHANGE THIS)
    Disc Serial: 

    Ringcode Information:

Data Side Mastering Code (laser branded/etched): www.gmrecords.pl GMR 448/ CLICK
Data Side Mastering SID Code: IFPI LL88
Data Side Toolstamp or Mastering Code (engraved/stamped): 
Data Side Mould SID Code: 
Data Side Additional Mould: 
Label Side Mould SID Code: 

    Barcode: 
    Error Count: 0
    Comments: [T:VOL] CLICK!CD
    Contents:

[T:PD]
Deus Ex
Motocross Madness 2
Starlancer
Superchix '76
Terminus
UEFA Euro 2000
Balls of Steel
Dance eJay 2.0

[T:GF]
Arcanum
Diablo II
Diablo II PL
Warcraft

Version and Editions:
    Version: 
    Edition/Release: 

Extras:
    Primary Volume Descriptor (PVD):

0320 : 20 20 20 20 20 20 20 20  20 20 20 20 20 32 30 30                200
0330 : 30 30 36 32 36 31 31 31  31 30 33 30 30 00 32 30   0062611110300.20
0340 : 30 30 30 36 32 36 31 31  31 31 33 35 30 30 00 00   00062611113500..
0350 : 00 00 00 00 00 00 00 00  00 00 00 00 00 00 00 00   ................
0360 : 00 00 00 00 00 00 00 00  00 00 00 00 00 00 00 00   ................
0370 : 00 01 00 00 00 00 00 00  00 00 00 00 00 00 00 00   ................

Copy Protection:
    Copy Protection: SafeDisc Lite

Tracks and Write Offsets:
    DAT:

<rom name="Click! Extra 07-2000 (Poland).bin" size="835115232" crc="596c990d" md5="8c2d296d9b4002e3ca5bc489bb777cff" sha1="0954c49e3eac4db147e4946ce538058e1eaa3869" />

    Cuesheet:

FILE "Click! Extra 07-2000 (Poland).bin" BINARY
  TRACK 01 MODE2/2352
    INDEX 01 00:00:00

    Write Offset: -12

Dumping Info:
    Dumping Program: redumper v2023.08.28 build_211
    Date: 2023-09-12 12:24:33
    Manufacturer: PLEXTOR
    Model: CD-R PX-W5224A
    Firmware: 1.04 (04/10/06 17:00)

Logs: https://drive.google.com/file/d/1z-MFnC … sp=sharing

Disc 2:

Verification of https://redump.org/disc/44832/.

Common Disc Info:
    Title: Komputer Świat Gry 4/2004
    Foreign Title (Non-latin): Worms 2
    Disc Number / Letter: 2
    Disc Title: 
    System: IBM PC compatible
    Media Type: CD-ROM
    Category: Coverdiscs
    Fully Matching ID: 44832
    Region: Poland
    Languages: SILENCE! (CHANGE THIS)
    Disc Serial: 

    Ringcode Information:

Data Side Mastering Code (laser branded/etched): www.takt.com.pl    takt    2100000035939    takt
Data Side Mastering SID Code: ifpi LK96
Data Side Toolstamp or Mastering Code (engraved/stamped): 
Data Side Mould SID Code: IFPI 9R1R
Data Side Additional Mould: 
Label Side Mould SID Code: 

    Barcode: 
    Error Count: 0
    Comments: [T:VOL] Gry_04_2004_cd2
    Contents:

[T:P]
Commandos 3 PL v1.42
Max Payne 2 v1.01
Neverwinter Nights: Shadows of Undrentide PL v1.32
Praetorians v1.04
Railroad Tycoon 3 PL v1.03
Sim City 4 Patch 2 EU
Warcraft III: Reign of Chaos PL v1.14b
Warcraft III: The Frozen Throne PL v1.14b

[T:X]
Wallpapers from:
Beyond Good & Evil
Homeworld 2
Legacy of Kain: Defiance
Railroad Tycoon 3
Świątynia Pierwotnego Zła

Cheat codes database from Komputer Świat Gry

Version and Editions:
    Version: 
    Edition/Release: 

Extras:
    Primary Volume Descriptor (PVD):

0320 : 20 20 20 20 20 20 20 20  20 20 20 20 20 32 30 30                200
0330 : 34 30 32 30 35 31 31 35  35 30 30 30 30 04 32 30   4020511550000.20
0340 : 30 34 30 32 30 35 31 31  35 35 30 30 30 30 04 30   04020511550000.0
0350 : 30 30 30 30 30 30 30 30  30 30 30 30 30 30 30 00   000000000000000.
0360 : 30 30 30 30 30 30 30 30  30 30 30 30 30 30 30 30   0000000000000000
0370 : 00 01 00 00 00 00 00 00  00 00 00 00 00 00 00 00   ................

Copy Protection:
    Copy Protection: None found

Tracks and Write Offsets:
    DAT:

<rom name="Komputer Swiat Gry 4-2004 (Poland) (Disc 2) (Track 01).bin" size="490831824" crc="549ad26c" md5="ffc1120655bba6d5d8ad963b99418291" sha1="c4bba04d5428fa88b5e55dbebda42d795e74dbdc" />
<rom name="Komputer Swiat Gry 4-2004 (Poland) (Disc 2) (Track 02).bin" size="2290848" crc="f4e9ae79" md5="38854c1a1fb18964b5ce8dc1340e2732" sha1="9829b94ad485514cdd9a709782112268373853a3" />
<rom name="Komputer Swiat Gry 4-2004 (Poland) (Disc 2) (Track 03).bin" size="45889872" crc="fc64ca87" md5="bf4d431fd6350d00d748ab21376ffdb1" sha1="334869217a59ecc77aa1df4e874789ec22817c94" />
<rom name="Komputer Swiat Gry 4-2004 (Poland) (Disc 2) (Track 04).bin" size="36710016" crc="a517feb2" md5="653226f98f37f0cef876d98c1aceca85" sha1="21fe8f6fbd1d4d1007c5a030918c4f4e63a6051a" />
<rom name="Komputer Swiat Gry 4-2004 (Poland) (Disc 2) (Track 05).bin" size="37194528" crc="3a269ed9" md5="ad6f0a449571d6c99b6a7a0246e622b9" sha1="f430e01cd15d9d696cdff89e17d74ea8c0dc6ab9" />
<rom name="Komputer Swiat Gry 4-2004 (Poland) (Disc 2) (Track 06).bin" size="42552384" crc="60f5fbb3" md5="94f61fcf87551fef6c6834879725d35c" sha1="1ba8a20a5ef2ef375f16dde5d8549b49259abea0" />
<rom name="Komputer Swiat Gry 4-2004 (Poland) (Disc 2) (Track 07).bin" size="39864048" crc="3f33d5e5" md5="1b14f5e6f778c4d56192b9cfd2766f6f" sha1="ee178741195494d04fd0776c6083c7a4dd00b513" />
<rom name="Komputer Swiat Gry 4-2004 (Poland) (Disc 2) (Track 08).bin" size="39177264" crc="b562ce2a" md5="dc07c842d7a5a3e27c7975b8f722c63a" sha1="4b3bbf5e6299bd74acd02460db93e2ca41c20c4a" />
<rom name="Komputer Swiat Gry 4-2004 (Poland) (Disc 2) (Track 09).bin" size="40677840" crc="bb5b850b" md5="4f4adea445dbcf1ba5a49a70a415e4b7" sha1="9b4c08e7a85fbcdce0bf81d7b990a42db5d4f089" />
<rom name="Komputer Swiat Gry 4-2004 (Poland) (Disc 2) (Track 10).bin" size="1938048" crc="62d5330e" md5="5c624904f00db13f32d95074a0483fab" sha1="cb8db390111f21a399f32ce358c3dd6ae5894a7f" />
<rom name="Komputer Swiat Gry 4-2004 (Poland) (Disc 2) (Track 11).bin" size="18618432" crc="f728b8bf" md5="90494cd632ded783f074a80242903771" sha1="5ca900cfc093dfb3c4cb6e850097098edfe806a0" />
<rom name="Komputer Swiat Gry 4-2004 (Poland) (Disc 2) (Track 12).bin" size="2255568" crc="08714799" md5="23d86a8bc1e8bd69d752bdcd65fad748" sha1="d59b643393de19379b29026564d038b9e020570c" />
<rom name="Komputer Swiat Gry 4-2004 (Poland) (Disc 2) (Track 13).bin" size="1825152" crc="e81d9203" md5="aefe19815ee8760fd3a64ff11c4e6698" sha1="e54746c29d347ac12677c2924281f4cad605999f" />

    Cuesheet:

FILE "Komputer Swiat Gry 4-2004 (Poland) (Disc 2) (Track 01).bin" BINARY
  TRACK 01 MODE2/2352
    INDEX 01 00:00:00
FILE "Komputer Swiat Gry 4-2004 (Poland) (Disc 2) (Track 02).bin" BINARY
  TRACK 02 AUDIO
    INDEX 00 00:00:00
    INDEX 01 00:02:00
FILE "Komputer Swiat Gry 4-2004 (Poland) (Disc 2) (Track 03).bin" BINARY
  TRACK 03 AUDIO
    INDEX 01 00:00:00
FILE "Komputer Swiat Gry 4-2004 (Poland) (Disc 2) (Track 04).bin" BINARY
  TRACK 04 AUDIO
    INDEX 01 00:00:00
FILE "Komputer Swiat Gry 4-2004 (Poland) (Disc 2) (Track 05).bin" BINARY
  TRACK 05 AUDIO
    INDEX 01 00:00:00
FILE "Komputer Swiat Gry 4-2004 (Poland) (Disc 2) (Track 06).bin" BINARY
  TRACK 06 AUDIO
    INDEX 01 00:00:00
FILE "Komputer Swiat Gry 4-2004 (Poland) (Disc 2) (Track 07).bin" BINARY
  TRACK 07 AUDIO
    INDEX 01 00:00:00
FILE "Komputer Swiat Gry 4-2004 (Poland) (Disc 2) (Track 08).bin" BINARY
  TRACK 08 AUDIO
    INDEX 01 00:00:00
FILE "Komputer Swiat Gry 4-2004 (Poland) (Disc 2) (Track 09).bin" BINARY
  TRACK 09 AUDIO
    INDEX 01 00:00:00
FILE "Komputer Swiat Gry 4-2004 (Poland) (Disc 2) (Track 10).bin" BINARY
  TRACK 10 AUDIO
    INDEX 01 00:00:00
FILE "Komputer Swiat Gry 4-2004 (Poland) (Disc 2) (Track 11).bin" BINARY
  TRACK 11 AUDIO
    INDEX 01 00:00:00
FILE "Komputer Swiat Gry 4-2004 (Poland) (Disc 2) (Track 12).bin" BINARY
  TRACK 12 AUDIO
    INDEX 01 00:00:00
FILE "Komputer Swiat Gry 4-2004 (Poland) (Disc 2) (Track 13).bin" BINARY
  TRACK 13 AUDIO
    INDEX 01 00:00:00

    Write Offset: -6

Dumping Info:
    Dumping Program: redumper v2023.08.28 build_211
    Date: 2023-09-11 10:18:54
    Manufacturer: PLEXTOR
    Model: CD-R PX-W5224A
    Firmware: 1.04 (04/10/06 17:00)

Logs: https://drive.google.com/file/d/1bkAd19 … sp=sharing

Disc 1:

Verification of https://redump.org/disc/44831/.

Common Disc Info:
    Title: Komputer Świat Gry 4/2004
    Foreign Title (Non-latin): Kurka Wodna 2 | Ski Park Manager
    Disc Number / Letter: 1
    Disc Title: 
    System: IBM PC compatible
    Media Type: CD-ROM
    Category: Coverdiscs
    Fully Matching ID: 44831
    Region: Poland
    Languages: SILENCE! (CHANGE THIS)
    Disc Serial: 

    Ringcode Information:

Data Side Mastering Code (laser branded/etched): www.takt.com.pl    takt    2100000035922    
Data Side Mastering SID Code: ifpi LK96
Data Side Toolstamp or Mastering Code (engraved/stamped): 
Data Side Mould SID Code: IFPI 9R30
Data Side Additional Mould: 
Label Side Mould SID Code: 

    Barcode: 
    Error Count: 0
    Comments: [T:VOL] Gry_04_2004_cd1
    Contents:

<b>Games</b>:
Kurka Wodna 2
Ski Park Manager

[T:PD]
Contract J.A.C.K.
Homeworld 2
Railroad Tycoon 3

<b>Minigames</b>:
BeatBall
GeneRally 1.5
Girls from the Block
Macky & Pentell
Pipiru the Archer

[T:GF]
Driv3r
Neverwinter Nights: Hordes of the Underdark
Richard Burns Rally

Version and Editions:
    Version: 
    Edition/Release: 

Extras:
    Primary Volume Descriptor (PVD):

0320 : 20 20 20 20 20 20 20 20  20 20 20 20 20 32 30 30                200
0330 : 34 30 32 30 35 31 32 30  32 30 30 30 30 04 32 30   4020512020000.20
0340 : 30 34 30 32 30 35 31 32  30 32 30 30 30 30 04 30   04020512020000.0
0350 : 30 30 30 30 30 30 30 30  30 30 30 30 30 30 30 00   000000000000000.
0360 : 30 30 30 30 30 30 30 30  30 30 30 30 30 30 30 30   0000000000000000
0370 : 00 01 00 00 00 00 00 00  00 00 00 00 00 00 00 00   ................

Copy Protection:
    Copy Protection: None found

Tracks and Write Offsets:
    DAT:

<rom name="Komputer Swiat Gry 4-2004 (Poland) (Disc 1).bin" size="842872128" crc="b7e499e5" md5="f5aa0644e1de1bb1d7597e95c04659d0" sha1="7cee62a82ad2b28de05eb334132f86ab7ea2db20" />

    Cuesheet:

FILE "Komputer Swiat Gry 4-2004 (Poland) (Disc 1).bin" BINARY
  TRACK 01 MODE2/2352
    INDEX 01 00:00:00

    Write Offset: -6

Dumping Info:
    Dumping Program: redumper v2023.08.28 build_211
    Date: 2023-09-11 09:40:34
    Manufacturer: PLEXTOR
    Model: CD-R PX-W5224A
    Firmware: 1.04 (04/10/06 17:00)

Logs: https://drive.google.com/file/d/1CPAazk … sp=sharing