1

(0 replies, posted in Verifications)

http://redump.org/disc/79383/

Logs: https://mega.nz/file/63pUQaSY#JflOGBBAV … 7OT7cwmi20

Common Disc Info:
    Title: Fengkuang Zhuti Leyuan
    Foreign Title (Non-latin): 瘋狂主題樂園
    Disc Number / Letter: (OPTIONAL)
    Disc Title: (OPTIONAL)
    System: IBM PC Compatible
    Media Type: CD-ROM
    Category: Games
    Region: Taiwan
    Languages: Chinese
    Disc Serial: (REQUIRED, IF EXISTS)

    Ringcode Information:
        Data Side Mastering Code (laser branded/etched): 5014033 CHS    (AL252A)
        Data Side Mastering SID Code: IFPI LB22
        Data Side Toolstamp or Mastering Code (engraved/stamped): (REQUIRED, IF EXISTS)
        Data Side Mould SID Code: IFPI 6D01
        Data Side Additional Mould: (REQUIRED, IF EXISTS)
        Label Side Mould SID Code: (REQUIRED, IF EXISTS)
        Label Side Additional Mould: 
    Barcode: (OPTIONAL)
    Error Count: 831
    Comments: Alternative Foreign Title: Theme Park World
    Contents: (OPTIONAL)

Version and Editions:
    Version: (REQUIRED, IF EXISTS)
    Edition/Release: Original

Extras:
    Primary Volume Descriptor (PVD):

0320 : 20 20 20 20 20 20 20 20  20 20 20 20 20 31 39 39                199
0330 : 39 31 31 31 36 31 33 30  35 30 31 30 30 00 31 39   9111613050100.19
0340 : 39 39 31 31 31 36 31 33  30 35 30 31 30 30 00 30   99111613050100.0
0350 : 30 30 30 30 30 30 30 30  30 30 30 30 30 30 30 00   000000000000000.
0360 : 30 30 30 30 30 30 30 30  30 30 30 30 30 30 30 30   0000000000000000
0370 : 00 01 00 00 00 00 00 00  00 00 00 00 00 00 00 00   ................

Copy Protection:
    Copy Protection: SafeDisc (dplayerx.dll) 1.35, SafeDisc (drvmgt.dll) 1.1x-1.3x, SafeDisc (secdrv.sys), SafeDisc (secdrv.sys) 1-3, SafeDisc 1, SafeDisc 1.35.000, SafeDisc 1-3

Tracks and Write Offsets:
    DAT:

<rom name="TPWORLD.bin" size="590523696" crc="2e11ccac" md5="9a1bc577c55866c74bebb625cb8e0e65" sha1="6ecf4262cf2014cbef8e93e4eb4093b2e102a89d" />

    Cuesheet:

FILE "TPWORLD.bin" BINARY
  TRACK 01 MODE1/2352
    INDEX 01 00:00:00

    Write Offset: -12

2

(1 replies, posted in Verifications)

Disc 2

http://redump.org/disc/60052/

Logs: https://mega.nz/file/3zQ3EAgC#lql9P66hl … G4qtEMOsJI

Common Disc Info:
    Title: Sub Command: Akula 688(I) Seawolf
    Foreign Title (Non-latin): 潛艇指揮官
    Disc Number / Letter: 2
    Disc Title: (OPTIONAL)
    System: IBM PC Compatible
    Media Type: CD-ROM
    Category: Games
    Region: Taiwan
    Languages: English
    Disc Serial: 1430817

    Ringcode Information:
        Data Side Mastering Code (laser branded/etched): 1430817    + +    B2073-02
        Data Side Mastering SID Code: IFPI LB48
        Data Side Toolstamp or Mastering Code (engraved/stamped): (REQUIRED, IF EXISTS)
        Data Side Mould SID Code: IFPI 1006
        Data Side Additional Mould: (REQUIRED, IF EXISTS)
        Label Side Mould SID Code: (REQUIRED, IF EXISTS)
        Label Side Additional Mould: 
    Barcode: 0 14633 14308 9
    Error Count: 1
    Comments: [T:ISBN] (OPTIONAL)
    Contents: (OPTIONAL)

Version and Editions:
    Version: (REQUIRED, IF EXISTS)
    Edition/Release: Original

Extras:
    Primary Volume Descriptor (PVD):

0320 : 20 20 20 20 20 20 20 20  20 20 20 20 20 32 30 30                200
0330 : 31 30 38 32 31 31 34 35  39 34 36 30 30 00 32 30   1082114594600.20
0340 : 30 31 30 38 32 31 31 34  35 39 34 36 30 30 00 30   01082114594600.0
0350 : 30 30 30 30 30 30 30 30  30 30 30 30 30 30 30 00   000000000000000.
0360 : 30 30 30 30 30 30 30 30  30 30 30 30 30 30 30 30   0000000000000000
0370 : 00 01 00 00 00 00 00 00  00 00 00 00 00 00 00 00   ................

Copy Protection:
    Copy Protection: SecuROM 4.54.00.0035
    SubIntention Data (SecuROM/LibCrypt):

MSF: 00:01:74 Q-Data: 410100 00:40:00 00 00:03:74 84a0
MSF: 01:08:50 Q-Data: 410101 21:06:50 00 05:08:50 0a8f
MSF: 01:12:37 Q-Data: 410101 00:10:37 00 81:12:37 131b
MSF: 01:31:54 Q-Data: 410101 01:2d:54 00 01:11:54 8c0b
MSF: 01:33:31 Q-Data: 410101 01:35:31 00 01:13:31 fb27
MSF: 02:18:47 Q-Data: 410101 42:16:47 00 00:18:47 93f2
MSF: 02:43:46 Q-Data: 410101 02:51:46 00 02:4b:46 4312
MSF: 02:47:24 Q-Data: 410101 02:41:24 00 02:67:24 98cc
MSF: 03:03:39 Q-Data: 410101 03:09:39 00 03:13:39 5c98
MSF: 03:05:16 Q-Data: 410101 03:0b:16 00 03:15:16 c5be
MSF: 03:28:62 Q-Data: 410101 01:26:62 00 43:28:62 699e

Tracks and Write Offsets:
    DAT:

<rom name="subcmnd2.bin" size="364186032" crc="75ec255a" md5="fef92a2e208ffb1b44b6b9f0737246c0" sha1="a31aece5fd65333d8fe636cfb13b6f74f8691346" />

    Cuesheet:

FILE "subcmnd2.bin" BINARY
  TRACK 01 MODE1/2352
    INDEX 01 00:00:00

    Write Offset: -647

3

(1 replies, posted in Verifications)

Disc 1

http://redump.org/disc/60051/

Logs: https://mega.nz/file/3jAXkQwZ#f1yDPVBb0 … G-feErGOy4

Common Disc Info:
    Title: Sub Command: Akula 688(I) Seawolf
    Foreign Title (Non-latin): 潛艇指揮官
    Disc Number / Letter: 1
    Disc Title: (OPTIONAL)
    System: IBM PC Compatible
    Media Type: CD-ROM
    Category: Games
    Region: Taiwan
    Languages: English
    Disc Serial: 1430807

    Ringcode Information:
        Data Side Mastering Code (laser branded/etched): 1430807    + +    B2024-01
        Data Side Mastering SID Code: IFPI LB48
        Data Side Toolstamp or Mastering Code (engraved/stamped): (REQUIRED, IF EXISTS)
        Data Side Mould SID Code: IFPI 1028
        Data Side Additional Mould: (REQUIRED, IF EXISTS)
        Label Side Mould SID Code: (REQUIRED, IF EXISTS)
        Label Side Additional Mould: 
    Barcode: 0 14633 14308 9
    Error Count: 1
    Comments: [T:ISBN] (OPTIONAL)
    Contents: (OPTIONAL)

Version and Editions:
    Version: (REQUIRED, IF EXISTS)
    Edition/Release: Original

Extras:
    Primary Volume Descriptor (PVD):

0320 : 20 20 20 20 20 20 20 20  20 20 20 20 20 32 30 30                200
0330 : 31 30 38 32 31 31 34 35  35 33 37 30 30 00 32 30   1082114553700.20
0340 : 30 31 30 38 32 31 31 34  35 35 33 37 30 30 00 30   01082114553700.0
0350 : 30 30 30 30 30 30 30 30  30 30 30 30 30 30 30 00   000000000000000.
0360 : 30 30 30 30 30 30 30 30  30 30 30 30 30 30 30 30   0000000000000000
0370 : 00 01 00 00 00 00 00 00  00 00 00 00 00 00 00 00   ................

Copy Protection:
    Copy Protection: SecuROM 4.54.00.0035
    SubIntention Data (SecuROM/LibCrypt):

MSF: 00:01:74 Q-Data: 410100 00:40:00 00 00:03:74 84a0
MSF: 01:08:50 Q-Data: 410101 21:06:50 00 05:08:50 0a8f
MSF: 01:12:37 Q-Data: 410101 00:10:37 00 81:12:37 131b
MSF: 01:31:54 Q-Data: 410101 01:2d:54 00 01:11:54 8c0b
MSF: 01:33:31 Q-Data: 410101 01:35:31 00 01:13:31 fb27
MSF: 02:18:47 Q-Data: 410101 42:16:47 00 00:18:47 93f2
MSF: 02:43:46 Q-Data: 410101 02:51:46 00 02:4b:46 4312
MSF: 02:47:24 Q-Data: 410101 02:41:24 00 02:67:24 98cc
MSF: 03:03:39 Q-Data: 410101 03:09:39 00 03:13:39 5c98
MSF: 03:05:16 Q-Data: 410101 03:0b:16 00 03:15:16 c5be
MSF: 03:28:62 Q-Data: 410101 01:26:62 00 43:28:62 699e

Tracks and Write Offsets:
    DAT:

<rom name="subcmnd1.bin" size="699186096" crc="7dc9c10d" md5="76064b4680c0caa71050a6816ab55511" sha1="9bd7142379b035c49db2f8072878fec230db6905" />

    Cuesheet:

FILE "subcmnd1.bin" BINARY
  TRACK 01 MODE1/2352
    INDEX 01 00:00:00

    Write Offset: -647

4

(1 replies, posted in Verifications)

Disc 2

http://redump.org/disc/32593/

Logs: https://mega.nz/file/27YS1bqI#_Dsy9SrSy … 08JWbIr8L4

Common Disc Info:
    Title: The Fuse
    Foreign Title (Non-latin): 導火線
    Disc Number / Letter: 2
    Disc Title: (OPTIONAL)
    System: IBM PC Compatible
    Media Type: CD-ROM
    Category: Games
    Region: Taiwan
    Languages: Chinese
    Disc Serial: (REQUIRED, IF EXISTS)

    Ringcode Information:
        Data Side Mastering Code (laser branded/etched): 導火線 DISK-2 安裝片
        Data Side Mastering SID Code: IFPI LD68
        Data Side Toolstamp or Mastering Code (engraved/stamped): (REQUIRED, IF EXISTS)
        Data Side Mould SID Code: IFPI 5N08
        Data Side Additional Mould: (REQUIRED, IF EXISTS)
        Label Side Mould SID Code: (REQUIRED, IF EXISTS)
        Label Side Additional Mould: 
    Barcode: (OPTIONAL)
    Error Count: 0
    Comments: [T:ISBN] (OPTIONAL)
    Contents: (OPTIONAL)

Version and Editions:
    Version: (REQUIRED, IF EXISTS)
    Edition/Release: Original

Extras:
    Primary Volume Descriptor (PVD):

0320 : 20 20 20 20 20 20 20 20  20 20 20 20 20 32 30 30                200
0330 : 30 30 36 31 31 32 30 31  38 32 38 30 30 00 32 30   0061120182800.20
0340 : 30 30 30 36 31 31 32 30  31 38 32 38 30 30 00 30   00061120182800.0
0350 : 30 30 30 30 30 30 30 30  30 30 30 30 30 30 30 00   000000000000000.
0360 : 30 30 30 30 30 30 30 30  30 30 30 30 30 30 30 30   0000000000000000
0370 : 00 01 00 00 00 00 00 00  00 00 00 00 00 00 00 00   ................

Copy Protection:
    Copy Protection: None found

Tracks and Write Offsets:
    DAT:

<rom name="FuseMusic (Track 01).bin" size="1058400" crc="1b2f1114" md5="ef95552366cce5b7b15d380a62362ccf" sha1="fa838d62f29da2fbd901a4741eb9392c5df207bb" />
<rom name="FuseMusic (Track 02).bin" size="16805040" crc="4e3f13cc" md5="9e8fcf68bdcb00b69a4694da085e4775" sha1="1dfcbea681f4b8c8c526564dce680a3bb5d5cb59" />
<rom name="FuseMusic (Track 03).bin" size="21579600" crc="6fc91b7b" md5="1cef358d671118f82dd3252c4315e613" sha1="2a593ce49d3b110fe44e83c6338c112b18350d5e" />
<rom name="FuseMusic (Track 04).bin" size="56123424" crc="5998bb88" md5="6db1e25638f6d6eb644575e4ccec9e70" sha1="62b1c735ee2f8be8e62c5e098016491a36f08020" />
<rom name="FuseMusic (Track 05).bin" size="14227248" crc="fed7de04" md5="735abdbb186dcc1c369db75c73392455" sha1="b67ef44185dcd2c471eab3f84b83cf74d3ce61f7" />
<rom name="FuseMusic (Track 06).bin" size="13566336" crc="a1be6f8b" md5="ab06423f683c24f8cabdca1b2451193c" sha1="0f6a216d11ce2ef3fbf11fd44173f8be88ee620c" />
<rom name="FuseMusic (Track 07).bin" size="16499280" crc="6176cec0" md5="78163ac4514eacfcc1db45e22cb2068f" sha1="b55903035a7139e4e11d8db431266f488464a489" />
<rom name="FuseMusic (Track 08).bin" size="18667824" crc="2cdecae0" md5="e795601e211d2b7875f0796c6d5f81c1" sha1="208d9c800b42466e9cf5a992a8e1ee7660cd694b" />
<rom name="FuseMusic (Track 09).bin" size="6743184" crc="48b5e544" md5="8b5198fb72235bcfa230a4deda8f4695" sha1="ad4271dd021d372554081ae2d117092cf0d37855" />
<rom name="FuseMusic (Track 10).bin" size="15704304" crc="f063be7f" md5="fbce357c26bdfe2e1b7a010fe89106f0" sha1="f8777d32d1b84c2240c1d40ba947ed52bd2eac9f" />
<rom name="FuseMusic (Track 11).bin" size="12190416" crc="dbaee8d9" md5="56021cb615c544519d3f45febe9350f8" sha1="a5365a57dfa49accf71c63a788a2fc73852774a2" />
<rom name="FuseMusic (Track 12).bin" size="23277744" crc="d0c96b7f" md5="62e9f4f6bdf398d35165da9c67ceb108" sha1="6c0145bbdfa01d3634b21cf63f1132c03ae989f3" />
<rom name="FuseMusic (Track 13).bin" size="17919888" crc="1f3d7e60" md5="bced46837504afcdf3c9acd73e449016" sha1="ad8637abf3cdb8342ddc7f2adc8fed5b0a503b92" />
<rom name="FuseMusic (Track 14).bin" size="10736880" crc="c296b1f5" md5="0d2981d4be602847d1c55c9892246878" sha1="2116ce04a10e7776cfa0308a596d3edfa4814a48" />
<rom name="FuseMusic (Track 15).bin" size="8949360" crc="a50e803b" md5="5999ccecb64a66e9372a872d09d55274" sha1="8f006e449e7c496a34562c5d78c76341f5f1baf8" />
<rom name="FuseMusic (Track 16).bin" size="19342848" crc="8f19c43b" md5="5e3050e1898fcca95df1daa933707538" sha1="79d4ccd1ed6908e2c647c2bd2b7f465b98d089e2" />
<rom name="FuseMusic (Track 17).bin" size="9899568" crc="d5ef3ff5" md5="e3def9ed030ebdb45604b373205c70ae" sha1="23a8cdb91c4adc975f16d1c5cf9a77496a118be2" />
<rom name="FuseMusic (Track 18).bin" size="9476208" crc="5bb0a8bb" md5="e6deca8d229ea0d57997f780cfebcc8a" sha1="5a7b51e5f9c88924cf835fdb4bd0b23fbb1280cd" />
<rom name="FuseMusic (Track 19).bin" size="14142576" crc="14e7c7a2" md5="adb7bdb02cc78ac13b462fe2c28290ed" sha1="4ba4319d6252add28f04b656c33f78dd997731b4" />
<rom name="FuseMusic (Track 20).bin" size="15873648" crc="04251ee8" md5="5a56eb38a8b1f2a8ffefbc385e0036e9" sha1="0418f3726d0d9c151caa3b711621a76e62682e25" />
<rom name="FuseMusic (Track 21).bin" size="38090640" crc="9e10c4a9" md5="63c4480a6d3cbf973efcfb3973b20b68" sha1="5b63915214028499db0ebfab537fb20cb0260440" />
<rom name="FuseMusic (Track 22).bin" size="9280992" crc="8842ca4a" md5="657f5d69ea2259ad55de8bd1ade5df3d" sha1="b029a5c5dea1f22645c2c4b74943c3181687fba0" />
<rom name="FuseMusic (Track 23).bin" size="21146832" crc="d27fd743" md5="bdfcdafc96c8d7197f451cf746c80c8e" sha1="0e1e24d9965cff14a3fb851cb7030713e2bc5086" />
<rom name="FuseMusic (Track 24).bin" size="13643952" crc="54d3b962" md5="b034b0d9568e2f9b48405447313b71c6" sha1="304cfb9057535729813856779fc2d860e8d5ea76" />
<rom name="FuseMusic (Track 25).bin" size="22066464" crc="24134b5a" md5="2afbf94db5574ac1580e4cc4c6156b61" sha1="1ea40ea8033e284f521cbf51eda0702660964748" />
<rom name="FuseMusic (Track 26).bin" size="11108496" crc="09866446" md5="3d836037953c00949661ade2b2399637" sha1="34f0863f698eaf66fd3fe03e9f24962f47fa3081" />
<rom name="FuseMusic (Track 27).bin" size="17498880" crc="d5f97f18" md5="50993b41c07625579502f0e3289d659b" sha1="709dc1225e719ce703e41f19b1dc130e6c114969" />
<rom name="FuseMusic (Track 28).bin" size="22663872" crc="e0cbb8cc" md5="28148d5f2f1098d9a125267dd921efb8" sha1="d911382c83263e808fface02515fc2133e643000" />
<rom name="FuseMusic (Track 29).bin" size="8984640" crc="1920d93a" md5="6a31dc3f4bccd23b68ce37ae4ea5e704" sha1="3bb77e26ddf2a70d676875dbd00fc03035f0cc84" />
<rom name="FuseMusic (Track 30).bin" size="49050960" crc="b83fc672" md5="8814f2635653798f7505b8951ec87e79" sha1="8dfdb3f1aa87fb7114c08b93dcb70386e6d8e47b" />
<rom name="FuseMusic (Track 31).bin" size="7058352" crc="7d56d531" md5="6f1018b0d5b3f19e31a2b3105d77eeda" sha1="d60f1321900a04faf7c48be0c1bde9d044eae946" />
<rom name="FuseMusic (Track 32).bin" size="16273488" crc="7b166dc3" md5="3b840518c8fbc59677d412862da22599" sha1="a3d027318cc63721fcc1102515a309d084d7bb34" />
<rom name="FuseMusic (Track 33).bin" size="8984640" crc="2142d5e1" md5="eb994865b84dc162178db2e11c92ec7e" sha1="536b660625b7b298bd55cb9f40ac53662409f987" />

    Cuesheet:

CATALOG 0000000000000
FILE "FuseMusic (Track 01).bin" BINARY
  TRACK 01 MODE2/2352
    FLAGS DCP
    INDEX 01 00:00:00
FILE "FuseMusic (Track 02).bin" BINARY
  TRACK 02 AUDIO
    FLAGS DCP
    INDEX 00 00:00:00
    INDEX 01 00:02:00
FILE "FuseMusic (Track 03).bin" BINARY
  TRACK 03 AUDIO
    FLAGS DCP
    INDEX 01 00:00:00
FILE "FuseMusic (Track 04).bin" BINARY
  TRACK 04 AUDIO
    FLAGS DCP
    INDEX 01 00:00:00
FILE "FuseMusic (Track 05).bin" BINARY
  TRACK 05 AUDIO
    FLAGS DCP
    INDEX 01 00:00:00
FILE "FuseMusic (Track 06).bin" BINARY
  TRACK 06 AUDIO
    FLAGS DCP
    INDEX 01 00:00:00
FILE "FuseMusic (Track 07).bin" BINARY
  TRACK 07 AUDIO
    FLAGS DCP
    INDEX 01 00:00:00
FILE "FuseMusic (Track 08).bin" BINARY
  TRACK 08 AUDIO
    FLAGS DCP
    INDEX 01 00:00:00
FILE "FuseMusic (Track 09).bin" BINARY
  TRACK 09 AUDIO
    FLAGS DCP
    INDEX 01 00:00:00
FILE "FuseMusic (Track 10).bin" BINARY
  TRACK 10 AUDIO
    FLAGS DCP
    INDEX 01 00:00:00
FILE "FuseMusic (Track 11).bin" BINARY
  TRACK 11 AUDIO
    FLAGS DCP
    INDEX 01 00:00:00
FILE "FuseMusic (Track 12).bin" BINARY
  TRACK 12 AUDIO
    FLAGS DCP
    INDEX 01 00:00:00
FILE "FuseMusic (Track 13).bin" BINARY
  TRACK 13 AUDIO
    FLAGS DCP
    INDEX 01 00:00:00
FILE "FuseMusic (Track 14).bin" BINARY
  TRACK 14 AUDIO
    FLAGS DCP
    INDEX 01 00:00:00
FILE "FuseMusic (Track 15).bin" BINARY
  TRACK 15 AUDIO
    FLAGS DCP
    INDEX 01 00:00:00
FILE "FuseMusic (Track 16).bin" BINARY
  TRACK 16 AUDIO
    FLAGS DCP
    INDEX 01 00:00:00
FILE "FuseMusic (Track 17).bin" BINARY
  TRACK 17 AUDIO
    FLAGS DCP
    INDEX 01 00:00:00
FILE "FuseMusic (Track 18).bin" BINARY
  TRACK 18 AUDIO
    FLAGS DCP
    INDEX 01 00:00:00
FILE "FuseMusic (Track 19).bin" BINARY
  TRACK 19 AUDIO
    FLAGS DCP
    INDEX 01 00:00:00
FILE "FuseMusic (Track 20).bin" BINARY
  TRACK 20 AUDIO
    FLAGS DCP
    INDEX 01 00:00:00
FILE "FuseMusic (Track 21).bin" BINARY
  TRACK 21 AUDIO
    FLAGS DCP
    INDEX 01 00:00:00
FILE "FuseMusic (Track 22).bin" BINARY
  TRACK 22 AUDIO
    FLAGS DCP
    INDEX 01 00:00:00
FILE "FuseMusic (Track 23).bin" BINARY
  TRACK 23 AUDIO
    FLAGS DCP
    INDEX 01 00:00:00
FILE "FuseMusic (Track 24).bin" BINARY
  TRACK 24 AUDIO
    FLAGS DCP
    INDEX 01 00:00:00
FILE "FuseMusic (Track 25).bin" BINARY
  TRACK 25 AUDIO
    FLAGS DCP
    INDEX 01 00:00:00
FILE "FuseMusic (Track 26).bin" BINARY
  TRACK 26 AUDIO
    FLAGS DCP
    INDEX 01 00:00:00
FILE "FuseMusic (Track 27).bin" BINARY
  TRACK 27 AUDIO
    FLAGS DCP
    INDEX 01 00:00:00
FILE "FuseMusic (Track 28).bin" BINARY
  TRACK 28 AUDIO
    FLAGS DCP
    INDEX 01 00:00:00
FILE "FuseMusic (Track 29).bin" BINARY
  TRACK 29 AUDIO
    FLAGS DCP
    INDEX 01 00:00:00
FILE "FuseMusic (Track 30).bin" BINARY
  TRACK 30 AUDIO
    FLAGS DCP
    INDEX 01 00:00:00
FILE "FuseMusic (Track 31).bin" BINARY
  TRACK 31 AUDIO
    FLAGS DCP
    INDEX 01 00:00:00
FILE "FuseMusic (Track 32).bin" BINARY
  TRACK 32 AUDIO
    FLAGS DCP
    INDEX 01 00:00:00
FILE "FuseMusic (Track 33).bin" BINARY
  TRACK 33 AUDIO
    FLAGS DCP
    INDEX 01 00:00:00

    Write Offset: 0

5

(1 replies, posted in Verifications)

Disc 1

http://redump.org/disc/32592/

Logs: https://mega.nz/file/u6IGHJrQ#nf25Sxa29 … GQZHypFFFc

Common Disc Info:
    Title: The Fuse
    Foreign Title (Non-latin): 導火線
    Disc Number / Letter: 1
    Disc Title: (OPTIONAL)
    System: IBM PC Compatible
    Media Type: CD-ROM
    Category: Games
    Region: Taiwan
    Languages: Chinese
    Disc Serial: (REQUIRED, IF EXISTS)

    Ringcode Information:
        Data Side Mastering Code (laser branded/etched): 導火線 DISK-1 安裝片
        Data Side Mastering SID Code: IFPI LD68
        Data Side Toolstamp or Mastering Code (engraved/stamped): (REQUIRED, IF EXISTS)
        Data Side Mould SID Code: IFPI 5N38
        Data Side Additional Mould: (REQUIRED, IF EXISTS)
        Label Side Mould SID Code: (REQUIRED, IF EXISTS)
        Label Side Additional Mould: 
    Barcode: (OPTIONAL)
    Error Count: 0
    Comments: [T:ISBN] (OPTIONAL)
    Contents: (OPTIONAL)

Version and Editions:
    Version: (REQUIRED, IF EXISTS)
    Edition/Release: Original

Extras:
    Primary Volume Descriptor (PVD):

0320 : 20 20 20 20 20 20 20 20  20 20 20 20 20 32 30 30                200
0330 : 30 30 36 31 32 31 37 30  33 30 35 30 30 00 32 30   0061217030500.20
0340 : 30 30 30 36 31 32 31 37  30 33 30 35 30 30 00 30   00061217030500.0
0350 : 30 30 30 30 30 30 30 30  30 30 30 30 30 30 30 00   000000000000000.
0360 : 30 30 30 30 30 30 30 30  30 30 30 30 30 30 30 30   0000000000000000
0370 : 00 01 00 00 00 00 00 00  00 00 00 00 00 00 00 00   ................

Copy Protection:
    Copy Protection: None found

Tracks and Write Offsets:
    DAT:

<rom name="THEFUSE.bin" size="186668832" crc="062447c3" md5="f67779f87f185fab574ba903d0f6ce77" sha1="7c8922669db7cec8764490be4c873bc4cdc44f98" />

    Cuesheet:

CATALOG 0000000000000
FILE "THEFUSE.bin" BINARY
  TRACK 01 MODE2/2352
    FLAGS DCP
    INDEX 01 00:00:00

    Write Offset: 0

6

(0 replies, posted in Verifications)

Hong Kong release, but ringcodes are identical, should region stays in Taiwan?

http://redump.org/disc/27754/

Logs: https://mega.nz/file/r6IhlSIa#KLBdwwgWi … mirwhSALpI

Common Disc Info:
    Title: RayCrisis
    Foreign Title (Non-latin): 閃電風暴
    Disc Number / Letter: (OPTIONAL)
    Disc Title: (OPTIONAL)
    System: IBM PC Compatible
    Media Type: CD-ROM
    Category: Games
    Region: Asia
    Languages: English
    Disc Serial: (REQUIRED, IF EXISTS)

    Ringcode Information:
        Data Side Mastering Code (laser branded/etched): (14360S05    10219)    閃電風暴
        Data Side Mastering SID Code: IFPI LR48
        Data Side Toolstamp or Mastering Code (engraved/stamped): (REQUIRED, IF EXISTS)
        Data Side Mould SID Code: IFPI 9W30
        Data Side Additional Mould: (REQUIRED, IF EXISTS)
        Label Side Mould SID Code: (REQUIRED, IF EXISTS)
        Label Side Additional Mould: 
    Barcode: 4 712063 005439
    Error Count: 0
    Comments: Asia = Hong Kong
    Contents: (OPTIONAL)

Version and Editions:
    Version: (REQUIRED, IF EXISTS)
    Edition/Release: Original

Extras:
    Primary Volume Descriptor (PVD):

0320 : 20 20 20 20 20 20 20 20  20 20 20 20 20 32 30 30                200
0330 : 31 30 39 31 34 31 34 31  36 31 34 32 31 24 30 30   1091414161421$00
0340 : 30 30 30 30 30 30 30 30  30 30 30 30 30 30 24 30   00000000000000$0
0350 : 30 30 30 30 30 30 30 30  30 30 30 30 30 30 30 24   000000000000000$
0360 : 30 30 30 30 30 30 30 30  30 30 30 30 30 30 30 30   0000000000000000
0370 : 24 01 00 00 00 00 00 00  00 00 00 00 00 00 00 00   $...............

Copy Protection:
    Copy Protection: None found

Tracks and Write Offsets:
    DAT:

<rom name="RAYCRISIS.bin" size="734080368" crc="a3952c0b" md5="15a91f02debcc1c6175cb29811baccdb" sha1="9f9689b16eba3d1dc848517f94c37a836a7a997f" />

    Cuesheet:

FILE "RAYCRISIS.bin" BINARY
  TRACK 01 MODE1/2352
    FLAGS DCP
    INDEX 01 00:00:00

    Write Offset: -12

7

(0 replies, posted in Verifications)

http://redump.org/disc/67475/

Logs: https://mega.nz/file/DyJCBJpZ#XmJsxND_u … woebFj4VJo

Common Disc Info:
    Title: Zhen Shihun
    Foreign Title (Non-latin): 真侍魂
    Disc Number / Letter: (OPTIONAL)
    Disc Title: (OPTIONAL)
    System: IBM PC Compatible
    Media Type: CD-ROM
    Category: Games
    Region: China
    Languages: Chinese
    Disc Serial: (REQUIRED, IF EXISTS)

    Ringcode Information:
        Data Side Mastering Code (laser branded/etched): 真侍魂
        Data Side Mastering SID Code: (REQUIRED, IF EXISTS)
        Data Side Toolstamp or Mastering Code (engraved/stamped): (REQUIRED, IF EXISTS)
        Data Side Mould SID Code: ifpi G205
        Data Side Additional Mould: (REQUIRED, IF EXISTS)
        Label Side Mould SID Code: (REQUIRED, IF EXISTS)
        Label Side Additional Mould: 
    Barcode: (OPTIONAL)
    Error Count: 0
    Comments: [T:ISBN] (OPTIONAL)
    Contents: (OPTIONAL)

Version and Editions:
    Version: (REQUIRED, IF EXISTS)
    Edition/Release: Original

Extras:
    Primary Volume Descriptor (PVD):

0320 : 20 20 20 20 20 20 20 20  20 20 20 20 20 32 30 30                200
0330 : 30 30 31 33 31 31 36 32  37 30 35 30 30 00 32 30   0013116270500.20
0340 : 30 30 30 31 33 31 31 36  32 37 30 35 30 30 00 30   00013116270500.0
0350 : 30 30 30 30 30 30 30 30  30 30 30 30 30 30 30 00   000000000000000.
0360 : 30 30 30 30 30 30 30 30  30 30 30 30 30 30 30 30   0000000000000000
0370 : 00 01 00 00 00 00 00 00  00 00 00 00 00 00 00 00   ................

Copy Protection:
    Copy Protection: None found

Tracks and Write Offsets:
    DAT:

<rom name="SAMURAI_SHODOWN2 (Track 01).bin" size="141759744" crc="6947ae05" md5="900d7679a397e5641a7c32cdcd3478de" sha1="a84b21c3576bebbc1888f4d270ad8467f5a880d8" />
<rom name="SAMURAI_SHODOWN2 (Track 02).bin" size="11315472" crc="f0f1bce6" md5="f86e1b1b9470afe40cf76cc5807e2845" sha1="895f8b083c973941f18fac81b2a912623e033f7f" />
<rom name="SAMURAI_SHODOWN2 (Track 03).bin" size="17578848" crc="82129054" md5="afc30c112b9646a2dd1723af60901837" sha1="43fed49afe196fbbad202c9043be87f1fa4269d8" />
<rom name="SAMURAI_SHODOWN2 (Track 04).bin" size="41181168" crc="e762461b" md5="e57de6936d036c2535a0cb07ae10948f" sha1="cb1899fba5b0a07a4c40c92c7034230b91e17a63" />
<rom name="SAMURAI_SHODOWN2 (Track 05).bin" size="31441536" crc="4c3d7372" md5="5adb01aa7eb30bbcc0f91f818a1cfbfb" sha1="74940b3db9bec18c45472abf530df73d1fbe26d2" />
<rom name="SAMURAI_SHODOWN2 (Track 06).bin" size="35096544" crc="0a315e28" md5="fc049f06109ff3dfae35d8b18ea76e60" sha1="77ee5cb4e2488aba04169afe12bd8640dd8ce85e" />
<rom name="SAMURAI_SHODOWN2 (Track 07).bin" size="38156496" crc="35ff21a5" md5="3d321fb4f3b6e83e4f60353509a9c825" sha1="30379d7262da096e284dfe4d044c2e563db1f869" />
<rom name="SAMURAI_SHODOWN2 (Track 08).bin" size="16315824" crc="cb182ff6" md5="1ad71db28d8d7ecfc1ec26a4612d96e8" sha1="64caf099798e73922763207e94580f4dde9f5c9e" />
<rom name="SAMURAI_SHODOWN2 (Track 09).bin" size="26417664" crc="2222d18b" md5="6652fdec1db9c29ed0195b3c8a69aa98" sha1="80586a724b4b790f043025bf62671752b7b43fba" />
<rom name="SAMURAI_SHODOWN2 (Track 10).bin" size="32993856" crc="20388dc3" md5="ecc470c2c6f59b4cf16d14300610ed09" sha1="c6406087c49487360f3f90e737c580750dad9d9e" />
<rom name="SAMURAI_SHODOWN2 (Track 11).bin" size="34151040" crc="3526b14c" md5="c0545369daba1f2e50e56553ec4b196f" sha1="4ef5a10d30c4aac42321883d03d9a2db1b271424" />
<rom name="SAMURAI_SHODOWN2 (Track 12).bin" size="10986192" crc="1149a84e" md5="7ebf718b0e70a7be656ced68a1397636" sha1="dd4a3ebb8a83deee4932f4c7c947c42e99fea785" />
<rom name="SAMURAI_SHODOWN2 (Track 13).bin" size="35404656" crc="d9d76931" md5="75dd3f3bf7d34ae14bcca157260b67da" sha1="a4fe8a6451e970eb0dc9441a18012ba15988eb1a" />
<rom name="SAMURAI_SHODOWN2 (Track 14).bin" size="28588560" crc="b36d9653" md5="24ab1d03a49b0f4745839206becf86d5" sha1="3242c785cb00575e9066c8659cbec73babdd359a" />
<rom name="SAMURAI_SHODOWN2 (Track 15).bin" size="30112656" crc="305813c9" md5="7bff3f4405e0d682979152e3b3ec7f72" sha1="3566a0d175a98d092eb5c1167338f772ae7cefab" />
<rom name="SAMURAI_SHODOWN2 (Track 16).bin" size="35437584" crc="9cf56d76" md5="794aeb21fd37b6ac599f6e62cc5ba271" sha1="b7820422b080ed90dcc7c0f297d7b15a3b069931" />
<rom name="SAMURAI_SHODOWN2 (Track 17).bin" size="29882160" crc="04997f53" md5="891066f1aa85a1fc62657ce97d578c3a" sha1="20e0dc1be638ab0c59678d4ae76013ae223a9c30" />
<rom name="SAMURAI_SHODOWN2 (Track 18).bin" size="20690544" crc="468e8f71" md5="1cd3040418e065fbaa35e216c062ce7e" sha1="0aa0d005e2776b2a25d10492e8d455fada17e42b" />
<rom name="SAMURAI_SHODOWN2 (Track 19).bin" size="29301216" crc="1e165fa8" md5="89731a8aaf4eff747a2cd06796ce442e" sha1="37b06d5fab436e952e9014fa0922fb86c0ab9d39" />
<rom name="SAMURAI_SHODOWN2 (Track 20).bin" size="29308272" crc="8678fce9" md5="cf122b65768e83547e757bf0e1e4db98" sha1="d93e2b55ff23a62a3fb9368727142b48b145f10b" />
<rom name="SAMURAI_SHODOWN2 (Track 21).bin" size="3266928" crc="6774b4dd" md5="6465aea77b1906d5bb36539f4988cf8f" sha1="94987c5c8d7236e46c6ccecd218aa5be89aa00fc" />
<rom name="SAMURAI_SHODOWN2 (Track 22).bin" size="6096384" crc="548ff4aa" md5="548bc1f490b56bc16d8d8beaac2c4333" sha1="a25866ccfe5f122a5d896a67e8024e9eb911bc6f" />
<rom name="SAMURAI_SHODOWN2 (Track 23).bin" size="1559376" crc="bf4b5232" md5="fd0233e0ce1b59f11f6c4f84b0007e13" sha1="fe7032199f852f2b5160f0f0b86760946ab9bd45" />
<rom name="SAMURAI_SHODOWN2 (Track 24).bin" size="1213632" crc="ce0682c4" md5="67cfea1bdf9a81919c33c803828af6fc" sha1="54586737ebeeffb3ffb4c127c6324088c3d788a2" />
<rom name="SAMURAI_SHODOWN2 (Track 25).bin" size="3156384" crc="2eaede60" md5="9056ee2da7244e3606b54f3941f1550e" sha1="fe42a3f399be84175788df40cfad5de1d3a8c7fa" />
<rom name="SAMURAI_SHODOWN2 (Track 26).bin" size="2133264" crc="1e3cfc0d" md5="e122522577fd3d4cc4dd8a55635e37a5" sha1="a9ab5bace56a59897daff4c48241c558621c5a9c" />
<rom name="SAMURAI_SHODOWN2 (Track 27).bin" size="5127360" crc="5d48f37f" md5="0924be922e72a4ec369a649e98130f7f" sha1="8992dafb0a2d06c68d4bcb7a6c33fd9b078e1767" />
<rom name="SAMURAI_SHODOWN2 (Track 28).bin" size="2655408" crc="061cdc96" md5="591438ebf3abf2aee9b9ba6a7abcabd7" sha1="b81c2cde0ec202d8f57e3b6d6cfef8c71780a114" />

    Cuesheet:

FILE "SAMURAI_SHODOWN2 (Track 01).bin" BINARY
  TRACK 01 MODE2/2352
    FLAGS DCP
    INDEX 01 00:00:00
FILE "SAMURAI_SHODOWN2 (Track 02).bin" BINARY
  TRACK 02 AUDIO
    FLAGS DCP
    INDEX 00 00:00:00
    INDEX 01 00:02:00
FILE "SAMURAI_SHODOWN2 (Track 03).bin" BINARY
  TRACK 03 AUDIO
    FLAGS DCP
    INDEX 01 00:00:00
FILE "SAMURAI_SHODOWN2 (Track 04).bin" BINARY
  TRACK 04 AUDIO
    FLAGS DCP
    INDEX 01 00:00:00
FILE "SAMURAI_SHODOWN2 (Track 05).bin" BINARY
  TRACK 05 AUDIO
    FLAGS DCP
    INDEX 01 00:00:00
FILE "SAMURAI_SHODOWN2 (Track 06).bin" BINARY
  TRACK 06 AUDIO
    FLAGS DCP
    INDEX 01 00:00:00
FILE "SAMURAI_SHODOWN2 (Track 07).bin" BINARY
  TRACK 07 AUDIO
    FLAGS DCP
    INDEX 01 00:00:00
FILE "SAMURAI_SHODOWN2 (Track 08).bin" BINARY
  TRACK 08 AUDIO
    FLAGS DCP
    INDEX 01 00:00:00
FILE "SAMURAI_SHODOWN2 (Track 09).bin" BINARY
  TRACK 09 AUDIO
    FLAGS DCP
    INDEX 01 00:00:00
FILE "SAMURAI_SHODOWN2 (Track 10).bin" BINARY
  TRACK 10 AUDIO
    FLAGS DCP
    INDEX 01 00:00:00
FILE "SAMURAI_SHODOWN2 (Track 11).bin" BINARY
  TRACK 11 AUDIO
    FLAGS DCP
    INDEX 01 00:00:00
FILE "SAMURAI_SHODOWN2 (Track 12).bin" BINARY
  TRACK 12 AUDIO
    FLAGS DCP
    INDEX 01 00:00:00
FILE "SAMURAI_SHODOWN2 (Track 13).bin" BINARY
  TRACK 13 AUDIO
    FLAGS DCP
    INDEX 01 00:00:00
FILE "SAMURAI_SHODOWN2 (Track 14).bin" BINARY
  TRACK 14 AUDIO
    FLAGS DCP
    INDEX 01 00:00:00
FILE "SAMURAI_SHODOWN2 (Track 15).bin" BINARY
  TRACK 15 AUDIO
    FLAGS DCP
    INDEX 01 00:00:00
FILE "SAMURAI_SHODOWN2 (Track 16).bin" BINARY
  TRACK 16 AUDIO
    FLAGS DCP
    INDEX 01 00:00:00
FILE "SAMURAI_SHODOWN2 (Track 17).bin" BINARY
  TRACK 17 AUDIO
    FLAGS DCP
    INDEX 01 00:00:00
FILE "SAMURAI_SHODOWN2 (Track 18).bin" BINARY
  TRACK 18 AUDIO
    FLAGS DCP
    INDEX 01 00:00:00
FILE "SAMURAI_SHODOWN2 (Track 19).bin" BINARY
  TRACK 19 AUDIO
    FLAGS DCP
    INDEX 01 00:00:00
FILE "SAMURAI_SHODOWN2 (Track 20).bin" BINARY
  TRACK 20 AUDIO
    FLAGS DCP
    INDEX 01 00:00:00
FILE "SAMURAI_SHODOWN2 (Track 21).bin" BINARY
  TRACK 21 AUDIO
    FLAGS DCP
    INDEX 01 00:00:00
FILE "SAMURAI_SHODOWN2 (Track 22).bin" BINARY
  TRACK 22 AUDIO
    FLAGS DCP
    INDEX 01 00:00:00
FILE "SAMURAI_SHODOWN2 (Track 23).bin" BINARY
  TRACK 23 AUDIO
    FLAGS DCP
    INDEX 01 00:00:00
FILE "SAMURAI_SHODOWN2 (Track 24).bin" BINARY
  TRACK 24 AUDIO
    FLAGS DCP
    INDEX 01 00:00:00
FILE "SAMURAI_SHODOWN2 (Track 25).bin" BINARY
  TRACK 25 AUDIO
    FLAGS DCP
    INDEX 01 00:00:00
FILE "SAMURAI_SHODOWN2 (Track 26).bin" BINARY
  TRACK 26 AUDIO
    FLAGS DCP
    INDEX 01 00:00:00
FILE "SAMURAI_SHODOWN2 (Track 27).bin" BINARY
  TRACK 27 AUDIO
    FLAGS DCP
    INDEX 01 00:00:00
FILE "SAMURAI_SHODOWN2 (Track 28).bin" BINARY
  TRACK 28 AUDIO
    FLAGS DCP
    INDEX 01 00:00:00

    Write Offset: -22

8

(0 replies, posted in Verifications)

http://redump.org/disc/31626/

Logs: https://mega.nz/file/fiByXZ7Z#f5VtaHZE1 … LrbeNlqtYg

Common Disc Info:
    Title: Trespasser
    Foreign Title (Non-latin): (OPTIONAL)
    Disc Number / Letter: (OPTIONAL)
    Disc Title: (OPTIONAL)
    System: IBM PC Compatible
    Media Type: CD-ROM
    Category: Games
    Region: Asia
    Languages: English
    Disc Serial: (REQUIRED, IF EXISTS)

    Ringcode Information:
        Data Side Mastering Code (laser branded/etched): 500691B
        Data Side Mastering SID Code: IFPI LB22
        Data Side Toolstamp or Mastering Code (engraved/stamped): (REQUIRED, IF EXISTS)
        Data Side Mould SID Code: IFPI 4K01
        Data Side Additional Mould: (REQUIRED, IF EXISTS)
        Label Side Mould SID Code: (REQUIRED, IF EXISTS)
        Label Side Additional Mould: 
    Barcode: 0 14633 97207 8
    Error Count: 0
    Comments: Asia-Pacific Edition
    Contents: (OPTIONAL)

Version and Editions:
    Version: (REQUIRED, IF EXISTS)
    Edition/Release: Original

Extras:
    Primary Volume Descriptor (PVD):

0320 : 20 20 20 20 20 20 20 20  20 20 20 20 20 31 39 39                199
0330 : 38 31 30 31 39 31 36 30  39 32 36 30 30 00 31 39   8101916092600.19
0340 : 39 38 31 30 31 39 31 36  30 39 32 36 30 30 00 32   98101916092600.2
0350 : 30 30 38 31 30 31 36 31  36 30 39 32 36 30 30 00   008101616092600.
0360 : 31 39 39 38 31 30 31 39  31 36 30 39 32 36 30 30   1998101916092600
0370 : 00 01 00 00 00 00 00 00  00 00 00 00 00 00 00 00   ................

Copy Protection:
    Copy Protection: None found

Tracks and Write Offsets:
    DAT:

<rom name="Trespass_UK_116.bin" size="749921088" crc="0fd0fa4e" md5="6ee336eef088137a053835b278c8337a" sha1="5b0c91f8c68d4a00dadb7268fc75a2be065b6a13" />

    Cuesheet:

FILE "Trespass_UK_116.bin" BINARY
  TRACK 01 MODE1/2352
    INDEX 01 00:00:00

    Write Offset: 0

9

(1 replies, posted in Verifications)

Ziliaopan

http://redump.org/disc/67403/

Logs: https://mega.nz/file/yyhEiCoR#RAdMBmLSU … kfplSkmtMo

Common Disc Info:
    Title: Dixiacheng Shouhuzhe
    Foreign Title (Non-latin): 地下城守护者
    Disc Number / Letter: (OPTIONAL)
    Disc Title: Ziliaopan
    System: IBM PC Compatible
    Media Type: CD-ROM
    Category: Games
    Region: China
    Languages: Klingon (CHANGE THIS)
    Disc Serial: (REQUIRED, IF EXISTS)

    Ringcode Information:
        Data Side Mastering Code (laser branded/etched): 0001    60151
        Data Side Mastering SID Code: (REQUIRED, IF EXISTS)
        Data Side Toolstamp or Mastering Code (engraved/stamped): (REQUIRED, IF EXISTS)
        Data Side Mould SID Code: IFPI 3E04
        Data Side Additional Mould: (REQUIRED, IF EXISTS)
        Label Side Mould SID Code: (REQUIRED, IF EXISTS)
        Label Side Additional Mould: 
    Barcode: (OPTIONAL)
    Error Count: 0
    Comments: [T:ISBN] (OPTIONAL)
    Contents: (OPTIONAL)

Version and Editions:
    Version: (REQUIRED, IF EXISTS)
    Edition/Release: Original

Extras:
    Primary Volume Descriptor (PVD):

0320 : 20 20 20 20 20 20 20 20  20 20 20 20 20 31 39 39                199
0330 : 37 31 32 31 32 31 33 33  36 33 38 37 30 35 31 39   7121213363870519
0340 : 39 37 31 32 31 32 31 33  35 37 35 36 36 35 01 00   97121213575665..
0350 : 00 00 00 00 00 00 00 00  00 00 00 00 00 00 00 00   ................
0360 : 00 00 00 00 00 00 00 00  00 00 00 00 00 00 00 00   ................
0370 : 00 01 00 00 00 00 00 00  00 00 00 00 00 00 00 00   ................

Copy Protection:
    Copy Protection: None found

Tracks and Write Offsets:
    DAT:

<rom name="KDDISK1 (Track 1).bin" size="64837584" crc="a4f8a746" md5="31b2aac52eb4e15a6725bfbeb618ad46" sha1="0e829f4e9b92f84502b1323f444e37d0dbffd215" />
<rom name="KDDISK1 (Track 2).bin" size="45819312" crc="a7c4478e" md5="24fcfae886642c3503e576b015770056" sha1="71aad5d4a247cce1f3a6c9a3d3224df7c11fe508" />
<rom name="KDDISK1 (Track 3).bin" size="57656928" crc="f91fee2b" md5="2bb5fcd22c448744efc585781cc92421" sha1="ba037d2170e832882147ad3a147ced732b287812" />
<rom name="KDDISK1 (Track 4).bin" size="54223008" crc="9224999b" md5="633d60b265f1a09b52f89c638acf76e4" sha1="637a7474e2be2390bfb0e5dcbcbb35723b678708" />
<rom name="KDDISK1 (Track 5).bin" size="53047008" crc="8988759e" md5="35a964fd1034c17150fdd6be3a87e52c" sha1="6237c654d28504f10f1cd952a43d8b616d682912" />
<rom name="KDDISK1 (Track 6).bin" size="50525664" crc="b2a62e88" md5="c1e52f2eb6febfa28ccb29e3ff67eef2" sha1="b2de144acc8fdcce5d4912447f1252b08be1e3e4" />
<rom name="KDDISK1 (Track 7).bin" size="33349008" crc="e9d58eac" md5="1ccbccae039273e4b866818f62d5ce09" sha1="38644ea11c94a0896fddb30bc56bf225476b381a" />

    Cuesheet:

FILE "KDDISK1 (Track 1).bin" BINARY
  TRACK 01 MODE1/2352
    INDEX 01 00:00:00
FILE "KDDISK1 (Track 2).bin" BINARY
  TRACK 02 AUDIO
    INDEX 00 00:00:00
    INDEX 01 00:02:00
FILE "KDDISK1 (Track 3).bin" BINARY
  TRACK 03 AUDIO
    INDEX 00 00:00:00
    INDEX 01 00:02:00
FILE "KDDISK1 (Track 4).bin" BINARY
  TRACK 04 AUDIO
    INDEX 00 00:00:00
    INDEX 01 00:02:00
FILE "KDDISK1 (Track 5).bin" BINARY
  TRACK 05 AUDIO
    INDEX 00 00:00:00
    INDEX 01 00:02:00
FILE "KDDISK1 (Track 6).bin" BINARY
  TRACK 06 AUDIO
    INDEX 00 00:00:00
    INDEX 01 00:02:00
FILE "KDDISK1 (Track 7).bin" BINARY
  TRACK 07 AUDIO
    INDEX 00 00:00:00
    INDEX 01 00:02:00

    Write Offset: 0

10

(1 replies, posted in Verifications)

http://redump.org/disc/67402/

Logs: https://mega.nz/file/r2AUQZqK#kP8sNs1aq … stg8uJRrT4

Common Disc Info:
    Title: Dixiacheng Shouhuzhe
    Foreign Title (Non-latin): 地下城守护者
    Disc Number / Letter: (OPTIONAL)
    Disc Title: (OPTIONAL)
    System: IBM PC Compatible
    Media Type: CD-ROM
    Category: Games
    Region: China
    Languages: Chinese
    Disc Serial: 762401

    Ringcode Information:
        Data Side Mastering Code (laser branded/etched): 0004    60083-1
        Data Side Mastering SID Code: IFPI L941
        Data Side Toolstamp or Mastering Code (engraved/stamped): (REQUIRED, IF EXISTS)
        Data Side Mould SID Code: IFPI 3E04
        Data Side Additional Mould: (REQUIRED, IF EXISTS)
        Label Side Mould SID Code: (REQUIRED, IF EXISTS)
        Label Side Additional Mould: 
    Barcode: (OPTIONAL)
    Error Count: 0
    Comments: [T:ISBN] (OPTIONAL)
    Contents: (OPTIONAL)

Version and Editions:
    Version: (REQUIRED, IF EXISTS)
    Edition/Release: Original

Extras:
    Primary Volume Descriptor (PVD):

0320 : 20 20 20 20 20 20 20 20  20 20 20 20 20 31 39 39                199
0330 : 37 31 32 30 34 31 36 32  36 33 39 30 30 00 31 39   7120416263900.19
0340 : 39 37 31 32 30 34 31 36  32 36 33 39 30 30 00 32   97120416263900.2
0350 : 30 30 37 31 32 30 32 31  36 32 36 33 39 30 30 00   007120216263900.
0360 : 31 39 39 37 31 32 30 34  31 36 32 36 33 39 30 30   1997120416263900
0370 : 00 01 00 00 00 00 00 00  00 00 00 00 00 00 00 00   ................

Copy Protection:
    Copy Protection: None found

Tracks and Write Offsets:
    DAT:

<rom name="DKEEPER (Track 1).bin" size="352529520" crc="756b226b" md5="70186fa4d24642587c061b99c197dacd" sha1="970edf9d7c5ab7fcf11241070366dff9cd0d29b7" />
<rom name="DKEEPER (Track 2).bin" size="45826368" crc="6c98b2b3" md5="ae2cf58630f4df49cdada58f1c16154e" sha1="07d14a06b59b471be81319c7a252ba56aa2aafc4" />
<rom name="DKEEPER (Track 3).bin" size="58042656" crc="65a489bb" md5="4eea175d822e216b9b948e62e931f8ef" sha1="6815b513ac4933034fb0a687a273dd5811f7e67d" />
<rom name="DKEEPER (Track 4).bin" size="54608736" crc="daa38ad3" md5="3a06c8c95c96ea2d4f147dbd81542e08" sha1="37d64d3e80223a2a3174caa255f9ed1e3fb2bdfe" />
<rom name="DKEEPER (Track 5).bin" size="53054064" crc="6e0f02f5" md5="61b3e15a5136331ea5ef6f73dc9979a8" sha1="18421cfd69f3188d24a19dc499f1c48850103861" />
<rom name="DKEEPER (Track 6).bin" size="50913744" crc="ceb9f7ea" md5="4db61374618fd8bee7041237d81d4569" sha1="f41a22fa144723ddb6c2b40f113d435538f9e633" />
<rom name="DKEEPER (Track 7).bin" size="33358416" crc="62177ec0" md5="2df464f3c3c9aea7a86cf8cb065d7d69" sha1="6ff612c73b878f7f9ca076b971434b5e9cdec57a" />

    Cuesheet:

FILE "DKEEPER (Track 1).bin" BINARY
  TRACK 01 MODE1/2352
    INDEX 01 00:00:00
FILE "DKEEPER (Track 2).bin" BINARY
  TRACK 02 AUDIO
    INDEX 00 00:00:00
    INDEX 01 00:02:00
FILE "DKEEPER (Track 3).bin" BINARY
  TRACK 03 AUDIO
    INDEX 00 00:00:00
    INDEX 01 00:01:74
FILE "DKEEPER (Track 4).bin" BINARY
  TRACK 04 AUDIO
    INDEX 00 00:00:00
    INDEX 01 00:01:74
FILE "DKEEPER (Track 5).bin" BINARY
  TRACK 05 AUDIO
    INDEX 00 00:00:00
    INDEX 01 00:01:74
FILE "DKEEPER (Track 6).bin" BINARY
  TRACK 06 AUDIO
    INDEX 00 00:00:00
    INDEX 01 00:01:74
FILE "DKEEPER (Track 7).bin" BINARY
  TRACK 07 AUDIO
    INDEX 00 00:00:00
    INDEX 01 00:01:74

    Write Offset: -22

http://redump.org/disc/62517/

Logs: https://mega.nz/file/avxmzCSY#9y_wneVwI … DWAfhEew2s

Common Disc Info:
    Title: Rayman Yingyu Da Chuangguan: Jinjiepian
    Foreign Title (Non-latin): 雷曼英语大闯关:进阶篇
    Disc Number / Letter: (OPTIONAL)
    Disc Title: (OPTIONAL)
    System: IBM PC Compatible
    Media Type: CD-ROM
    Category: Games
    Region: China
    Languages: Chinese
    Disc Serial: (REQUIRED, IF EXISTS)

    Ringcode Information:
        Data Side Mastering Code (laser branded/etched): UBI-RAYEDU CH2
        Data Side Mastering SID Code: (REQUIRED, IF EXISTS)
        Data Side Toolstamp or Mastering Code (engraved/stamped): (REQUIRED, IF EXISTS)
        Data Side Mould SID Code: ifpi D215
        Data Side Additional Mould: (REQUIRED, IF EXISTS)
        Label Side Mould SID Code: (REQUIRED, IF EXISTS)
        Label Side Additional Mould: 
    Barcode: 9 787900 011244 >
    Error Count: 0
    Comments:

ISBN: 7-900011-24-2/G·25
Alternative Foreign Title: Maths and English with Rayman: Volume 2
Edition Name (Non-Latin): 芝麻开门
Copyright Contract Reg. No.: 电出字01-97-029号

    Contents: (OPTIONAL)

Version and Editions:
    Version: (REQUIRED, IF EXISTS)
    Edition/Release: Zhima Kai Men

Extras:
    Primary Volume Descriptor (PVD):

0320 : 20 20 20 20 20 20 20 20  20 20 20 20 20 31 39 39                199
0330 : 37 30 36 32 34 31 30 35  33 34 31 30 30 00 31 39   7062410534100.19
0340 : 39 37 30 36 32 34 31 30  35 33 34 31 30 30 00 32   97062410534100.2
0350 : 30 30 37 30 36 32 32 31  30 35 33 34 31 30 30 00   007062210534100.
0360 : 31 39 39 37 30 36 32 34  31 30 35 33 34 31 30 30   1997062410534100
0370 : 00 01 00 00 00 00 00 00  00 00 00 00 00 00 00 00   ................

Copy Protection:
    Copy Protection: None found

Tracks and Write Offsets:
    DAT:

<rom name="RAYEDU_CH2 (Track 01).bin" size="131740224" crc="bb243ab7" md5="7dd10c3e619f50fa563e2b54808215fe" sha1="023a8c1df21d103cf47c8165958093a98ba0d24b" />
<rom name="RAYEDU_CH2 (Track 02).bin" size="19486320" crc="23d8ecf2" md5="577ab73e0b153c08a0bb7a8ba229d5ca" sha1="9926d0469d7a1505cfc4103246310046f2111f16" />
<rom name="RAYEDU_CH2 (Track 03).bin" size="22050000" crc="afabbd30" md5="9555f08d13997997cf8fcfc3b56722c3" sha1="5a42d5413039749f18ab27ad05c56c23193676b6" />
<rom name="RAYEDU_CH2 (Track 04).bin" size="22369872" crc="11620330" md5="2d88299243c26fbe27f26c5023ab13b5" sha1="f936fe1041230d0d02be23a9ecab8bf77729850e" />
<rom name="RAYEDU_CH2 (Track 05).bin" size="21342048" crc="ccbcfa12" md5="e30e372a4b73b67b530ef49fa919a4c0" sha1="4e4b36b43e77f9a221ecc27eb3f3ddbe5046c4bf" />
<rom name="RAYEDU_CH2 (Track 06).bin" size="22567440" crc="53bbfbbb" md5="ca7d2bb97d75b2512775da8d4737a6a6" sha1="b78123828ff603aefce70d82660e7b051cf59085" />
<rom name="RAYEDU_CH2 (Track 07).bin" size="22480416" crc="90e124d3" md5="f831b127e571c171577e80c32b553351" sha1="39ee8b662adf21025b770d79d9291f9885a8403a" />
<rom name="RAYEDU_CH2 (Track 08).bin" size="19462800" crc="6f1a4c9d" md5="0d0f3a4b8c1852cfb3eece1617d09a08" sha1="4fa32cf78d0a7d8945659244636aba7eede088d0" />
<rom name="RAYEDU_CH2 (Track 09).bin" size="21652512" crc="c63e619f" md5="23d2c721d014fa3b0b3568777d0ebfce" sha1="f642256c9284d875a7332da53878d3fc1ef1bad0" />
<rom name="RAYEDU_CH2 (Track 10).bin" size="19747392" crc="eda34b94" md5="0467d788c704162dd8b68d88ed3eec3b" sha1="c6c065998b825ff7ea64edd63e69251c1e500daf" />
<rom name="RAYEDU_CH2 (Track 11).bin" size="22602720" crc="72dcc82f" md5="561eac02da750a264e47334be0634630" sha1="ba88ba65cc28d34186ca6fed4f14d19b65f93485" />
<rom name="RAYEDU_CH2 (Track 12).bin" size="20688192" crc="205d845e" md5="b73281417c8f4dc0e86fba55dbfa0089" sha1="bd90c40c868f4f576e472a4f897061e79335bad7" />
<rom name="RAYEDU_CH2 (Track 13).bin" size="21530208" crc="97c0b214" md5="c60340900ce30e403f6f517bf8972dc9" sha1="3a0c081d73c6cf1c59b2b3a31a1ca37d8ba2501f" />
<rom name="RAYEDU_CH2 (Track 14).bin" size="15570240" crc="c10602cd" md5="79dadf6848ac6ba0e3617da069508b3f" sha1="3e1f0bff2f37149a48b761e70737f6662d271934" />
<rom name="RAYEDU_CH2 (Track 15).bin" size="21382032" crc="9a6ce2e3" md5="49b9b3a3f0dbec2525da8974137ed895" sha1="3e0da500e5ee8de4b4cf0253cedd89f682486f0a" />
<rom name="RAYEDU_CH2 (Track 16).bin" size="25561536" crc="6d15698c" md5="b03982dcc47c006043d94712de52ad50" sha1="d8ca5bf6f63f977c8249d5c1033b8e72de55bb2c" />
<rom name="RAYEDU_CH2 (Track 17).bin" size="1874544" crc="3ab70562" md5="9e76882440cc2cfa19acc9436705d88b" sha1="62aa80f23137b2d082c4b6d01fbf5e6554ded673" />
<rom name="RAYEDU_CH2 (Track 18).bin" size="10579296" crc="e7a098c0" md5="8d485a01e13f313aa380ee381928964e" sha1="39e08021716e8b301e41b7b36bd51a5bec757246" />
<rom name="RAYEDU_CH2 (Track 19).bin" size="18110400" crc="f6017f27" md5="4bae20f18e44193a885db97d55b98737" sha1="c29392d5071efea2e7e42011c94ad27fdb7163b2" />
<rom name="RAYEDU_CH2 (Track 20).bin" size="11545968" crc="40858002" md5="97ccac52ac6c148c72f49ede85143a90" sha1="c75956efe91e74dda81ef65b6fd1a9f48bf7c376" />

    Cuesheet:

CATALOG 0000000000000
FILE "RAYEDU_CH2 (Track 01).bin" BINARY
  TRACK 01 MODE1/2352
    INDEX 01 00:00:00
FILE "RAYEDU_CH2 (Track 02).bin" BINARY
  TRACK 02 AUDIO
    INDEX 00 00:00:00
    INDEX 01 00:02:00
FILE "RAYEDU_CH2 (Track 03).bin" BINARY
  TRACK 03 AUDIO
    INDEX 01 00:00:00
FILE "RAYEDU_CH2 (Track 04).bin" BINARY
  TRACK 04 AUDIO
    INDEX 01 00:00:00
FILE "RAYEDU_CH2 (Track 05).bin" BINARY
  TRACK 05 AUDIO
    INDEX 01 00:00:00
FILE "RAYEDU_CH2 (Track 06).bin" BINARY
  TRACK 06 AUDIO
    INDEX 01 00:00:00
FILE "RAYEDU_CH2 (Track 07).bin" BINARY
  TRACK 07 AUDIO
    INDEX 01 00:00:00
FILE "RAYEDU_CH2 (Track 08).bin" BINARY
  TRACK 08 AUDIO
    INDEX 01 00:00:00
FILE "RAYEDU_CH2 (Track 09).bin" BINARY
  TRACK 09 AUDIO
    INDEX 01 00:00:00
FILE "RAYEDU_CH2 (Track 10).bin" BINARY
  TRACK 10 AUDIO
    INDEX 01 00:00:00
FILE "RAYEDU_CH2 (Track 11).bin" BINARY
  TRACK 11 AUDIO
    INDEX 01 00:00:00
FILE "RAYEDU_CH2 (Track 12).bin" BINARY
  TRACK 12 AUDIO
    INDEX 01 00:00:00
FILE "RAYEDU_CH2 (Track 13).bin" BINARY
  TRACK 13 AUDIO
    INDEX 01 00:00:00
FILE "RAYEDU_CH2 (Track 14).bin" BINARY
  TRACK 14 AUDIO
    INDEX 01 00:00:00
FILE "RAYEDU_CH2 (Track 15).bin" BINARY
  TRACK 15 AUDIO
    INDEX 01 00:00:00
FILE "RAYEDU_CH2 (Track 16).bin" BINARY
  TRACK 16 AUDIO
    INDEX 01 00:00:00
FILE "RAYEDU_CH2 (Track 17).bin" BINARY
  TRACK 17 AUDIO
    INDEX 01 00:00:00
FILE "RAYEDU_CH2 (Track 18).bin" BINARY
  TRACK 18 AUDIO
    INDEX 01 00:00:00
FILE "RAYEDU_CH2 (Track 19).bin" BINARY
  TRACK 19 AUDIO
    INDEX 01 00:00:00
FILE "RAYEDU_CH2 (Track 20).bin" BINARY
  TRACK 20 AUDIO
    INDEX 01 00:00:00

    Write Offset: -954

12

(0 replies, posted in Verifications)

http://redump.org/disc/69843/

Logs: https://mega.nz/file/n75UhArS#voO-rwA7I … Y05Mdz31Pk

Common Disc Info:
    Title: Ali De Huanle Muchang
    Foreign Title (Non-latin): 阿历的欢乐牧场
    Disc Number / Letter: (OPTIONAL)
    Disc Title: (OPTIONAL)
    System: IBM PC Compatible
    Media Type: CD-ROM
    Category: Games
    Region: China
    Languages: Chinese
    Disc Serial: (REQUIRED, IF EXISTS)

    Ringcode Information:
        Data Side Mastering Code (laser branded/etched): ISBN 7-900333-06-1/G6.P2
        Data Side Mastering SID Code: (REQUIRED, IF EXISTS)
        Data Side Toolstamp or Mastering Code (engraved/stamped): (REQUIRED, IF EXISTS)
        Data Side Mould SID Code: ifpi J200
        Data Side Additional Mould: (REQUIRED, IF EXISTS)
        Label Side Mould SID Code: (REQUIRED, IF EXISTS)
        Label Side Additional Mould: 
    Barcode: 9 787900 333063 >
    Error Count: 0
    Comments: [T:ISBN] (OPTIONAL)
    Contents: (OPTIONAL)

Version and Editions:
    Version: (REQUIRED, IF EXISTS)
    Edition/Release: Zhima Kai Men

Extras:
    Primary Volume Descriptor (PVD):

0320 : 20 20 20 20 20 20 20 20  20 20 20 20 20 32 30 30                200
0330 : 30 30 34 31 39 31 36 33  37 30 30 30 30 00 32 30   0041916370000.20
0340 : 30 30 30 34 31 39 31 36  33 37 30 30 30 30 00 30   00041916370000.0
0350 : 30 30 30 30 30 30 30 30  30 30 30 30 30 30 30 00   000000000000000.
0360 : 30 30 30 30 30 30 30 30  30 30 30 30 30 30 30 30   0000000000000000
0370 : 00 01 00 00 00 00 00 00  00 00 00 00 00 00 00 00   ................

Copy Protection:
    Copy Protection: None found

Tracks and Write Offsets:
    DAT:

<rom name="ALEX.bin" size="420942144" crc="9bcd176e" md5="41de01453b372db1f1a46d2806305184" sha1="eace4b2ee3060addbbf41db6408036bb04d81cb1" />

    Cuesheet:

FILE "ALEX.bin" BINARY
  TRACK 01 MODE2/2352
    INDEX 01 00:00:00

    Write Offset: -12

http://redump.org/disc/63288/

Logs: https://mega.nz/file/7zYiCLIT#z7pnl3-z_ … I6SbWs9ItA

Common Disc Info:
    Title: Where in the World Is Carmen Sandiego? Deluxe
    Foreign Title (Non-latin): (OPTIONAL)
    Disc Number / Letter: (OPTIONAL)
    Disc Title: (OPTIONAL)
    System: IBM PC Compatible
    Media Type: CD-ROM
    Category: Educational
    Region: USA
    Languages: English
    Disc Serial: 4561320 R032 / CDRM1052370

    Ringcode Information:
        Data Side Mastering Code (laser branded/etched): CDRM-1052370    1
        Data Side Mastering SID Code: (REQUIRED, IF EXISTS)
        Data Side Toolstamp or Mastering Code (engraved/stamped): (REQUIRED, IF EXISTS)
        Data Side Mould SID Code: (REQUIRED, IF EXISTS)
        Data Side Additional Mould: (REQUIRED, IF EXISTS)
        Label Side Mould SID Code: (REQUIRED, IF EXISTS)
        Label Side Additional Mould: 
    Barcode: (OPTIONAL)
    Error Count: 0
    Comments: [T:ISBN] (OPTIONAL)
    Contents: (OPTIONAL)

Version and Editions:
    Version: (REQUIRED, IF EXISTS)
    Edition/Release: Original

Extras:
    Primary Volume Descriptor (PVD):

0320 : 20 20 20 20 20 20 20 20  20 20 20 20 20 30 30 30                000
0330 : 30 30 30 30 30 30 30 30  30 30 30 30 30 00 30 30   0000000000000.00
0340 : 30 30 30 30 30 30 30 30  30 30 30 30 30 30 00 30   00000000000000.0
0350 : 30 30 30 30 30 30 30 30  30 30 30 30 30 30 30 00   000000000000000.
0360 : 30 30 30 30 30 30 30 30  30 30 30 30 30 30 30 30   0000000000000000
0370 : 00 01 00 00 00 00 00 00  00 00 00 00 00 00 00 00   ................

Copy Protection:
    Copy Protection: None found

Tracks and Write Offsets:
    DAT:

<rom name="CRMN_WORLD_DLX.bin" size="158571840" crc="1db8c870" md5="ab8b05ebdff8c73a6e968bb0c50cc841" sha1="fefde788205168dee631161390453f8f848b2911" />

    Cuesheet:

FILE "CRMN_WORLD_DLX.bin" BINARY
  TRACK 01 MODE1/2352
    INDEX 01 00:00:00

    Write Offset: -572

Disc 4

http://redump.org/disc/82681/

Logs: https://mega.nz/file/irxSRZba#LoLESLC6D … TCm5fF0Fp8

Common Disc Info:
    Title: Rongyu Xunzhang: Taipingyang Zhanyi
    Foreign Title (Non-latin): 榮譽勳章:太平洋戰役
    Disc Number / Letter: 4
    Disc Title: (OPTIONAL)
    System: IBM PC Compatible
    Media Type: CD-ROM
    Category: Games
    Region: Taiwan
    Languages: Chinese
    Disc Serial: 1471807

    Ringcode Information:
        Data Side Mastering Code (laser branded/etched): 14718LTW-D4    (FK031A)
        Data Side Mastering SID Code: IFPI LB22
        Data Side Toolstamp or Mastering Code (engraved/stamped): (REQUIRED, IF EXISTS)
        Data Side Mould SID Code: IFPI 3Z07
        Data Side Additional Mould: (REQUIRED, IF EXISTS)
        Label Side Mould SID Code: (REQUIRED, IF EXISTS)
        Label Side Additional Mould: 
    Barcode: 0 14633 14718 6
    Error Count: 0
    Comments: ISBN: 0-7845-3507-8
    Contents: (OPTIONAL)

Version and Editions:
    Version: (REQUIRED, IF EXISTS)
    Edition/Release: Original

Extras:
    Primary Volume Descriptor (PVD):

0320 : 20 20 20 20 20 20 20 20  20 20 20 20 20 32 30 30                200
0330 : 34 31 30 33 31 31 30 32  32 35 31 31 30 24 32 30   4103110225110$20
0340 : 30 34 31 30 33 31 31 30  32 32 35 31 31 30 24 32   04103110225110$2
0350 : 31 30 34 31 30 33 31 31  30 32 32 35 31 31 30 24   104103110225110$
0360 : 32 30 30 34 31 30 33 31  31 30 32 32 35 31 31 30   2004103110225110
0370 : 24 01 00 00 00 00 00 00  00 00 00 00 00 00 00 00   $...............

Copy Protection:
    Copy Protection: None found

Tracks and Write Offsets:
    DAT:

<rom name="MOHPA.bin" size="797694912" crc="e1f3ad91" md5="6f545aac1e9839c88252a7c6805dbc01" sha1="1a39fa1a492d612d43c8ae99e017846e89ad22cb" />

    Cuesheet:

FILE "MOHPA.bin" BINARY
  TRACK 01 MODE1/2352
    INDEX 01 00:00:00

    Write Offset: -12

Disc 3

http://redump.org/disc/82680/

Logs: https://mega.nz/file/a2AwhLTI#XqRGXQxqf … 0nhjmaAyB8

Common Disc Info:
    Title: Rongyu Xunzhang: Taipingyang Zhanyi
    Foreign Title (Non-latin): 榮譽勳章:太平洋戰役
    Disc Number / Letter: 3
    Disc Title: (OPTIONAL)
    System: IBM PC Compatible
    Media Type: CD-ROM
    Category: Games
    Region: Taiwan
    Languages: Chinese
    Disc Serial: 1471807

    Ringcode Information:
        Data Side Mastering Code (laser branded/etched): 14718LTW-D3    (FK031A)
        Data Side Mastering SID Code: IFPI LB23
        Data Side Toolstamp or Mastering Code (engraved/stamped): (REQUIRED, IF EXISTS)
        Data Side Mould SID Code: IFPI 3Z02
        Data Side Additional Mould: (REQUIRED, IF EXISTS)
        Label Side Mould SID Code: (REQUIRED, IF EXISTS)
        Label Side Additional Mould: 
    Barcode: 0 14633 14718 6
    Error Count: 0
    Comments: ISBN: 0-7845-3507-8
    Contents: (OPTIONAL)

Version and Editions:
    Version: (REQUIRED, IF EXISTS)
    Edition/Release: Original

Extras:
    Primary Volume Descriptor (PVD):

0320 : 20 20 20 20 20 20 20 20  20 20 20 20 20 32 30 30                200
0330 : 34 31 30 33 31 31 30 31  36 33 36 33 33 24 32 30   4103110163633$20
0340 : 30 34 31 30 33 31 31 30  31 36 33 36 33 33 24 32   04103110163633$2
0350 : 31 30 34 31 30 33 31 31  30 31 36 33 36 33 33 24   104103110163633$
0360 : 32 30 30 34 31 30 33 31  31 30 31 36 33 36 33 33   2004103110163633
0370 : 24 01 00 00 00 00 00 00  00 00 00 00 00 00 00 00   $...............

Copy Protection:
    Copy Protection: None found

Tracks and Write Offsets:
    DAT:

<rom name="MOHPA.bin" size="845264112" crc="083aa520" md5="7582382b38df79bb8cedcc0849310512" sha1="ee9ab1e1b214b77ebac93e7cdfe7b9cc2fe69a61" />

    Cuesheet:

FILE "MOHPA.bin" BINARY
  TRACK 01 MODE1/2352
    INDEX 01 00:00:00

    Write Offset: 0

Disc 2

http://redump.org/disc/82679/

Logs: https://mega.nz/file/eyJmXDzY#NYsfAR8j5 … 03sUYI8yf8

Common Disc Info:
    Title: Rongyu Xunzhang: Taipingyang Zhanyi
    Foreign Title (Non-latin): 榮譽勳章:太平洋戰役
    Disc Number / Letter: 2
    Disc Title: (OPTIONAL)
    System: IBM PC Compatible
    Media Type: CD-ROM
    Category: Games
    Region: Taiwan
    Languages: Chinese
    Disc Serial: 1471807

    Ringcode Information:
        Data Side Mastering Code (laser branded/etched): 14718LTW-D2    (FK031A)
        Data Side Mastering SID Code: IFPI LB23
        Data Side Toolstamp or Mastering Code (engraved/stamped): (REQUIRED, IF EXISTS)
        Data Side Mould SID Code: IFPI 3Z08
        Data Side Additional Mould: (REQUIRED, IF EXISTS)
        Label Side Mould SID Code: (REQUIRED, IF EXISTS)
        Label Side Additional Mould: 
    Barcode: 0 14633 14718 6
    Error Count: 0
    Comments: ISBN: 0-7845-3507-8
    Contents: (OPTIONAL)

Version and Editions:
    Version: (REQUIRED, IF EXISTS)
    Edition/Release: Original

Extras:
    Primary Volume Descriptor (PVD):

0320 : 20 20 20 20 20 20 20 20  20 20 20 20 20 32 30 30                200
0330 : 34 31 30 33 31 31 30 30  39 34 39 30 35 24 32 30   4103110094905$20
0340 : 30 34 31 30 33 31 31 30  30 39 34 39 30 35 24 32   04103110094905$2
0350 : 31 30 34 31 30 33 31 31  30 30 39 34 39 30 35 24   104103110094905$
0360 : 32 30 30 34 31 30 33 31  31 30 30 39 34 39 30 35   2004103110094905
0370 : 24 01 00 00 00 00 00 00  00 00 00 00 00 00 00 00   $...............

Copy Protection:
    Copy Protection: None found

Tracks and Write Offsets:
    DAT:

<rom name="MOHPA.bin" size="845264112" crc="aa848bce" md5="1ed78a227a16972f311b78a6d26ac704" sha1="02b79e6cdd408f4e74b6b1c6cca275e6168b9e98" />

    Cuesheet:

FILE "MOHPA.bin" BINARY
  TRACK 01 MODE1/2352
    INDEX 01 00:00:00

    Write Offset: 0

http://redump.org/disc/82676/

Common Disc Info:
    Title: Rongyu Xunzhang: Kongjiang Shenbing
    Foreign Title (Non-latin): 榮譽勳章:空降神兵
    Disc Number / Letter: (OPTIONAL)
    Disc Title: (OPTIONAL)
    System: IBM PC Compatible
    Media Type: DVD-ROM-9
    Category: Games
    Region: Taiwan
    Languages: Chinese, English
    Disc Serial: 1528407

    Ringcode Information:
        Layer 0 (Inner) Mastering Code (laser branded/etched): 15284LTW-DVD9-L0    (IH231B)
        Layer 0 (Inner) Mastering SID Code: IFPILB25
        Layer 0 (Inner) Toolstamp or Mastering Code (engraved/stamped): (REQUIRED, IF EXISTS)
        Data Side Mould SID Code: IFPI 3Z50
        Data Side Additional Mould: (REQUIRED, IF EXISTS)
        Layer 1 (Outer) Mastering Code (laser branded/etched): 15284LTW-DVD9-L1    (IH231B)
        Layer 1 (Outer) Mastering SID Code: IFPILB25
        Layer 1 (Outer) Toolstamp or Mastering Code (engraved/stamped): (REQUIRED, IF EXISTS)
        Label Side Mould SID Code: IFPI 3Z51
        Label Side Additional Mould: 
    Barcode: 0 14633 15284 5
    Comments: ISBN: 0-7845-4136-1
    Contents: (OPTIONAL)

Version and Editions:
    Version: (REQUIRED, IF EXISTS)
    Edition/Release: Original

Extras:
    Primary Volume Descriptor (PVD): 

Copy Protection:
    Copy Protection: SecuROM 7.33.0014

Size & Checksum:
    Layerbreak: 1648400
    Size: 6751846400
    CRC32: 8587bb0f
    MD5: 53836ee1524baf0e3148543287e152ad
    SHA1: 09d1bb38bb1adaa700f8a515fd7e1fc8b52940cb

18

(3 replies, posted in Verifications)

Shiji Diguo III: Yazhou Wangchao

http://redump.org/disc/83667/

Logs: https://mega.nz/file/KnBn2aAS#is2OUF0_j … 7zb6f4A3l8

Common Disc Info:
    Title: Shiji Diguo III: Yazhou Wangchao
    Foreign Title (Non-latin): 世紀帝國Ⅲ:亞洲王朝
    Disc Number / Letter: (OPTIONAL)
    Disc Title: (OPTIONAL)
    System: IBM PC Compatible
    Media Type: CD-ROM
    Category: Add-Ons
    Region: Taiwan
    Languages: Chinese
    Disc Serial: 0812 Part No. X13-94748-02

    Ringcode Information:
        Data Side Mastering Code (laser branded/etched): X13-95083    (MG011I)
        Data Side Mastering SID Code: IFPI LB22
        Data Side Toolstamp or Mastering Code (engraved/stamped): (REQUIRED, IF EXISTS)
        Data Side Mould SID Code: IFPI 4K01
        Data Side Additional Mould: (REQUIRED, IF EXISTS)
        Label Side Mould SID Code: (REQUIRED, IF EXISTS)
        Label Side Additional Mould: 
    Barcode: 8 82224 92573 0
    Error Count: 10
    Comments:

Alternative Foreign Title: Age of Empires III: The Asian Dynasties
Edition Name (Non-Latin): 完全版
Edition Name (Alternative): Complete Collection
Catalog No. AYB-00036
Microsoft ID: X11-44086 (Certificate of Authenticity), 0812 Part No. X15-81268-02 (Case), 0709 Part No. X15-81269-01 (Booklet), 1107 Part No. X13-94746-01 (Quick Reference Card), Part No. X09-51517-07 (Customer Service Info)

    Contents: (OPTIONAL)

Version and Editions:
    Version: (REQUIRED, IF EXISTS)
    Edition/Release: Wanquanban

Extras:
    Primary Volume Descriptor (PVD):

0320 : 20 20 20 20 20 20 20 20  20 20 20 20 20 32 30 30                200
0330 : 37 30 39 32 37 31 31 35  36 34 38 30 34 E4 32 30   7092711564804.20
0340 : 30 37 30 39 32 37 31 31  35 36 34 38 30 34 E4 32   07092711564804.2
0350 : 31 30 37 30 39 32 37 31  31 35 36 34 38 30 34 E4   107092711564804.
0360 : 32 30 30 37 30 39 32 37  31 31 35 36 34 38 30 34   2007092711564804
0370 : E4 01 00 00 00 00 00 00  00 00 00 00 00 00 00 00   ................

Copy Protection:
    Copy Protection: None found

Tracks and Write Offsets:
    DAT:

<rom name="AOE3Y.bin" size="723047136" crc="fb177045" md5="cb355cb6466f286cc344135fb4daf24d" sha1="884394a2b1fc2605f80821ab34d738bcb10bb88f" />

    Cuesheet:

FILE "AOE3Y.bin" BINARY
  TRACK 01 MODE1/2352
    INDEX 01 00:00:00

    Write Offset: -12

19

(3 replies, posted in Verifications)

Shiji Diguo III: Qunqiu Zhengba

http://redump.org/disc/83666/

Logs: https://mega.nz/file/HzZzyKDL#1C98jXca8 … 0nlswZIJGY

Common Disc Info:
    Title: Shiji Diguo III: Qunqiu Zhengba
    Foreign Title (Non-latin): 世紀帝國Ⅲ:群酋爭霸
    Disc Number / Letter: (OPTIONAL)
    Disc Title: (OPTIONAL)
    System: IBM PC Compatible
    Media Type: CD-ROM
    Category: Add-Ons
    Region: Taiwan
    Languages: Chinese
    Disc Serial: 0812 Part No. X12-89683-02

    Ringcode Information:
        Data Side Mastering Code (laser branded/etched): X13-52418    (LI181C)
        Data Side Mastering SID Code: IFPI LB22
        Data Side Toolstamp or Mastering Code (engraved/stamped): (REQUIRED, IF EXISTS)
        Data Side Mould SID Code: IFPI 4K03
        Data Side Additional Mould: (REQUIRED, IF EXISTS)
        Label Side Mould SID Code: (REQUIRED, IF EXISTS)
        Label Side Additional Mould: 
    Barcode: 8 82224 92573 0
    Error Count: 10
    Comments:

Alternative Foreign Title: Age of Empires III: The WarChiefs
Edition Name (Non-Latin): 完全版
Edition Name (Alternative): Complete Collection
Catalog No. AYB-00036
Microsoft ID: X11-44086 (Certificate of Authenticity), 0812 Part No. X15-81268-02 (Case), 0709 Part No. X15-81269-01 (Booklet), 0906 Part No. X12-89680-01 (Quick Reference Card), Part No. X09-51517-07 (Customer Service Info)

    Contents: (OPTIONAL)

Version and Editions:
    Version: (REQUIRED, IF EXISTS)
    Edition/Release: Wanquanban

Extras:
    Primary Volume Descriptor (PVD):

0320 : 20 20 20 20 20 20 20 20  20 20 20 20 20 32 30 30                200
0330 : 37 30 32 31 36 30 38 33  39 30 32 31 37 E0 32 30   7021608390217.20
0340 : 30 37 30 32 31 36 30 38  33 39 30 32 31 37 E0 32   07021608390217.2
0350 : 31 30 37 30 32 31 36 30  38 33 39 30 32 31 37 E0   107021608390217.
0360 : 32 30 30 37 30 32 31 36  30 38 33 39 30 32 31 37   2007021608390217
0370 : E0 01 00 00 00 00 00 00  00 00 00 00 00 00 00 00   ................

Copy Protection:
    Copy Protection: SmartE

Tracks and Write Offsets:
    DAT:

<rom name="AOE3X.bin" size="738071712" crc="e6ab604b" md5="fd57245ffed10c2fc3a1ea4b05a1d512" sha1="040893bd84bf88a8273d5ada289a33aee73dc2c8" />

    Cuesheet:

FILE "AOE3X.bin" BINARY
  TRACK 01 MODE1/2352
    INDEX 01 00:00:00

    Write Offset: -12

20

(3 replies, posted in Verifications)

Disc 3

http://redump.org/disc/83665/

Logs: https://mega.nz/file/m3BG3Z5C#q9X3B6YHJ … cRvFQoL_WE

Common Disc Info:
    Title: Shiji Diguo III
    Foreign Title (Non-latin): 世紀帝國Ⅲ
    Disc Number / Letter: 3
    Disc Title: Youxi Guangdie
    System: IBM PC Compatible
    Media Type: CD-ROM
    Category: Games
    Region: Taiwan
    Languages: Chinese
    Disc Serial: 0812 Part No. X18-45749-01

    Ringcode Information:
        Data Side Mastering Code (laser branded/etched): X14-13030    (NB011A)
        Data Side Mastering SID Code: IFPILB25
        Data Side Toolstamp or Mastering Code (engraved/stamped): (REQUIRED, IF EXISTS)
        Data Side Mould SID Code: IFPI 4K0B
        Data Side Additional Mould: (REQUIRED, IF EXISTS)
        Label Side Mould SID Code: (REQUIRED, IF EXISTS)
        Label Side Additional Mould: 
    Barcode: 8 82224 92573 0
    Error Count: 0
    Comments:

Alternative Foreign Title: Age of Empires III
Disc Title (Non-Latin): 遊戲光碟
Edition Name (Non-Latin): 完全版
Edition Name (Alternative): Complete Collection
Catalog No. AYB-00036
Microsoft ID: X11-44086 (Certificate of Authenticity), 0812 Part No. X15-81268-02 (Case), 0709 Part No. X15-81269-01 (Booklet), 1005 Part No. X11-57237 (Quick Reference Card), Part No. X09-51517-07 (Customer Service Info)

    Contents: (OPTIONAL)

Version and Editions:
    Version: 1.12
    Edition/Release: Wanquanban

Extras:
    Primary Volume Descriptor (PVD):

0320 : 20 20 20 20 20 20 20 20  20 20 20 20 20 32 30 30                200
0330 : 37 31 30 30 31 31 30 32  34 34 30 31 32 E4 32 30   7100110244012.20
0340 : 30 37 31 30 30 31 31 30  32 34 34 30 31 32 E4 32   07100110244012.2
0350 : 31 30 37 31 30 30 31 31  30 32 34 34 30 31 32 E4   107100110244012.
0360 : 32 30 30 37 31 30 30 31  31 30 32 34 34 30 31 32   2007100110244012
0370 : E4 01 00 00 00 00 00 00  00 00 00 00 00 00 00 00   ................

Copy Protection:
    Copy Protection: Microsoft Game Studios CD Check

Tracks and Write Offsets:
    DAT:

<rom name="AOE III DISC 3.bin" size="654829728" crc="92a3a7c1" md5="915c9330569188c45d837d861e463380" sha1="036e076efca3d6f0bb6405be3e663caac51931f9" />

    Cuesheet:

FILE "AOE III DISC 3.bin" BINARY
  TRACK 01 MODE1/2352
    INDEX 01 00:00:00

    Write Offset: -12

21

(3 replies, posted in Verifications)

Disc 2

http://redump.org/disc/83664/

Logs: https://mega.nz/file/W65FFQqC#YKAX4SwI8 … zFuyxBWkZk

Common Disc Info:
    Title: Shiji Diguo III
    Foreign Title (Non-latin): 世紀帝國Ⅲ
    Disc Number / Letter: 2
    Disc Title: Youxi Guangdie
    System: IBM PC Compatible
    Media Type: CD-ROM
    Category: Games
    Region: Taiwan
    Languages: Chinese
    Disc Serial: 0812 Part No. X18-45748-01

    Ringcode Information:
        Data Side Mastering Code (laser branded/etched): X14-13029    (NB011A)
        Data Side Mastering SID Code: IFPILB25
        Data Side Toolstamp or Mastering Code (engraved/stamped): (REQUIRED, IF EXISTS)
        Data Side Mould SID Code: IFPI 4K0B
        Data Side Additional Mould: (REQUIRED, IF EXISTS)
        Label Side Mould SID Code: (REQUIRED, IF EXISTS)
        Label Side Additional Mould: 
    Barcode: 8 82224 92573 0
    Error Count: 0
    Comments:

Alternative Foreign Title: Age of Empires III
Disc Title (Non-Latin): 遊戲光碟
Edition Name (Non-Latin): 完全版
Edition Name (Alternative): Complete Collection
Catalog No. AYB-00036
Microsoft ID: X11-44086 (Certificate of Authenticity), 0812 Part No. X15-81268-02 (Case), 0709 Part No. X15-81269-01 (Booklet), 1005 Part No. X11-57237 (Quick Reference Card), Part No. X09-51517-07 (Customer Service Info)

    Contents: (OPTIONAL)

Version and Editions:
    Version: 1.12
    Edition/Release: Wanquanban

Extras:
    Primary Volume Descriptor (PVD):

0320 : 20 20 20 20 20 20 20 20  20 20 20 20 20 32 30 30                200
0330 : 37 31 30 30 31 31 30 31  31 35 33 30 38 E4 32 30   7100110115308.20
0340 : 30 37 31 30 30 31 31 30  31 31 35 33 30 38 E4 32   07100110115308.2
0350 : 31 30 37 31 30 30 31 31  30 31 31 35 33 30 38 E4   107100110115308.
0360 : 32 30 30 37 31 30 30 31  31 30 31 31 35 33 30 38   2007100110115308
0370 : E4 01 00 00 00 00 00 00  00 00 00 00 00 00 00 00   ................

Copy Protection:
    Copy Protection: Microsoft Game Studios CD Check

Tracks and Write Offsets:
    DAT:

<rom name="AOE III DISC 2.bin" size="719747280" crc="7e8359ad" md5="d2ea18a37e621461d6c5871db84f6889" sha1="274cc3897b6324397152438c8f19607fae33336f" />

    Cuesheet:

FILE "AOE III DISC 2.bin" BINARY
  TRACK 01 MODE1/2352
    INDEX 01 00:00:00

    Write Offset: -12
hkkane wrote:
Neon Beast wrote:

Hi, this one is a verification.
http://redump.org/disc/81816/

Could you check the disc serial? Thanks.

1659807?
https://i.imgur.com/BadwK5r.jpg

Yes, thank you!

Edit:
Sorry for bothering you again, Mastering SID Code should be "IFPILB25", there is no space in between, same goes for this one.

Hi, this one is a verification.
http://redump.org/disc/81816/

Could you check the disc serial? Thanks.

24

(0 replies, posted in Verifications)

http://redump.org/disc/65832/

Logs: https://mega.nz/file/O7wGlDrZ#qL3zIKzML … hDKBQXOM24

Common Disc Info:
    Title: Moni Rensheng
    Foreign Title (Non-latin): 模拟人生
    Disc Number / Letter: (OPTIONAL)
    Disc Title: (OPTIONAL)
    System: IBM PC Compatible
    Media Type: CD-ROM
    Category: Games
    Region: China
    Languages: Chinese, English
    Disc Serial: EA-5015008-CDR

    Ringcode Information:
        Data Side Mastering Code (laser branded/etched): 5015008 CHS    (CB081G)
        Data Side Mastering SID Code: IFPI LB22
        Data Side Toolstamp or Mastering Code (engraved/stamped): (REQUIRED, IF EXISTS)
        Data Side Mould SID Code: ifpi Y105
        Data Side Additional Mould: (REQUIRED, IF EXISTS)
        Label Side Mould SID Code: (REQUIRED, IF EXISTS)
        Label Side Additional Mould: 
    Barcode: 9 787900 060877 >
    Error Count: 802
    Comments:

ISBN: 7-900060-87-1/L.11
Copyright Contract Reg. No.: 电出字01-2000-0633号
Publishing Approval File No.: 新出音管[2000]604号

    Contents: (OPTIONAL)

Version and Editions:
    Version: (REQUIRED, IF EXISTS)
    Edition/Release: Rerelease

Extras:
    Primary Volume Descriptor (PVD):

0320 : 20 20 20 20 20 20 20 20  20 20 20 20 20 32 30 30                200
0330 : 30 30 31 31 33 31 31 32  30 31 31 30 30 00 32 30   0011311201100.20
0340 : 30 30 30 31 31 33 31 31  32 30 31 31 30 30 00 30   00011311201100.0
0350 : 30 30 30 30 30 30 30 30  30 30 30 30 30 30 30 00   000000000000000.
0360 : 30 30 30 30 30 30 30 30  30 30 30 30 30 30 30 30   0000000000000000
0370 : 00 01 00 00 00 00 00 00  00 00 00 00 00 00 00 00   ................

Copy Protection:
    Copy Protection: SafeDisc 1.40.004

Tracks and Write Offsets:
    DAT:

<rom name="The Sims.bin" size="576910320" crc="aae83146" md5="554c83a2cabfc0cf69717e3e4ffd4996" sha1="3471fe1ff78fc013d57858bc2d23a55d2ef923b7" />

    Cuesheet:

FILE "The Sims.bin" BINARY
  TRACK 01 MODE1/2352
    INDEX 01 00:00:00

    Write Offset: -12

25

(3,100 replies, posted in General discussion)

matura713 wrote:

my understanding based on what @reentrant is saying is that you need:

1. identify the "weak bytes", i.e. those bytes that are different on every dump due to the protection
2. try to "guess" what is the correct value of each "weak byte"- in case of @reentrant dump it was looking like 00000XX00000 and so it was easy to guess that XX=00

however, in your case it could be not that easy to guess the "weak byte" value.

OK, that's gonna be tricky, I have no idea how to even start those processes.