1

(0 replies, posted in Fixes & additions)

http://redump.org/disc/87947/

version should be 1.01, not 1.02 probably a type when I fill the submission.txt

2

(1 replies, posted in Verifications)

Name: Black Rain (Disc 1)
BD: http://redump.org/disc/49415/
Logs: https://mega.nz/file/fM0X0YQa#oVTBcmgS4 … _Yzzb_h9Ok

Common Disc Info:
    Title: Black Rain
    Disc Number / Letter: 1
    Disc Title: (OPTIONAL)
    System: Philips CD-i
    Media Type: CD-ROM
    Category: Video
    Region: Germany
    Languages: German
    Disc Serial: 813 1014

    Ringcode Information:
        Data Side Mastering Code (laser branded/etched): 8131014V103 50418481 01>
        Data Side Mastering SID Code:     IFPI L003
        Data Side Toolstamp or Mastering Code (engraved/stamped): (REQUIRED, IF EXISTS)
        Data Side Mould SID Code: IFPI 0132
        Data Side Additional Mould: MADE IN GERMANY BY PMDC    D
        Label Side Mould SID Code: (REQUIRED, IF EXISTS)
    Barcode: 8 712581 310134
    Error Count: 0
    Comments:
    
http://redump.org/disc/49415/
[T:S] Digital Video on CD-i
<b>Cover Serial:</b> 813 1013

    Contents: (OPTIONAL)

Version and Editions:
    Version: 1.03
    Edition/Release: Original

Extras:
    Primary Volume Descriptor (PVD):

0320 : 20 20 20 20 20 20 20 20  20 20 20 20 20 31 39 39                199
0330 : 34 30 36 31 33 32 30 30  39 31 35 30 30 00 30 30   4061320091500.00
0340 : 30 30 30 30 30 30 30 30  30 30 30 30 30 30 00 30   00000000000000.0
0350 : 30 30 30 30 30 30 30 30  30 30 30 30 30 30 30 00   000000000000000.
0360 : 30 30 30 30 30 30 30 30  30 30 30 30 30 30 30 30   0000000000000000
0370 : 00 01 00 00 00 00 00 00  00 00 00 00 00 00 00 00   ................

Tracks and Write Offsets:
    DAT:

<rom name="CDi - Black Rain (German) - Disc 1.bin" size="644036400" crc="e5c47f18" md5="1735c81a30c34559c98e452563df88e3" sha1="c43771e648780232d9cd4eb7dec4f778a3c06a4c" />

    Cuesheet:

CATALOG 0000000000000
FILE "CDi - Black Rain (German) - Disc 1.bin" BINARY
  TRACK 01 CDI/2352
    INDEX 01 00:00:00

    Write Offset: -954

Dumping Info:
    Dumping Program: DiscImageCreator 20220909
    Manufacturer: PLEXTOR
    Model: CD-R    PX-W5224A
    Firmware: 1.04
    Reported Disc Type: CD-I Disc

Name: Black Rain (Disc 2)
BD: http://redump.org/disc/49416/
Logs: https://mega.nz/file/PRMl3JTT#YDnPnQkE8 … YzFYdXBDUU

Common Disc Info:
    Title: Black Rain
    Disc Number / Letter: 2
    Disc Title: (OPTIONAL)
    System: Philips CD-i
    Media Type: CD-ROM
    Category: Video
    Region: Germany
    Languages: German
    Disc Serial: 813 1015

    Ringcode Information:
        Data Side Mastering Code (laser branded/etched): 8131015V103 50418500 01>
        Data Side Mastering SID Code: IFPI L003
        Data Side Toolstamp or Mastering Code (engraved/stamped): (REQUIRED, IF EXISTS)
        Data Side Mould SID Code: IFPI 0132
        Data Side Additional Mould: MADE IN GERMANY BY PMDC    E
        Label Side Mould SID Code: (REQUIRED, IF EXISTS)
    Barcode: 8 712581 310134
    Error Count: 0
    Comments:

http://redump.org/disc/49416/
[T:S] Digital Video on CD-i
<b>Cover Serial:</b> 813 1013

    Contents: (OPTIONAL)

Version and Editions:
    Version: 1.03
    Edition/Release: Original

Extras:
    Primary Volume Descriptor (PVD):

0320 : 20 20 20 20 20 20 20 20  20 20 20 20 20 31 39 39                199
0330 : 34 30 36 32 30 30 38 30  30 35 31 30 30 00 30 30   4062008005100.00
0340 : 30 30 30 30 30 30 30 30  30 30 30 30 30 30 00 30   00000000000000.0
0350 : 30 30 30 30 30 30 30 30  30 30 30 30 30 30 30 00   000000000000000.
0360 : 30 30 30 30 30 30 30 30  30 30 30 30 30 30 30 30   0000000000000000
0370 : 00 01 00 00 00 00 00 00  00 00 00 00 00 00 00 00   ................

Tracks and Write Offsets:
    DAT:

<rom name="CDi - Black Rain (German) - Disc 2.bin" size="655326000" crc="7be45194" md5="ca2f94c482af025e90f87674d0705138" sha1="df8a6cb6dbae36fd52045df525f4d736632abc02" />

    Cuesheet:

CATALOG 0000000000000
FILE "CDi - Black Rain (German) - Disc 2.bin" BINARY
  TRACK 01 CDI/2352
    INDEX 01 00:00:00

    Write Offset: -954

Dumping Info:
    Dumping Program: DiscImageCreator 20220909
    Manufacturer: PLEXTOR
    Model: CD-R    PX-W5224A
    Firmware: 1.04
    Reported Disc Type: CD-I Disc

Name: CDI 450: Tutorial Disc
BD: http://redump.org/disc/47125/
Logs: https://mega.nz/file/3IsDgbjZ#9qdugk263 … AYx18XBiDE

Common Disc Info:
    Title: CDI 450: Tutorial Disc
    Disc Number / Letter: (OPTIONAL)
    Disc Title: (OPTIONAL)
    System: Philips CD-i
    Media Type: CD-ROM
    Category: Demos
    Region: Europe
    Languages: Dutch, English, French, German, Italian, Portuguese, Spanish
    Disc Serial: (REQUIRED, IF EXISTS)

    Ringcode Information:
        Data Side Mastering Code (laser branded/etched): 8180044V101 50426012 01>
        Data Side Mastering SID Code: (REQUIRED, IF EXISTS)
        Data Side Toolstamp or Mastering Code (engraved/stamped): (REQUIRED, IF EXISTS)
        Data Side Mould SID Code: IFPI 01A9
        Data Side Additional Mould: MADE IN GERMANY BY PMDC    E
        Label Side Mould SID Code: (REQUIRED, IF EXISTS)
    Barcode: (OPTIONAL)
    Error Count: 0
    Comments:
http://redump.org/disc/47125/


    Contents: (OPTIONAL)

Version and Editions:
    Version: 1.01
    Edition/Release: Original

Extras:
    Primary Volume Descriptor (PVD):

0320 : 20 20 20 20 20 20 20 20  20 20 20 20 20 31 39 39                199
0330 : 34 30 38 30 38 30 39 32  38 33 37 30 30 00 30 30   4080809283700.00
0340 : 30 30 30 30 30 30 30 30  30 30 30 30 30 30 00 30   00000000000000.0
0350 : 30 30 30 30 30 30 30 30  30 30 30 30 30 30 30 00   000000000000000.
0360 : 30 30 30 30 30 30 30 30  30 30 30 30 30 30 30 30   0000000000000000
0370 : 00 01 00 00 00 00 00 00  00 00 00 00 00 00 00 00   ................

Tracks and Write Offsets:
    DAT:

<rom name="CDi - CDI 450 - Tutorial Disc.bin" size="532904400" crc="59163833" md5="b706cb7d4ccb69fb479f8cd9c4fa4c90" sha1="71b9e82245ce904a6da7522c5b41163fce954aed" />

    Cuesheet:

CATALOG 0000000000000
FILE "CDi - CDI 450 - Tutorial Disc.bin" BINARY
  TRACK 01 CDI/2352
    INDEX 01 00:00:00

    Write Offset: -954

Dumping Info:
    Dumping Program: DiscImageCreator 20220909
    Manufacturer: PLEXTOR
    Model: CD-R    PX-W5224A
    Firmware: 1.04
    Reported Disc Type: CD-I Disc

Name: Wayne's World (Disc 1)
BD: http://redump.org/disc/99875/
Logs: https://mega.nz/file/GF0QmZ4K#Ki51sp7r7 … 5GKIfQhuNs

Common Disc Info:
    Title: Wayne's World
    Disc Number / Letter: 1
    Disc Title: (OPTIONAL)
    System: Philips CD-i
    Media Type: CD-ROM
    Category: Video
    Region: Germany
    Languages: German
    Disc Serial: 813 1026

    Ringcode Information:
        Data Side Mastering Code (laser branded/etched): 8131026V102 50432489 02>
        Data Side Mastering SID Code: IFPI L003
        Data Side Toolstamp or Mastering Code (engraved/stamped): (REQUIRED, IF EXISTS)
        Data Side Mould SID Code: IFPI 0179
        Data Side Additional Mould: MADE IN GERMANY BY PMDC    E
        Label Side Mould SID Code: (REQUIRED, IF EXISTS)
    Barcode: 8 712581 310257
    Error Count: 0
    Comments:
http://redump.org/disc/99875/
Serial on case: 813 1025
[T:S] Digital Video on CD-i

    Contents:

Chapters:
1. Vorspann
2. "Bohemian Rhapsody"
3. Im "Gasworks"
4. Show-Verkauf
5. Jeder Schuß ein Treffer...
6. Kantonesisch
7. 5,4,3,2,1
8. Wir fürchten Veränderungen
9. Kein Stairway
10. Ausverkauft
11. Foxy Lady

Version and Editions:
    Version: 1.02
    Edition/Release: Original

Extras:
    Primary Volume Descriptor (PVD):

0320 : 20 20 20 20 20 20 20 20  20 20 20 20 20 31 39 39                199
0330 : 34 30 34 32 37 31 37 34  33 31 38 30 30 00 30 30   4042717431800.00
0340 : 30 30 30 30 30 30 30 30  30 30 30 30 30 30 00 30   00000000000000.0
0350 : 30 30 30 30 30 30 30 30  30 30 30 30 30 30 30 00   000000000000000.
0360 : 30 30 30 30 30 30 30 30  30 30 30 30 30 30 30 30   0000000000000000
0370 : 00 01 00 00 00 00 00 00  00 00 00 00 00 00 00 00   ................

Tracks and Write Offsets:
    DAT:

<rom name="CDi - Waynes World (German) - Disc 1.bin" size="542606400" crc="321064f3" md5="71c5bd07d057c4a12b72f3abaf452d93" sha1="d472cbecbb5f5d89671ca58534c9b1281e6e20b6" />

    Cuesheet:

CATALOG 0000000000000
FILE "CDi - Waynes World (German) - Disc 1.bin" BINARY
  TRACK 01 CDI/2352
    INDEX 01 00:00:00

    Write Offset: +222

Dumping Info:
    Dumping Program: DiscImageCreator 20220909
    Manufacturer: PLEXTOR
    Model: CD-R    PX-W5224A
    Firmware: 1.04
    Reported Disc Type: CD-I Disc

Name: Wayne's World (Disc 2)
BD: http://redump.org/disc/99876/
Logs: https://mega.nz/file/bAclFDBB#6b3GSfXYc … 0HtqxOKgDc

Common Disc Info:
    Title: Wayne's World
    Disc Number / Letter: 2
    Disc Title: (OPTIONAL)
    System: Philips CD-i
    Media Type: CD-ROM
    Category: Video
    Region: Germany
    Languages: German
    Disc Serial: 813 1027

    Ringcode Information:
        Data Side Mastering Code (laser branded/etched): 8131027V103 50432499 02>
        Data Side Mastering SID Code: IFPI L003
        Data Side Toolstamp or Mastering Code (engraved/stamped): (REQUIRED, IF EXISTS)
        Data Side Mould SID Code: IFPI 0178
        Data Side Additional Mould: MADE IN GERMANY BY PMDC    E
        Label Side Mould SID Code: (REQUIRED, IF EXISTS)
    Barcode: 8 712581 310257
    Error Count: 0
    Comments:

http://redump.org/disc/99876/
Serial on case: 813 1025
[T:S] Digital Video on CD-i

    Contents:

Chapters:
12. Sex-Szene (gratis!)
13. "Der Junge ist gut!"
14. Hintergrund-Informationen
15. Back-Stage Karten
16. Ein Wort des Dankes...
17. Alles hin!
18. Zurückgeholt
19. Show für Solo-Zuschauer
20. Das Nicht-Ende
21. Das Zeichentrick Happy-End
22. Das Mega-Happy-End
23. Abspann

Version and Editions:
    Version: (REQUIRED, IF EXISTS)
    Edition/Release: (VERIFY THIS) Original

Extras:
    Primary Volume Descriptor (PVD):

0320 : 20 20 20 20 20 20 20 20  20 20 20 20 20 31 39 39                199
0330 : 34 30 35 30 36 30 39 33  36 33 33 30 30 00 30 30   4050609363300.00
0340 : 30 30 30 30 30 30 30 30  30 30 30 30 30 30 00 30   00000000000000.0
0350 : 30 30 30 30 30 30 30 30  30 30 30 30 30 30 30 00   000000000000000.
0360 : 30 30 30 30 30 30 30 30  30 30 30 30 30 30 30 30   0000000000000000
0370 : 00 01 00 00 00 00 00 00  00 00 00 00 00 00 00 00   ................

Tracks and Write Offsets:
    DAT:

<rom name="CDi - Waynes World (German) - Disc 2.bin" size="440294400" crc="7d04a080" md5="de706d1018003ffd2ce73fdc414775ce" sha1="03d9b019cf0ad556f48ca8aed9ea04a503907e7a" />

    Cuesheet:

CATALOG 0000000000000
FILE "CDi - Waynes World (German) - Disc 2.bin" BINARY
  TRACK 01 CDI/2352
    INDEX 01 00:00:00

    Write Offset: +222

Dumping Info:
    Dumping Program: DiscImageCreator 20220909
    Manufacturer: PLEXTOR
    Model: CD-R    PX-W5224A
    Firmware: 1.04
    Reported Disc Type: CD-I Disc

3

(0 replies, posted in Verifications)

Name: Football Manager 2016
BD: http://redump.org/disc/54276/
Logs: https://mega.nz/file/WZVw2KiB#A92uUfFNO … 1kJJWFDJeQ

Common Disc Info:
    Title: Football Manager 2016
    Disc Number / Letter: (OPTIONAL)
    Disc Title: (OPTIONAL)
    System: IBM PC compatible
    Media Type: DVD-ROM-5
    Category: Games
    Region: Europe
    Languages: 
    Disc Serial: SEGA-PC156

    Ringcode Information:
        Data Side Mastering Code (laser branded/etched): R    arvato 56213949/SEGA-PC156 CC 21    
        Data Side Mastering SID Code: IFPI 07A1
        Data Side Toolstamp or Mastering Code (engraved/stamped): (REQUIRED, IF EXISTS)
        Data Side Mould SID Code: IFPI 07D7
        Data Side Additional Mould: (REQUIRED, IF EXISTS)
        Label Side Mould SID Code: (REQUIRED, IF EXISTS)
    Barcode: 5 055277 026555
    Comments:
http://redump.org/disc/54276/

PC/Linux/Mac
[T:VOL] FM2016

Cover ID: SEGA-PC156-PT / INL-S156-PT
Cover/Manual in Portuguese
    Contents: (OPTIONAL)

Version and Editions:
    Version: (REQUIRED, IF EXISTS)
    Edition/Release: (VERIFY THIS) Original

Extras:
    Primary Volume Descriptor (PVD): 

Copy Protection:
    Copy Protection: Steam

Size & Checksum:
    Size: 1360003072
    CRC32: e8c9601a
    MD5: 105d6dd0802efcc1d6a85e5d26359da9
    SHA1: 0e515277946b322f613381c1e4644d44abad2c6b

Name: Genocide: Remixed Version
BD: http://redump.org/disc/37316/
Logs: https://mega.nz/file/nZVRwA6b#5qk5ThJHz … Kc4q0E6x4E

Common Disc Info:
    Title: Genocide: Remixed Version
    Disc Number / Letter: (OPTIONAL)
    Disc Title: (OPTIONAL)
    System: IBM PC compatible
    Media Type: CD-ROM
    Category: Games
    Region: Portugal
    Languages: English
    Disc Serial: (REQUIRED, IF EXISTS)

    Ringcode Information:
        Data Side Mastering Code (laser branded/etched): PLAYER 18 GENOCIDE <tab> WWW.MPO.ES <tab> 16-4-02/01 <TAB> 2205298
        Data Side Mastering SID Code: IFPI L034
        Data Side Toolstamp or Mastering Code (engraved/stamped): (REQUIRED, IF EXISTS)
        Data Side Mould SID Code: IFPI 1329
        Data Side Additional Mould: (REQUIRED, IF EXISTS)
        Label Side Mould SID Code: (REQUIRED, IF EXISTS)
    Barcode: (OPTIONAL)
    Error Count: 0
    Comments:
http://redump.org/disc/37316/

    Contents: (OPTIONAL)

Version and Editions:
    Version: (REQUIRED, IF EXISTS)
    Edition/Release: Original (VERIFY THIS)

Extras:
    Primary Volume Descriptor (PVD):

0320 : 20 20 20 20 20 20 20 20  20 20 20 20 20 31 39 39                199
0330 : 39 31 30 32 30 31 36 34  39 31 39 30 30 00 31 39   9102016491900.19
0340 : 39 39 31 30 32 30 31 36  34 39 31 39 30 30 00 32   99102016491900.2
0350 : 30 30 39 31 30 31 37 31  36 34 39 31 39 30 30 00   009101716491900.
0360 : 31 39 39 39 31 30 32 30  31 36 34 39 31 39 30 30   1999102016491900
0370 : 00 01 00 00 00 00 00 00  00 00 00 00 00 00 00 00   ................

Copy Protection:
    Copy Protection: None found

Tracks and Write Offsets:
    DAT:

<rom name="PC - Genocide.bin" size="21403200" crc="68e1f64e" md5="273ee351ed7c314fc82cd748be8f3640" sha1="fb5733ca70092b719d00fa6a57abaa4047979ee4" />

    Cuesheet:

FILE "PC - Genocide.bin" BINARY
  TRACK 01 MODE1/2352
    INDEX 01 00:00:00

    Write Offset: -12

Name: Grand Prix 4
BD: http://redump.org/disc/33131/
Logs: https://mega.nz/file/rQVHDaaA#YcjK4nM4I … 7n8fZu70AM

Common Disc Info:
    Title: Grand Prix 4
    Foreign Title (Non-latin): Geoff Crammond's Grand Prix 4
    Disc Number / Letter: (OPTIONAL)
    Disc Title: (OPTIONAL)
    System: IBM PC compatible
    Media Type: CD-ROM
    Category: Games
    Region: Europe
    Languages: English, French, German, Italian, Spanish
    Disc Serial: GPRIX4PCGBFDEI/A

    Ringcode Information:
        Data Side Mastering Code (laser branded/etched): Sono press 50382237/GPRIX4PCGBFDEIA 04
        Data Side Mastering SID Code: IFPI LB 47
        Data Side Toolstamp or Mastering Code (engraved/stamped): (REQUIRED, IF EXISTS)
        Data Side Mould SID Code: IFPI 0735
        Data Side Additional Mould: (REQUIRED, IF EXISTS)
        Label Side Mould SID Code: (REQUIRED, IF EXISTS)
    Barcode: (OPTIONAL)
    Error Count: 590
    Comments:
[T:VOL] GP4
http://redump.org/disc/33131/
Cover ID: GPRIX4PCEPT/D
Manual ID: GPRIX4PCGEPT/B (Portuguese Manual)

    Contents: (OPTIONAL)

Version and Editions:
    Version: (REQUIRED, IF EXISTS)
    Edition/Release: Original

Extras:
    Primary Volume Descriptor (PVD):

0320 : 20 20 20 20 20 20 20 20  20 20 20 20 20 32 30 30                200
0330 : 32 30 36 30 34 31 35 35  35 34 33 30 30 00 32 30   2060415554300.20
0340 : 30 32 30 36 30 34 31 35  35 35 34 33 30 30 00 30   02060415554300.0
0350 : 30 30 30 30 30 30 30 30  30 30 30 30 30 30 30 00   000000000000000.
0360 : 30 30 30 30 30 30 30 30  30 30 30 30 30 30 30 30   0000000000000000
0370 : 00 01 00 00 00 00 00 00  00 00 00 00 00 00 00 00   ................

Copy Protection:
    Copy Protection: SafeDisc 2.60.052

Tracks and Write Offsets:
    DAT:

<rom name="PC - GP4.bin" size="788886672" crc="f4107133" md5="c8fad07c2c30aae65a33d315a08b1c5a" sha1="e072302d2781825fbfc633f6452c73aafae12900" />

    Cuesheet:

FILE "PC - GP4.bin" BINARY
  TRACK 01 MODE1/2352
    INDEX 01 00:00:00

    Write Offset: -12

Name: The House of the Dead 2
BD: http://redump.org/disc/24239/
Logs: https://mega.nz/file/3Y0WiL4Q#uOjv_59ur … 6_SepwuR1Y

Common Disc Info:
    Title: The House of the Dead 2
    Disc Number / Letter: (OPTIONAL)
    Disc Title: (OPTIONAL)
    System: IBM PC compatible
    Media Type: CD-ROM
    Category: Covermount
    Region: Portugal
    Languages: English
    Disc Serial: MFCD02602

    Ringcode Information:
        Data Side Mastering Code (laser branded/etched): MFCD 02602 WWW.MEDIAFASHION.COM    30-09-02/02    2215174
        Data Side Mastering SID Code: IFPI L034
        Data Side Toolstamp or Mastering Code (engraved/stamped): (REQUIRED, IF EXISTS)
        Data Side Mould SID Code: IFPI 1324
        Data Side Additional Mould: (REQUIRED, IF EXISTS)
        Label Side Mould SID Code: (REQUIRED, IF EXISTS)
    Barcode: 5 605290 105708 02002
    Error Count: 0
    Comments:

[T:VOL] HOD2
http://redump.org/disc/24239/

    Contents: (OPTIONAL)

Version and Editions:
    Version: (REQUIRED, IF EXISTS)
    Edition/Release: Diario de Noticias

Extras:
    Primary Volume Descriptor (PVD):

0320 : 20 20 20 20 20 20 20 20  20 20 20 20 20 32 30 30                200
0330 : 31 30 35 32 38 31 38 32  35 35 39 39 33 00 30 30   1052818255993.00
0340 : 30 30 30 30 30 30 30 30  30 30 30 30 30 30 00 30   00000000000000.0
0350 : 30 30 30 30 30 30 30 30  30 30 30 30 30 30 30 00   000000000000000.
0360 : 30 30 30 30 30 30 30 30  30 30 30 30 30 30 30 30   0000000000000000
0370 : 00 01 00 00 00 00 00 00  00 00 00 00 00 00 00 00   ................

Copy Protection:
    Copy Protection: [Exception opening file, please try again]

Tracks and Write Offsets:
    DAT:

<rom name="PC - House of Dead 2 (Diario Noticias).bin" size="528433248" crc="2e440a1a" md5="5921de7da1087bc02bdb7655147d4061" sha1="e40e56b7dee04d130819e8542324b5443a45a3d2" />

    Cuesheet:

FILE "PC - House of Dead 2 (Diario Noticias).bin" BINARY
  TRACK 01 MODE2/2352
    INDEX 01 00:00:00

    Write Offset: -12

Name: Iron Storm (Disc 2)
BD: http://redump.org/disc/84508/
Logs: https://mega.nz/file/DJt3ASwI#nvVlmI4Il … -q7_dzyHIQ

Common Disc Info:
    Title: Iron Storm
    Disc Number / Letter: 2
    Disc Title: (OPTIONAL)
    System: IBM PC compatible
    Media Type: CD-ROM
    Category: Games
    Region: Portugal
    Languages: English, French, German, Italian, Portuguese, Spanish
    Disc Serial: (REQUIRED, IF EXISTS)

    Ringcode Information:
        Data Side Mastering Code (laser branded/etched): C PORTOEDI16B
        Data Side Mastering SID Code: ifpi LM11
        Data Side Toolstamp or Mastering Code (engraved/stamped): (REQUIRED, IF EXISTS)
        Data Side Mould SID Code: (REQUIRED, IF EXISTS)
        Data Side Additional Mould: (REQUIRED, IF EXISTS)
        Label Side Mould SID Code: (REQUIRED, IF EXISTS)
    Barcode: 3 563650 057376
    Error Count: 0
    Comments:

[T:VOL] IRON_CD2
Voices in English
http://redump.org/disc/84508/

    Contents: (OPTIONAL)

Version and Editions:
    Version: (REQUIRED, IF EXISTS)
    Edition/Release: Original

Extras:
    Primary Volume Descriptor (PVD):

0320 : 20 20 20 20 20 20 20 20  20 20 20 20 20 32 30 30                200
0330 : 32 30 39 32 36 30 34 32  35 30 30 30 30 08 32 30   2092604250000.20
0340 : 30 32 30 39 32 36 30 34  32 35 30 30 30 30 08 30   02092604250000.0
0350 : 30 30 30 30 30 30 30 30  30 30 30 30 30 30 30 00   000000000000000.
0360 : 30 30 30 30 30 30 30 30  30 30 30 30 30 30 30 30   0000000000000000
0370 : 00 01 00 00 00 00 00 00  00 00 00 00 00 00 00 00   ................

Copy Protection:
    Copy Protection: [Exception opening file, please try again]

Tracks and Write Offsets:
    DAT:

<rom name="PC - IronStorm (Disc 2).bin" size="556389120" crc="35473434" md5="9208addaa8594faa3e8f64345a4cea0a" sha1="738537bbfe1d2d237dc553b750ab40d4681e71dc" />

    Cuesheet:

FILE "PC - IronStorm (Disc 2).bin" BINARY
  TRACK 01 MODE1/2352
    INDEX 01 00:00:00

    Write Offset: -153

Name: McDonald's Dragons: Wind
BD: http://redump.org/disc/71016/
Logs: https://mega.nz/file/qc1ylARZ#1y0zKFnFU … 6VFVhE3sy0

Common Disc Info:
    Title: McDonald's Dragons: Wind
    Disc Number / Letter: (OPTIONAL)
    Disc Title: (OPTIONAL)
    System: IBM PC compatible
    Media Type: CD-ROM
    Category: Games
    Region: Europe
    Languages: SILENCE! (CHANGE THIS)
    Disc Serial: (REQUIRED, IF EXISTS)

    Ringcode Information:
        Data Side Mastering Code (laser branded/etched): VR5894    Happy Meal - Wind    56775-1-11
        Data Side Mastering SID Code: IFPI LQ48
        Data Side Toolstamp or Mastering Code (engraved/stamped): (REQUIRED, IF EXISTS)
        Data Side Mould SID Code: IFPI EV29
        Data Side Additional Mould: (REQUIRED, IF EXISTS)
        Label Side Mould SID Code: (REQUIRED, IF EXISTS)
    Barcode: (OPTIONAL)
    Error Count: 0
    Comments:

[T:VOL] Dragons
http://redump.org/disc/71016/

    Contents: (OPTIONAL)

Version and Editions:
    Version: (REQUIRED, IF EXISTS)
    Edition/Release: McDonald's Happy Meal

Extras:
    Primary Volume Descriptor (PVD):

0320 : 20 20 20 20 20 20 20 20  20 20 20 20 20 32 30 30                200
0330 : 37 31 30 32 39 31 37 34  30 34 35 30 30 00 32 30   7102917404500.20
0340 : 30 37 31 31 31 33 31 35  34 35 32 36 30 30 00 00   07111315452600..
0350 : 00 00 00 00 00 00 00 00  00 00 00 00 00 00 00 00   ................
0360 : 00 00 00 00 00 00 00 00  00 00 00 00 00 00 00 00   ................
0370 : 00 01 00 00 00 00 00 00  00 00 00 00 00 00 00 00   ................

Copy Protection:
    Copy Protection: None found

Tracks and Write Offsets:
    DAT:

<rom name="PC - Digital Toys.bin" size="166860288" crc="6926aef5" md5="213c9a18166d2d30cdb075901ba004dd" sha1="fc4b70d45e65850f76c8310927b68044a1275a3a" />

    Cuesheet:

FILE "PC - Digital Toys.bin" BINARY
  TRACK 01 MODE1/2352
    INDEX 01 00:00:00

    Write Offset: -12

Name: The Guardian of Darkness
BD: http://redump.org/disc/29154/
Logs: https://mega.nz/file/eV0yFZJb#lVescDjxE … FtyUcP5D3M

Common Disc Info:
    Title: MegaScore Portugal 085
    Disc Number / Letter: (OPTIONAL)
    Disc Title: (OPTIONAL)
    System: IBM PC compatible
    Media Type: CD-ROM
    Category: Games
    Region: Portugal
    Languages: English
    Disc Serial: (REQUIRED, IF EXISTS)

    Ringcode Information:
        Data Side Mastering Code (laser branded/etched): TECNODISCO S.A. THEGUARDIAN #1$
        Data Side Mastering SID Code: IFPI L192
        Data Side Toolstamp or Mastering Code (engraved/stamped): (REQUIRED, IF EXISTS)
        Data Side Mould SID Code: ifpi 3301
        Data Side Additional Mould: (REQUIRED, IF EXISTS)
        Label Side Mould SID Code: (REQUIRED, IF EXISTS)
    Barcode: (OPTIONAL)
    Error Count: 0
    Comments:
http://redump.org/disc/29154/
MegaScore Portugal 085

    Contents:
Full Game:
The Guardian of Darkness

Version and Editions:
    Version: 110
    Edition/Release: Covermount

Extras:
    Primary Volume Descriptor (PVD):

0320 : 20 20 20 20 20 20 20 20  20 20 20 20 20 31 39 39                199
0330 : 39 30 32 30 34 31 37 35  36 33 36 30 30 00 31 39   9020417563600.19
0340 : 39 39 30 32 30 34 31 37  35 36 33 36 30 30 00 32   99020417563600.2
0350 : 30 30 39 30 32 30 31 31  37 35 36 33 36 30 30 00   009020117563600.
0360 : 31 39 39 39 30 32 30 34  31 37 35 36 33 36 30 30   1999020417563600
0370 : 00 01 00 00 00 00 00 00  00 00 00 00 00 00 00 00   ................

Copy Protection:
    Copy Protection: None found

Tracks and Write Offsets:
    DAT:

<rom name="PC - The Guardian Of Darkness.bin" size="774245472" crc="80175e5d" md5="60ae3fb7b8cd7e1a8c7c4681139ffe66" sha1="d847da0c1c009b7065a0304396457d696b17c08e" />

    Cuesheet:

FILE "PC - The Guardian Of Darkness.bin" BINARY
  TRACK 01 MODE1/2352
    INDEX 01 00:00:00

    Write Offset: -22

Name: Ms. Pac-Man: Quest for the Golden Maze
BD: http://redump.org/disc/67240/
Logs: https://mega.nz/file/KZ1FESJB#I1H98Fnqd … MOCLuUB5hA

Common Disc Info:
    Title: Ms. Pac-Man: Quest for the Golden Maze
    Disc Number / Letter: (OPTIONAL)
    Disc Title: (OPTIONAL)
    System: IBM PC compatible
    Media Type: CD-ROM
    Category: Games
    Region: Europe
    Languages: English
    Disc Serial: MSPACPCUS/A

    Ringcode Information:
        Data Side Mastering Code (laser branded/etched): Sono press XA A-67531/MSPACPCUSA A
        Data Side Mastering SID Code: IFPI LB 45
        Data Side Toolstamp or Mastering Code (engraved/stamped): (REQUIRED, IF EXISTS)
        Data Side Mould SID Code: IFPI 0769
        Data Side Additional Mould: (REQUIRED, IF EXISTS)
        Label Side Mould SID Code: (REQUIRED, IF EXISTS)
    Barcode: (OPTIONAL)
    Error Count: 0
    Comments:

[T:VOL] MS_PAC-MAN_QUEST
http://redump.org/disc/67240/

    Contents: (OPTIONAL)

Version and Editions:
    Version: (REQUIRED, IF EXISTS)
    Edition/Release: Original

Extras:
    Primary Volume Descriptor (PVD):

0320 : 20 20 20 20 20 20 20 20  20 20 20 20 20 32 30 30                200
0330 : 31 31 31 31 39 31 31 30  34 30 39 30 30 00 32 30   1111911040900.20
0340 : 30 31 31 31 31 39 31 31  30 34 30 39 30 30 00 30   01111911040900.0
0350 : 30 30 30 30 30 30 30 30  30 30 30 30 30 30 30 00   000000000000000.
0360 : 30 30 30 30 30 30 30 30  30 30 30 30 30 30 30 30   0000000000000000
0370 : 00 01 00 00 00 00 00 00  00 00 00 00 00 00 00 00   ................

Copy Protection:
    Copy Protection: None found

Tracks and Write Offsets:
    DAT:

<rom name="PC - Ms. Pac-Man.bin" size="191549232" crc="90ab56fd" md5="ff52777a0e8bd6af566d88561734783b" sha1="fc98c1aa7aa83f1d44c3f5edeedea330ea4772a2" />

    Cuesheet:

FILE "PC - Ms. Pac-Man.bin" BINARY
  TRACK 01 MODE2/2352
    INDEX 01 00:00:00

    Write Offset: -12

Name: Marc Ecko's Getting Up: Contents Under Pressure
BD: http://redump.org/disc/68933/
Logs: https://mega.nz/file/fBMwRIQK#-lR2TWCDV … lgKec1SDmw

Common Disc Info:
    Title: Marc Ecko's Getting Up: Contents Under Pressure
    Disc Number / Letter: (OPTIONAL)
    Disc Title: (OPTIONAL)
    System: IBM PC compatible
    Media Type: DVD-ROM-5
    Category: Games
    Region: Europe
    Languages: English, French, German, Italian, Spanish
    Disc Serial: (REQUIRED, IF EXISTS)

    Ringcode Information:
        Data Side Mastering Code (laser branded/etched): (REQUIRED, IF EXISTS)
        Data Side Mastering SID Code: (REQUIRED, IF EXISTS)
        Data Side Toolstamp or Mastering Code (engraved/stamped): (REQUIRED, IF EXISTS)
        Data Side Mould SID Code: (REQUIRED, IF EXISTS)
        Data Side Additional Mould: (REQUIRED, IF EXISTS)
        Label Side Mould SID Code: (REQUIRED, IF EXISTS)
    Barcode: (OPTIONAL)
    Comments:

[T:VOL] GETTING_UP
http://redump.org/disc/68933/
MyGames Hype! 04 (Side A)
All rigs probably behind a sticker

    Contents: (OPTIONAL)

Version and Editions:
    Version: (REQUIRED, IF EXISTS)
    Edition/Release: (VERIFY THIS) Original

Extras:
    Primary Volume Descriptor (PVD):

0320 : 20 20 20 20 20 20 20 20  20 20 20 20 20 32 30 30                200
0330 : 36 30 31 32 38 30 35 32  39 31 32 37 38 E0 32 30   6012805291278.20
0340 : 30 36 30 31 32 38 30 35  32 39 31 32 37 38 E0 32   06012805291278.2
0350 : 31 30 36 30 31 32 38 30  35 32 39 31 32 37 38 E0   106012805291278.
0360 : 32 30 30 36 30 31 32 38  30 35 32 39 31 32 37 38   2006012805291278
0370 : E0 01 00 00 00 00 00 00  00 00 00 00 00 00 00 00   ................

Copy Protection:
    Copy Protection: SafeDisc 4.60.000

Size & Checksum:
    Size: 2264358912
    CRC32: c873e112
    MD5: a4622158219c9818899d87d379125e82
    SHA1: 9fd3dd035b74938074ee0075d6c092c33ec67701

Name: NASCAR Racing
BD: http://redump.org/disc/73190/
Logs: https://mega.nz/file/6dsmVJCZ#H95p0b0pk … n7SuNneBDw

Common Disc Info:
    Title: NASCAR Racing
    Foreign Title (Non-latin): (OPTIONAL)
    Disc Number / Letter: (OPTIONAL)
    Disc Title: (OPTIONAL)
    System: IBM PC compatible
    Media Type: CD-ROM
    Category: Games
    Region: Europe
    Languages: English
    Disc Serial: 1213330153

    Ringcode Information:
        Data Side Mastering Code (laser branded/etched): DADC AUSTRIA    A0100176797-0101    23
        Data Side Mastering SID Code: IFPI L553
        Data Side Toolstamp or Mastering Code (engraved/stamped): A4
        Data Side Mould SID Code: IFPI 94B2
        Data Side Additional Mould: (REQUIRED, IF EXISTS)
        Label Side Mould SID Code: (REQUIRED, IF EXISTS)
    Barcode: 5 028587 001123
    Error Count: 0
    Comments:
    
http://redump.org/disc/73190/
Cover SN: 1313330103
    Contents: (OPTIONAL)

Version and Editions:
    Version: (REQUIRED, IF EXISTS)
    Edition/Release: Original

Extras:
    Primary Volume Descriptor (PVD):

0320 : 20 20 20 20 20 20 20 20  20 20 20 20 20 31 39 39                199
0330 : 35 30 38 32 33 31 32 30  32 31 39 30 30 00 31 39   5082312021900.19
0340 : 39 35 30 38 32 33 31 32  30 32 31 39 30 30 00 30   95082312021900.0
0350 : 30 30 30 30 30 30 30 30  30 30 30 30 30 30 30 00   000000000000000.
0360 : 31 39 39 35 30 38 32 33  31 32 30 32 31 39 30 30   1995082312021900
0370 : 00 01 00 00 00 00 00 00  00 00 00 00 00 00 00 00   ................

Copy Protection:
    Copy Protection: None found

Tracks and Write Offsets:
    DAT:

<rom name="PC - Nascar Racing (Track 1).bin" size="20704656" crc="4c3785d2" md5="4e235b1ef27f88c0187b74e35350ed03" sha1="a5a0a862ec87fbfa76e43e84db42aae9cb45eadb" />
<rom name="PC - Nascar Racing (Track 2).bin" size="34986000" crc="c5183c5b" md5="716db6e93e7e2dc8d1eb20dd465b0039" sha1="aaa4da76a8e431a85cb5c3177270e706a0c8d06e" />
<rom name="PC - Nascar Racing (Track 3).bin" size="58047360" crc="dfeee7ce" md5="5fe454adeb14975e9a1968bf7517e7ea" sha1="a54902eb845a06f39f9dfcb1341f2aad16ef8329" />

    Cuesheet:

CATALOG 0000000000000
FILE "PC - Nascar Racing (Track 1).bin" BINARY
  TRACK 01 MODE1/2352
    INDEX 01 00:00:00
FILE "PC - Nascar Racing (Track 2).bin" BINARY
  TRACK 02 AUDIO
    INDEX 00 00:00:00
    INDEX 01 00:01:74
FILE "PC - Nascar Racing (Track 3).bin" BINARY
  TRACK 03 AUDIO
    INDEX 01 00:00:00

    Write Offset: 222

4

(0 replies, posted in Verifications)

Name: Alone in the Dark: The New Nightmare (Disc 1)
BD: http://redump.org/disc/30837/
Logs: https://mega.nz/file/GVMDhRRL#Ac4K_GRoe … MaDjN0RsN0

Common Disc Info:
    Title: Alone in the Dark: The New Nightmare
    Disc Number / Letter: 1
    Disc Title: (OPTIONAL)
    System: IBM PC compatible
    Media Type: CD-ROM
    Category: Games
    Region: Europe
    Languages: English
    Disc Serial: ALO4PCG/A1

    Ringcode Information:
        Data Side Mastering Code (laser branded/etched): Sony DADC    A0100367472-0103    14
        Data Side Mastering SID Code: IFPI L554
        Data Side Toolstamp or Mastering Code (engraved/stamped): A1
        Data Side Mould SID Code: IFPI 94Y6
        Data Side Additional Mould: (REQUIRED, IF EXISTS)
        Label Side Mould SID Code: (REQUIRED, IF EXISTS)
    Barcode: (OPTIONAL)
    Error Count: 0
    Comments:

[T:VOL] Alone4 CD1
http://redump.org/disc/30837/

    Contents: (OPTIONAL)

Version and Editions:
    Version: (REQUIRED, IF EXISTS)
    Edition/Release: Original

Extras:
    Primary Volume Descriptor (PVD):

0320 : 20 20 20 20 20 20 20 20  20 20 20 20 20 32 30 30                200
0330 : 31 30 35 32 39 31 34 32  38 30 30 30 30 08 32 30   1052914280000.20
0340 : 30 31 30 35 32 39 31 34  32 38 30 30 30 30 08 30   01052914280000.0
0350 : 30 30 30 30 30 30 30 30  30 30 30 30 30 30 30 00   000000000000000.
0360 : 30 30 30 30 30 30 30 30  30 30 30 30 30 30 30 30   0000000000000000
0370 : 00 01 00 00 00 00 00 00  00 00 00 00 00 00 00 00   ................

Copy Protection:
    Copy Protection: None found

Tracks and Write Offsets:
    DAT:

<rom name="PC - Alone in the Dark - The New Nightmare (Disc 1).bin" size="618164400" crc="9fe32a47" md5="846bde51414e498aebb095f99448baf3" sha1="c7b811dd0522b71d998e2a85810c1adcb448f5f3" />

    Cuesheet:

FILE "PC - Alone in the Dark - The New Nightmare (Disc 1).bin" BINARY
  TRACK 01 MODE1/2352
    INDEX 01 00:00:00

    Write Offset: -22

Name: Alone in the Dark: The New Nightmare (Disc 2)
BD: http://redump.org/disc/30822/
Logs: https://mega.nz/file/7JFgEIKD#KgIJi02Dr … R__tWkgSG0

Common Disc Info:
    Title: Alone in the Dark: The New Nightmare
    Disc Number / Letter: 2
    Disc Title: (OPTIONAL)
    System: IBM PC compatible
    Media Type: CD-ROM
    Category: Games
    Region: Europe
    Languages: English
    Disc Serial: ALO4PCG/A2

    Ringcode Information:
        Data Side Mastering Code (laser branded/etched): Sony DADC   A0100367472-0203   21
        Data Side Mastering SID Code: IFPI L551
        Data Side Toolstamp or Mastering Code (engraved/stamped): A2
        Data Side Mould SID Code: IFPI 94V1
        Data Side Additional Mould: (REQUIRED, IF EXISTS)
        Label Side Mould SID Code: (REQUIRED, IF EXISTS)
    Barcode: (OPTIONAL)
    Error Count: 0
    Comments:

[T:VOL] Alone4 CD2
http://redump.org/disc/30822/
Mastering SID in DB is wrong... -0303 is from disc 3

    Contents: (OPTIONAL)

Version and Editions:
    Version: (REQUIRED, IF EXISTS)
    Edition/Release: Original

Extras:
    Primary Volume Descriptor (PVD):

0320 : 20 20 20 20 20 20 20 20  20 20 20 20 20 32 30 30                200
0330 : 31 30 35 32 38 31 36 31  32 30 30 30 30 08 32 30   1052816120000.20
0340 : 30 31 30 35 32 38 31 36  31 32 30 30 30 30 08 30   01052816120000.0
0350 : 30 30 30 30 30 30 30 30  30 30 30 30 30 30 30 00   000000000000000.
0360 : 30 30 30 30 30 30 30 30  30 30 30 30 30 30 30 30   0000000000000000
0370 : 00 01 00 00 00 00 00 00  00 00 00 00 00 00 00 00   ................

Copy Protection:
    Copy Protection: None found

Tracks and Write Offsets:
    DAT:

<rom name="PC - Alone in the Dark - The New Nightmare (Disc 2).bin" size="611929248" crc="785cea77" md5="1d1402adce7da29cfed22d265303e02b" sha1="d03866773698d5bcf306c5aff1a5e533f01becf1" />

    Cuesheet:

FILE "PC - Alone in the Dark - The New Nightmare (Disc 2).bin" BINARY
  TRACK 01 MODE1/2352
    INDEX 01 00:00:00

    Write Offset: -647

Name: Alone in the Dark: The New Nightmare (Disc 3)
BD: http://redump.org/disc/30823/
Logs: https://mega.nz/file/adkQSRaK#_ojbVOj6F … 5yCvN3i-iM

Common Disc Info:
    Title: Alone in the Dark: The New Nightmare
    Disc Number / Letter: 3
    Disc Title: (OPTIONAL)
    System: IBM PC compatible
    Media Type: CD-ROM
    Category: Games
    Region: Europe
    Languages: English
    Disc Serial: ALO4PCG/A3

    Ringcode Information:
        Data Side Mastering Code (laser branded/etched): Sony DADC    A0100367472-0303    11
        Data Side Mastering SID Code: IFPI L551
        Data Side Toolstamp or Mastering Code (engraved/stamped): A5
        Data Side Mould SID Code: IFPI 94Z8
        Data Side Additional Mould: (REQUIRED, IF EXISTS)
        Label Side Mould SID Code: (REQUIRED, IF EXISTS)
    Barcode: (OPTIONAL)
    Error Count: 0
    Comments:

[T:VOL] Alone4 CD3
http://redump.org/disc/30823/

    Contents: (OPTIONAL)

Version and Editions:
    Version: (REQUIRED, IF EXISTS)
    Edition/Release: Original

Extras:
    Primary Volume Descriptor (PVD):

0320 : 20 20 20 20 20 20 20 20  20 20 20 20 20 32 30 30                200
0330 : 31 30 35 32 38 31 36 32  32 30 30 30 30 08 32 30   1052816220000.20
0340 : 30 31 30 35 32 38 31 36  32 32 30 30 30 30 08 30   01052816220000.0
0350 : 30 30 30 30 30 30 30 30  30 30 30 30 30 30 30 00   000000000000000.
0360 : 30 30 30 30 30 30 30 30  30 30 30 30 30 30 30 30   0000000000000000
0370 : 00 01 00 00 00 00 00 00  00 00 00 00 00 00 00 00   ................

Copy Protection:
    Copy Protection: None found

Tracks and Write Offsets:
    DAT:

<rom name="PC - Alone in the Dark - The New Nightmare (Disc 3).bin" size="749871696" crc="54f1854c" md5="1b747860ebbb39b93996b5a60b53a988" sha1="17e647e2887367cb710dac43677cdd35e146e6b8" />

    Cuesheet:

FILE "PC - Alone in the Dark - The New Nightmare (Disc 3).bin" BINARY
  TRACK 01 MODE1/2352
    INDEX 01 00:00:00

    Write Offset: -647

Name: Atari Arcade Hits 1
BD: http://redump.org/disc/83784/
Logs: https://mega.nz/file/WJ8DjZwJ#tlYGczB_E … _D10aj0y88

Common Disc Info:
    Title: Atari Arcade Hits 1
    Disc Number / Letter: (OPTIONAL)
    Disc Title: (OPTIONAL)
    System: IBM PC compatible
    Media Type: CD-ROM
    Category: Games
    Region: Europe
    Languages: English
    Disc Serial: ARCHIT1PCREGB/A

    Ringcode Information:
        Data Side Mastering Code (laser branded/etched): CGTR0117
        Data Side Mastering SID Code: IFPI LL21
        Data Side Toolstamp or Mastering Code (engraved/stamped): 2
        Data Side Mould SID Code: (REQUIRED, IF EXISTS)
        Data Side Additional Mould: (REQUIRED, IF EXISTS)
        Label Side Mould SID Code: (REQUIRED, IF EXISTS)
    Barcode: (OPTIONAL)
    Error Count: 0
    Comments:

[T:VOL] Atari_Hits_1
http://redump.org/disc/83784/

    Contents:

Version and Editions:
    Version: (REQUIRED, IF EXISTS)
    Edition/Release: Original

Extras:
    Primary Volume Descriptor (PVD):

0320 : 20 20 20 20 20 20 20 20  20 20 20 20 20 32 30 30                200
0330 : 31 30 35 31 34 31 36 35  38 30 30 30 30 08 32 30   1051416580000.20
0340 : 30 31 30 35 31 34 31 36  35 38 30 30 30 30 08 30   01051416580000.0
0350 : 30 30 30 30 30 30 30 30  30 30 30 30 30 30 30 00   000000000000000.
0360 : 30 30 30 30 30 30 30 30  30 30 30 30 30 30 30 30   0000000000000000
0370 : 00 01 00 00 00 00 00 00  00 00 00 00 00 00 00 00   ................

Copy Protection:
    Copy Protection: None found

Tracks and Write Offsets:
    DAT:

<rom name="PC - Atari Arcade Hits.bin" size="661716384" crc="8a205a4c" md5="7f85601426b8545a20c1e07499aa11c6" sha1="e1e55bbb9af05000708503fb0079dd3f3d1f773e" />

    Cuesheet:

FILE "PC - Atari Arcade Hits.bin" BINARY
  TRACK 01 MODE1/2352
    INDEX 01 00:00:00

    Write Offset: -22

Name: Cluedo Chronicles: Fatal Illusion (Disc 1)
BD: http://redump.org/disc/10863/
Logs: https://mega.nz/file/aQ0VgZhR#3unpPGQl4 … XycN1MMwR4

Common Disc Info:
    Title: Cluedo Chronicles: Fatal Illusion
    Disc Number / Letter: 1
    Disc Title: (OPTIONAL)
    System: IBM PC compatible
    Media Type: CD-ROM
    Category: Games
    Region: Europe
    Languages: English
    Disc Serial: CLUCRPCB0GB/A1

    Ringcode Information:
        Data Side Mastering Code (laser branded/etched): CINF0156/CD1
        Data Side Mastering SID Code: IFPI LL21
        Data Side Toolstamp or Mastering Code (engraved/stamped): (REQUIRED, IF EXISTS)
        Data Side Mould SID Code: IFPI 0624
        Data Side Additional Mould: (REQUIRED, IF EXISTS)
        Label Side Mould SID Code: (REQUIRED, IF EXISTS)
    Barcode: (OPTIONAL)
    Error Count: 0
    Comments:

[T:VOL] CLUEC1D1
http://redump.org/disc/10863/

    Contents: (OPTIONAL)

Version and Editions:
    Version: (REQUIRED, IF EXISTS)
    Edition/Release: Original

Extras:
    Primary Volume Descriptor (PVD):

0320 : 20 20 20 20 20 20 20 20  20 20 20 20 20 32 30 30                200
0330 : 31 30 39 31 33 31 30 33  35 30 30 30 30 08 32 30   1091310350000.20
0340 : 30 31 30 39 31 33 31 30  33 35 30 30 30 30 08 30   01091310350000.0
0350 : 30 30 30 30 30 30 30 30  30 30 30 30 30 30 30 00   000000000000000.
0360 : 30 30 30 30 30 30 30 30  30 30 30 30 30 30 30 30   0000000000000000
0370 : 00 01 00 00 00 00 00 00  00 00 00 00 00 00 00 00   ................

Copy Protection:
    Copy Protection: None found

Tracks and Write Offsets:
    DAT:

<rom name="PC - Cluedo Chronicles - EP1.bin" size="778504944" crc="33fd4202" md5="45640faf7ce70db88c7a786279d6dee1" sha1="015f0a0f734f8b7fd2612761c78d9ce8388bbd97" />

    Cuesheet:

FILE "PC - Cluedo Chronicles - EP1.bin" BINARY
  TRACK 01 MODE1/2352
    INDEX 01 00:00:00

    Write Offset: -22

Name: Cluedo Chronicles: Fatal Illusion (Disc 2)
BD: http://redump.org/disc/10864/
Logs: https://mega.nz/file/nJFCiaSR#XIK_9rWzC … N0zItrt1-k

Common Disc Info:
    Title: Cluedo Chronicles: Fatal Illusion
    Disc Number / Letter: 2
    Disc Title: (OPTIONAL)
    System: IBM PC compatible
    Media Type: CD-ROM
    Category: Games
    Region: Europe
    Languages: English
    Disc Serial: CLUCRPCB0GB/A2

    Ringcode Information:
        Data Side Mastering Code (laser branded/etched): CINF0156/CD2
        Data Side Mastering SID Code: IFPI LL21
        Data Side Toolstamp or Mastering Code (engraved/stamped): (REQUIRED, IF EXISTS)
        Data Side Mould SID Code: (REQUIRED, IF EXISTS)
        Data Side Additional Mould: (REQUIRED, IF EXISTS)
        Label Side Mould SID Code: (REQUIRED, IF EXISTS)
    Barcode: (OPTIONAL)
    Error Count: 0
    Comments:

[T:VOL] CLUEC1D2
http://redump.org/disc/10864/

    Contents: (OPTIONAL)

Version and Editions:
    Version: (REQUIRED, IF EXISTS)
    Edition/Release: Original

Extras:
    Primary Volume Descriptor (PVD):

0320 : 20 20 20 20 20 20 20 20  20 20 20 20 20 31 39 39                199
0330 : 39 31 31 30 32 30 30 34  39 35 30 30 30 00 31 39   9110200495000.19
0340 : 39 39 31 31 30 32 30 30  34 39 35 30 30 30 00 30   99110200495000.0
0350 : 30 30 30 30 30 30 30 30  30 30 30 30 30 30 30 00   000000000000000.
0360 : 30 30 30 30 30 30 30 30  30 30 30 30 30 30 30 30   0000000000000000
0370 : 00 01 00 00 00 00 00 00  00 00 00 00 00 00 00 00   ................

Copy Protection:
    Copy Protection: None found

Tracks and Write Offsets:
    DAT:

<rom name="PC - Cluedo Chronicles - EP1 (Disc 2).bin" size="779629200" crc="4d745481" md5="7eac648f98f5c9afe8f67e146fd2de9d" sha1="a9363506a9b5a477bfd789986787c08e2b738cb1" />

    Cuesheet:

FILE "PC - Cluedo Chronicles - EP1 (Disc 2).bin" BINARY
  TRACK 01 MODE1/2352
    INDEX 01 00:00:00

    Write Offset: -22

Name: Cluedo Chronicles: Fatal Illusion (Disc 3)
BD: http://redump.org/disc/10865/
Logs: https://mega.nz/file/eVlHWBwY#uaxfSR6ie … d7ybDK8ONw

Common Disc Info:
    Title: Cluedo Chronicles: Fatal Illusion
    Disc Number / Letter: 3
    Disc Title: (OPTIONAL)
    System: IBM PC compatible
    Media Type: CD-ROM
    Category: Games
    Region: Europe
    Languages: English
    Disc Serial: CLUCRPCB0GB/A3

    Ringcode Information:
        Data Side Mastering Code (laser branded/etched): CINF0156/CD3
        Data Side Mastering SID Code: IFPI LL21
        Data Side Toolstamp or Mastering Code (engraved/stamped): (REQUIRED, IF EXISTS)
        Data Side Mould SID Code: (REQUIRED, IF EXISTS)
        Data Side Additional Mould: (REQUIRED, IF EXISTS)
        Label Side Mould SID Code: (REQUIRED, IF EXISTS)
    Barcode: (OPTIONAL)
    Error Count: 0
    Comments:

[T:VOL] CLUEC1D3
http://redump.org/disc/10865/

    Contents: (OPTIONAL)

Version and Editions:
    Version: (REQUIRED, IF EXISTS)
    Edition/Release: (VERIFY THIS) Original

Extras:
    Primary Volume Descriptor (PVD):

0320 : 20 20 20 20 20 20 20 20  20 20 20 20 20 31 39 39                199
0330 : 39 31 31 30 31 32 33 35  34 32 34 30 30 00 31 39   9110123542400.19
0340 : 39 39 31 31 30 31 32 33  35 34 32 34 30 30 00 30   99110123542400.0
0350 : 30 30 30 30 30 30 30 30  30 30 30 30 30 30 30 00   000000000000000.
0360 : 30 30 30 30 30 30 30 30  30 30 30 30 30 30 30 30   0000000000000000
0370 : 00 01 00 00 00 00 00 00  00 00 00 00 00 00 00 00   ................

Copy Protection:
    Copy Protection: None found

Tracks and Write Offsets:
    DAT:

<rom name="PC - Cluedo Chronicles - EP1 (Disc 3).bin" size="762120912" crc="c6ae973b" md5="151808c9172ef0b5540134984b6db4e3" sha1="15a643ea25dbaa5b564e0df50977fb8f5eac96bf" />

    Cuesheet:

FILE "PC - Cluedo Chronicles - EP1 (Disc 3).bin" BINARY
  TRACK 01 MODE2/2352
    INDEX 01 00:00:00

    Write Offset: -22

Name: Counter-Strike 1 Anthology
BD: http://redump.org/disc/71952/
Logs: https://mega.nz/file/DcllVKKL#_NfAaCLws … H69BYUn-Oo

Common Disc Info:
    Title: Counter-Strike 1 Anthology
    Disc Number / Letter: (OPTIONAL)
    Disc Title: (OPTIONAL)
    System: IBM PC compatible
    Media Type: DVD-ROM-5
    Category: Games
    Region: Portugal
    Languages: English
    Disc Serial: VAE07704947D

    Ringcode Information:
        Data Side Mastering Code (laser branded/etched): DVP33259   VAE07704947DR0/A   21   Technicolor    
        Data Side Mastering SID Code: IFPI LR80
        Data Side Toolstamp or Mastering Code (engraved/stamped): 0MM
        Data Side Mould SID Code: unreadable
        Data Side Additional Mould: (REQUIRED, IF EXISTS)
        Label Side Mould SID Code: IFPI UG76
    Barcode: 5 030930 048327
    Comments:

[T:VOL] CS
http://redump.org/disc/71952/

Sticker on cover with Portuguese instructions
Cover ID: VAE0770494IS
Manual ID: VAE07704947Y
Small Portuguese Manual

    Contents:

<b>Games:</b>
Counter-Strike
Counter-Strike: Condition Zero
Counter-Strike: Condition Zero Deleted Scenes

Version and Editions:
    Version: (REQUIRED, IF EXISTS)
    Edition/Release: (VERIFY THIS) Original

Extras:
    Primary Volume Descriptor (PVD):

0320 : 20 20 20 20 20 20 20 20  20 20 20 20 20 32 30 30                200
0330 : 35 30 38 32 33 31 37 30  38 33 30 30 30 30 32 30   5082317083000020
0340 : 30 35 30 38 32 33 31 37  30 38 33 30 30 30 30 39   0508231708300009
0350 : 39 39 39 31 32 33 31 30  30 30 30 30 30 30 30 30   9991231000000000
0360 : 39 39 39 39 31 32 33 31  30 30 30 30 30 30 30 30   9999123100000000
0370 : 30 01 00 00 00 00 00 00  00 00 00 00 00 00 00 00   0...............

Copy Protection:
    Copy Protection: None found

Size & Checksum:
    Size: 1272446976
    CRC32: 9015784e
    MD5: 402b49834de1319593fb0e0c389be0cf
    SHA1: 7820a421f701a0a56073286ec052b18e09106f9d

Name: Cue Club
BD: http://redump.org/disc/65521/
Logs: https://mega.nz/file/vMMi2IDa#D6Kyf7XoF … Mef4p-Kgz0

Common Disc Info:
    Title: Cue Club
    Foreign Title (Non-latin): Cue Club: Ready to Play?
    Disc Number / Letter: (OPTIONAL)
    Disc Title: (OPTIONAL)
    System: IBM PC compatible
    Media Type: CD-ROM
    Category: Games
    Region: Portugal
    Languages: English, Spanish, Italian, Portuguese, Dutch
    Disc Serial: (REQUIRED, IF EXISTS)

    Ringcode Information:
        Data Side Mastering Code (laser branded/etched): NIMBUS    LU012009    CCENG/BOX :
        Data Side Mastering SID Code: (REQUIRED, IF EXISTS)
        Data Side Toolstamp or Mastering Code (engraved/stamped): 1:0
        Data Side Mould SID Code: ifpi 7Q03
        Data Side Additional Mould: (REQUIRED, IF EXISTS)
        Label Side Mould SID Code: (REQUIRED, IF EXISTS)
    Barcode: (OPTIONAL)
    Error Count: 0
    Comments:

[T:VOL] CUECLUB
http://redump.org/disc/65521/

The game has English, Spanish, Italian, Portuguese and Dutch languages because CD has files for those languages. In my case, my Windows XP is english and game only had English language. Problably Lizard's Windows was italian and then he wrote that game was italian. After these finding I uninstalled the game and forced the setup with one language (Setup.exe -L0816) and install and game language changed to Portuguese (the language ID I used).

    Contents: (OPTIONAL)

Version and Editions:
    Version: (REQUIRED, IF EXISTS)
    Edition/Release: (VERIFY THIS) Original

Extras:
    Primary Volume Descriptor (PVD):

0320 : 20 20 20 20 20 20 20 20  20 20 20 20 20 32 30 30                200
0330 : 30 30 35 33 30 31 37 35  30 30 39 30 30 00 32 30   0053017500900.20
0340 : 30 30 30 35 33 30 31 37  35 30 30 39 30 30 00 30   00053017500900.0
0350 : 30 30 30 30 30 30 30 30  30 30 30 30 30 30 30 00   000000000000000.
0360 : 30 30 30 30 30 30 30 30  30 30 30 30 30 30 30 30   0000000000000000
0370 : 00 01 00 00 00 00 00 00  00 00 00 00 00 00 00 00   ................

Copy Protection:
    Copy Protection: None found

Tracks and Write Offsets:
    DAT:

<rom name="PC - Cue Club (Track 01).bin" size="191085888" crc="922c43dd" md5="1a27ed7292b3404a70fbe96d1b0310f3" sha1="67e86ceba90b0c8efad719ab3408cb6a2a42f68f" />
<rom name="PC - Cue Club (Track 02).bin" size="1698144" crc="11e998cc" md5="d78164f7f95152a9fb7ac11740fe8d7a" sha1="028fb0237a2bb4ba10683a258e2d8de581d60a29" />
<rom name="PC - Cue Club (Track 03).bin" size="57315888" crc="6a01bba0" md5="9ef58663d5b95dc9703010b5f6878b02" sha1="80bae27a2d783e88808330af7c16535c1284f8ac" />
<rom name="PC - Cue Club (Track 04).bin" size="61010880" crc="76dac2cc" md5="a8e29e93c2cecdb641905c1a1aa92ab0" sha1="1989c01a7369601e77b026c540f523050b216fb1" />
<rom name="PC - Cue Club (Track 05).bin" size="48335952" crc="73b60ba2" md5="12051c210ad6e3a328b1d5f2802c471b" sha1="851fc62d8d7a34a452b62307875b4c7bf88ac1c8" />
<rom name="PC - Cue Club (Track 06).bin" size="54653424" crc="210f8c26" md5="388a01c663481d98086e4840b1401f8e" sha1="0e8e024931096138c4e1f2c0bb3d2a576e17243c" />
<rom name="PC - Cue Club (Track 07).bin" size="58082640" crc="e5b21d24" md5="bb588ea271f7fbf4c7eb5bbaacaf51bb" sha1="8d33c4d472ce2fc319a84a220969e84703fcabf6" />
<rom name="PC - Cue Club (Track 08).bin" size="53677344" crc="d68034cb" md5="df4a55811cee0cc4b048071801f718ed" sha1="cc5cc20f1e60f8bd493c015b9b329d69b366e6fd" />
<rom name="PC - Cue Club (Track 09).bin" size="59961888" crc="04194b7e" md5="b76e30572910497445b09acfdb4ef157" sha1="bc41aa15fd46b92f7c1106118959361168f2dbc2" />
<rom name="PC - Cue Club (Track 10).bin" size="58052064" crc="672a5378" md5="653ec827f7a243dc64e7f42c7db4677b" sha1="6f5680ace84409b92a3bf1375d351a732872aa81" />
<rom name="PC - Cue Club (Track 11).bin" size="57028944" crc="a25ad454" md5="82c6733e053ed73efc7daf40917b2b10" sha1="36ee1329ff2522373f2e5f209872ecd1c25b0b09" />

    Cuesheet:

FILE "PC - Cue Club (Track 01).bin" BINARY
  TRACK 01 MODE2/2352
    INDEX 01 00:00:00
FILE "PC - Cue Club (Track 02).bin" BINARY
  TRACK 02 AUDIO
    INDEX 00 00:00:00
    INDEX 01 00:02:00
FILE "PC - Cue Club (Track 03).bin" BINARY
  TRACK 03 AUDIO
    INDEX 00 00:00:00
    INDEX 01 00:02:00
FILE "PC - Cue Club (Track 04).bin" BINARY
  TRACK 04 AUDIO
    INDEX 00 00:00:00
    INDEX 01 00:02:00
FILE "PC - Cue Club (Track 05).bin" BINARY
  TRACK 05 AUDIO
    INDEX 00 00:00:00
    INDEX 01 00:02:00
FILE "PC - Cue Club (Track 06).bin" BINARY
  TRACK 06 AUDIO
    INDEX 00 00:00:00
    INDEX 01 00:02:00
FILE "PC - Cue Club (Track 07).bin" BINARY
  TRACK 07 AUDIO
    INDEX 00 00:00:00
    INDEX 01 00:02:00
FILE "PC - Cue Club (Track 08).bin" BINARY
  TRACK 08 AUDIO
    INDEX 00 00:00:00
    INDEX 01 00:02:00
FILE "PC - Cue Club (Track 09).bin" BINARY
  TRACK 09 AUDIO
    INDEX 00 00:00:00
    INDEX 01 00:02:00
FILE "PC - Cue Club (Track 10).bin" BINARY
  TRACK 10 AUDIO
    INDEX 00 00:00:00
    INDEX 01 00:02:00
FILE "PC - Cue Club (Track 11).bin" BINARY
  TRACK 11 AUDIO
    INDEX 00 00:00:00
    INDEX 01 00:02:00

    Write Offset: -12

Name: Mega Bloks: Dragons
BD: https://redump.org/disc/67560/
Logs: https://mega.nz/file/ndsynLKL#p1b6-N3FT … vwpl3Bli8Y

Common Disc Info:
    Title: Mega Bloks: Dragons
    Disc Number / Letter: (OPTIONAL)
    Disc Title: (OPTIONAL)
    System: IBM PC compatible
    Media Type: CD-ROM
    Category: Games
    Region: Europe
    Languages: 
    Disc Serial: X096431

    Ringcode Information:
        Data Side Mastering Code (laser branded/etched): X096431
        Data Side Mastering SID Code: ifpi LQ24
        Data Side Toolstamp or Mastering Code (engraved/stamped): (REQUIRED, IF EXISTS)
        Data Side Mould SID Code: IFPI BE13
        Data Side Additional Mould: (REQUIRED, IF EXISTS)
        Label Side Mould SID Code: (REQUIRED, IF EXISTS)
    Barcode: (OPTIONAL)
    Error Count: 0
    Comments:

[T:VOL] DRAGONS

https://redump.org/disc/67560/

    Contents: (OPTIONAL)

Version and Editions:
    Version: (REQUIRED, IF EXISTS)
    Edition/Release: (VERIFY THIS) Original

Extras:
    Primary Volume Descriptor (PVD):

0320 : 20 20 20 20 20 20 20 20  20 20 20 20 20 32 30 30                200
0330 : 36 30 34 31 31 32 31 30  37 30 36 30 30 00 32 30   6041121070600.20
0340 : 30 36 30 34 31 31 32 31  31 38 34 32 30 30 00 00   06041121184200..
0350 : 00 00 00 00 00 00 00 00  00 00 00 00 00 00 00 00   ................
0360 : 00 00 00 00 00 00 00 00  00 00 00 00 00 00 00 00   ................
0370 : 00 01 00 00 00 00 00 00  00 00 00 00 00 00 00 00   ................

Copy Protection:
    Copy Protection: None found

Tracks and Write Offsets:
    DAT:

<rom name="PC - Dragons.bin" size="670113024" crc="4728472d" md5="80f00a5d6f15f7797be2f6ce50101a3c" sha1="2dd8617547152b0264686d63dfa1ad9a2af3bb2d" />

    Cuesheet:

FILE "PC - Dragons.bin" BINARY
  TRACK 01 MODE1/2352
    INDEX 01 00:00:00

    Write Offset: -153

5

(0 replies, posted in Verifications)

Name: Player Manager: Época 98-99
BD: http://redump.org/disc/10389/
Logs: https://mega.nz/file/XBsEGZKL#qlxGqOmSQ … HtzsgT5NL4

Common Disc Info:
    Title: Player Manager: Época 98-99
    Disc Number / Letter: (OPTIONAL)
    Disc Title: (OPTIONAL)
    System: IBM PC compatible
    Media Type: CD-ROM
    Category: Games
    Region: Portugal
    Languages: Portuguese
    Disc Serial: (REQUIRED, IF EXISTS)

    Ringcode Information:
        Data Side Mastering Code (laser branded/etched): (REQUIRED, IF EXISTS)
        Data Side Mastering SID Code: (REQUIRED, IF EXISTS)
        Data Side Toolstamp or Mastering Code (engraved/stamped): (REQUIRED, IF EXISTS)
        Data Side Mould SID Code: (REQUIRED, IF EXISTS)
        Data Side Additional Mould: (REQUIRED, IF EXISTS)
        Label Side Mould SID Code: (REQUIRED, IF EXISTS)
    Barcode: 5 603625 135192
    Error Count: 0
    Comments:

[T:VOL] PM99POR
BGamer Portugal 036 (Disc 1)
http://redump.org/disc/10389/

    Contents: (OPTIONAL)

Version and Editions:
    Version: (REQUIRED, IF EXISTS)
    Edition/Release: Original

Extras:
    Primary Volume Descriptor (PVD):

0320 : 20 20 20 20 20 20 20 20  20 20 20 20 20 31 39 39                199
0330 : 39 30 37 32 33 30 39 34  32 34 36 30 30 00 31 39   9072309424600.19
0340 : 39 39 30 37 32 33 30 39  34 32 34 36 30 30 00 30   99072309424600.0
0350 : 30 30 30 30 30 30 30 30  30 30 30 30 30 30 30 00   000000000000000.
0360 : 30 30 30 30 30 30 30 30  30 30 30 30 30 30 30 30   0000000000000000
0370 : 00 01 00 00 00 00 00 00  00 00 00 00 00 00 00 00   ................

Copy Protection:
    Copy Protection: None found

Tracks and Write Offsets:
    DAT:

<rom name="PC - Player Manager.bin" size="282056544" crc="176642d8" md5="c59f90c21297d1c3755d5960502b29f5" sha1="4aec409a2979c8cbd5c0285ef8f268cc54e8a894" />

    Cuesheet:

FILE "PC - Player Manager.bin" BINARY
  TRACK 01 MODE2/2352
    INDEX 01 00:00:00

    Write Offset: -12

Name: Conflict Zone
BD: http://redump.org/disc/30220/
Logs: https://mega.nz/file/DJ1yzIDQ#SoiilPG-k … clAKjXbnTQ

Common Disc Info:
    Title: BGamer Portugal 054 (Disc 2)
    Foreign Title (Non-latin): (OPTIONAL)
    Disc Number / Letter: (OPTIONAL)
    Disc Title: (OPTIONAL)
    System: IBM PC compatible
    Media Type: CD-ROM
    Category: Coverdiscs
    Region: Portugal
    Disc Serial: 

    Ringcode Information:
        Data Side Mastering Code (laser branded/etched): SNVGOODY25A
        Data Side Mastering SID Code: ifpi LM11
        Data Side Toolstamp or Mastering Code (engraved/stamped): (REQUIRED, IF EXISTS)
        Data Side Mould SID Code: (REQUIRED, IF EXISTS)
        Data Side Additional Mould: (REQUIRED, IF EXISTS)
        Label Side Mould SID Code: (REQUIRED, IF EXISTS)
    Barcode: (OPTIONAL)
    Error Count: 0
    Comments:

[T:VOL] CZone_UK
BGamer Portugal 054 (Disc 2)
http://redump.org/disc/30220/

    Contents: 
Full Game:
Conflict Zone

Version and Editions:
    Version: (REQUIRED, IF EXISTS)
    Edition/Release: (VERIFY THIS) Original

Extras:
    Primary Volume Descriptor (PVD):

0320 : 20 20 20 20 20 20 20 20  20 20 20 20 20 32 30 30                200
0330 : 31 30 39 31 32 31 32 30  38 35 34 30 30 00 32 30   1091212085400.20
0340 : 30 31 30 39 31 32 31 32  30 38 35 34 30 30 00 30   01091212085400.0
0350 : 30 30 30 30 30 30 30 30  30 30 30 30 30 30 30 00   000000000000000.
0360 : 32 30 30 31 30 39 31 32  31 32 30 38 35 34 30 30   2001091212085400
0370 : 00 01 00 20 20 20 20 20  20 20 20 20 20 20 20 20   ...

Copy Protection:
    Copy Protection: None found

Tracks and Write Offsets:
    DAT:

<rom name="PC - BGamer Portugal 054 (Disc 2).bin" size="786362976" crc="60e56a1b" md5="ba1b47223c17b53a22dfa02da83dcec8" sha1="5d0e6357305264cde69be7f4f767882aec90b5c0" />

    Cuesheet:

FILE "PC - BGamer Portugal 054 (Disc 2).bin" BINARY
  TRACK 01 MODE1/2352
    INDEX 01 00:00:00

    Write Offset: -153

Name: Caesar III
BD: http://redump.org/disc/21202/
Logs: https://mega.nz/file/KFtmyAiT#xoMdWgFh0 … p6FibaVO7s

Common Disc Info:
    Title: BGamer Portugal 074 (Disc 1)
    Foreign Title (Non-latin): (OPTIONAL)
    Disc Number / Letter: (OPTIONAL)
    Disc Title: (OPTIONAL)
    System: IBM PC compatible
    Media Type: CD-ROM
    Category: Coverdiscs
    Region: Portugal
    Disc Serial: 

    Ringcode Information:
        Data Side Mastering Code (laser branded/etched): DUPLICO 2000    JOGO COMPLETO CAESAR 3    8/1/04
        Data Side Mastering SID Code: LN77
        Data Side Toolstamp or Mastering Code (engraved/stamped): (REQUIRED, IF EXISTS)
        Data Side Mould SID Code: IFPI LH02
        Data Side Additional Mould: (REQUIRED, IF EXISTS)
        Label Side Mould SID Code: (REQUIRED, IF EXISTS)
    Barcode: (OPTIONAL)
    Error Count: 0
    Comments:
http://redump.org/disc/21202/
BGamer Portugal 074 (Disc 1)
[T:VOL] CAESAR3

    Contents:
Full Game:
Caesar III

Version and Editions:
    Version: (REQUIRED, IF EXISTS)
    Edition/Release: (VERIFY THIS) Original

Extras:
    Primary Volume Descriptor (PVD):

0320 : 20 20 20 20 20 20 20 20  20 20 20 20 20 32 30 30                200
0330 : 30 30 37 30 37 30 39 33  38 30 30 30 30 08 32 30   0070709380000.20
0340 : 30 30 30 37 30 37 30 39  33 38 30 30 30 30 08 30   00070709380000.0
0350 : 30 30 30 30 30 30 30 30  30 30 30 30 30 30 30 00   000000000000000.
0360 : 30 30 30 30 30 30 30 30  30 30 30 30 30 30 30 30   0000000000000000
0370 : 00 01 00 00 00 00 00 00  00 00 00 00 00 00 00 00   ................

Copy Protection:
    Copy Protection: None found

Tracks and Write Offsets:
    DAT:

<rom name="PC - BGamer Portugal 074 (Disc 1).bin" size="838998384" crc="45e2f59a" md5="83ff3fa25737431e31cc310c9a4aa5e8" sha1="3eec64627e878d35eeac2dbbb4153713fc8e1ad3" />

    Cuesheet:

FILE "PC - BGamer Portugal 074 (Disc 1).bin" BINARY
  TRACK 01 MODE2/2352
    INDEX 01 00:00:00

    Write Offset: -12

Name: Tom Clancy's Splinter Cell
BD: http://redump.org/disc/85683/
Logs: https://mega.nz/file/rMlmnZgZ#v91LDh0rN … j6n2rezC9o

Common Disc Info:
    Title: BGamer Portugal 100 (Side A)
    Disc Number / Letter: (OPTIONAL)
    Disc Title: (OPTIONAL)
    System: IBM PC compatible
    Media Type: DVD-ROM-5
    Category: Coverdiscs
    Region: Portugal
    Languages: English, French, German
    Disc Serial: (REQUIRED, IF EXISTS)

    Ringcode Information:
        Data Side Mastering Code (laser branded/etched): DUPLICO 2000    61421    JOGO COMPLETO BGAMER100 CARA A    10/02/06
        Data Side Mastering SID Code: LN77
        Data Side Toolstamp or Mastering Code (engraved/stamped): (REQUIRED, IF EXISTS)
        Data Side Mould SID Code: (REQUIRED, IF EXISTS)
        Data Side Additional Mould: (REQUIRED, IF EXISTS)
        Label Side Mould SID Code: (REQUIRED, IF EXISTS)
    Barcode: (OPTIONAL)
    Comments:

http://redump.org/disc/85683/
BGamer Portugal 100 (Side A)
[T:VOL] SC_DVD


    Contents:
Full Game:
Tom Clancy's Splinter Cell

Version and Editions:
    Version: (REQUIRED, IF EXISTS)
    Edition/Release: (VERIFY THIS) Original

Extras:
    Primary Volume Descriptor (PVD):

0320 : 20 20 20 20 20 20 20 20  20 20 20 20 20 32 30 30                200
0330 : 34 31 32 30 37 31 30 31  34 32 31 33 34 04 32 30   4120710142134.20
0340 : 30 34 31 32 30 37 31 30  31 34 32 31 33 34 04 32   04120710142134.2
0350 : 31 30 34 31 32 30 37 31  30 31 34 32 31 33 34 04   104120710142134.
0360 : 32 30 30 34 31 32 30 37  31 30 31 34 32 31 33 34   2004120710142134
0370 : 04 01 00 00 00 00 00 00  00 00 00 00 00 00 00 00   ................

Copy Protection:
    Copy Protection: None found

Size & Checksum:
    Size: 1892483072
    CRC32: d10c89c2
    MD5: 65130d3dcf727e562e14af653a9cb0d4
    SHA1: 84bf7fe1585d528292f7a43cc45069e2741dd26d

Name: Metro 2033
BD: http://redump.org/disc/71696/
Logs: https://mega.nz/file/6EUxSTib#sDKL3XdYm … aVNcp7uqXA

Common Disc Info:
    Title: BGamer Portugal 159
    Disc Number / Letter: (OPTIONAL)
    Disc Title: (OPTIONAL)
    System: IBM PC compatible
    Media Type: DVD-ROM-9
    Category: Games
    Region: Portugal
    Languages: Czech, Dutch, English, French, German, Italian, Polish, Portuguese, Russian, Spanish
    Disc Serial: (REQUIRED, IF EXISTS)

    Ringcode Information:
        Layer 0 (Inner) Mastering Code (laser branded/etched): 8/26/11    BGAMER 159 - METRO 2033 -     @ LAYER1 @
        Layer 0 (Inner) Mastering SID Code: (REQUIRED, IF EXISTS)
        Layer 0 (Inner) Toolstamp or Mastering Code (engraved/stamped): (REQUIRED, IF EXISTS)
        Data Side Mould SID Code: (REQUIRED, IF EXISTS)
        Data Side Additional Mould: (REQUIRED, IF EXISTS)
        Layer 1 (Outer) Mastering Code (laser branded/etched): 136023    BGAMER 159 - METRO 2033 -     8/26/11
        Layer 1 (Outer) Mastering SID Code: LN77
        Layer 1 (Outer) Toolstamp or Mastering Code (engraved/stamped): (REQUIRED, IF EXISTS)
        Label Side Mould SID Code: (REQUIRED, IF EXISTS)
    Barcode: (OPTIONAL)
    Comments:
http://redump.org/disc/71696/
BGamer Portugal 159
[T:VOL] Metro 2033
(OPTIONAL)

    Contents:
Full Game:
Metro 2033

Version and Editions:
    Version: (REQUIRED, IF EXISTS)
    Edition/Release: (VERIFY THIS) Original

Extras:
    Primary Volume Descriptor (PVD):

0320 : 20 20 20 20 20 20 20 20  20 20 20 20 20 32 30 31                201
0330 : 30 30 32 32 35 31 37 30  32 30 35 30 30 08 32 30   0022517020500.20
0340 : 31 30 30 32 32 35 31 37  30 32 30 35 30 30 08 30   10022517020500.0
0350 : 30 30 30 30 30 30 30 30  30 30 30 30 30 30 30 00   000000000000000.
0360 : 30 30 30 30 30 30 30 30  30 30 30 30 30 30 30 30   0000000000000000
0370 : 00 01 00 00 00 00 00 00  00 00 00 00 00 00 00 00   ................

Copy Protection:
    Copy Protection: Steam

Size & Checksum:
    Layerbreak: 1722016
    Size: 7053377536
    CRC32: 10289d3a
    MD5: 67f2c379c5b7b84754b3c376b09187ae
    SHA1: 3de89e07449c2573cd4a334b0cd7da012a98f97c

Name: Prince of Persia
BD: http://redump.org/disc/71304/
Logs: https://mega.nz/file/fYdFzSwZ#25u7tCZiw … izzx_8pz5A

Common Disc Info:
    Title: BGamer Portugal 164
    Disc Number / Letter: (OPTIONAL)
    Disc Title: (OPTIONAL)
    System: IBM PC compatible
    Media Type: DVD-ROM-9
    Category: Coverdisc
    Region: Portugal
    Languages: Dutch, English, French, German, Italian, Spanish
    Disc Serial: (REQUIRED, IF EXISTS)

    Ringcode Information:
        Layer 0 (Inner) Mastering Code (laser branded/etched): DVD POP 2008 PACK 2 LAYER 0    WWW.MPO.ES    28-1-10/1    09007683
        Layer 0 (Inner) Mastering SID Code: IFPI L034
        Layer 0 (Inner) Toolstamp or Mastering Code (engraved/stamped): (REQUIRED, IF EXISTS)
        Data Side Mould SID Code: (REQUIRED, IF EXISTS)
        Data Side Additional Mould: (REQUIRED, IF EXISTS)
        Layer 1 (Outer) Mastering Code (laser branded/etched): DVD POP 2008 PACK 2 LAYER 1    WWW.MPO.ES    28-1-10/1    09007683
        Layer 1 (Outer) Mastering SID Code: (REQUIRED, IF EXISTS)
        Layer 1 (Outer) Toolstamp or Mastering Code (engraved/stamped): (REQUIRED, IF EXISTS)
        Label Side Mould SID Code: (REQUIRED, IF EXISTS)
    Barcode: (OPTIONAL)
    Comments:
http://redump.org/disc/71304/
[T:VOL] PC_MC_1
BGamer Portugal 164
<b>Game ID</b>: 300028853 (Disc), 300028853 (Manual)

    Contents: 
Full Game:
Prince of Persia

Version and Editions:
    Version: (REQUIRED, IF EXISTS)
    Edition/Release: (VERIFY THIS) Original

Extras:
    Primary Volume Descriptor (PVD):

0320 : 20 20 20 20 20 20 20 20  20 20 20 20 20 32 30 30                200
0330 : 38 31 31 31 33 31 38 34  32 30 30 30 00 EC 32 30   811131842000..20
0340 : 30 38 31 31 31 33 31 38  34 32 30 30 30 00 EC 30   0811131842000..0
0350 : 30 30 30 30 30 30 30 30  30 30 30 30 30 30 30 00   000000000000000.
0360 : 30 30 30 30 30 30 30 30  30 30 30 30 30 30 30 30   0000000000000000
0370 : 00 01 00 00 00 00 00 00  00 00 00 00 00 00 00 00   ................

Copy Protection:
    Copy Protection: None found

Size & Checksum:
    Layerbreak: 2086912
    Size: 7745863680
    CRC32: 3170d97b
    MD5: f2131c74deb853b31f0a04cdf22790f0
    SHA1: b332fc2b6e8357049d25b5f5940aabf9965a1ffb

Name: Actua Soccer 3
BD: http://redump.org/disc/37730/
Logs: https://mega.nz/file/iQcURb7T#nidyPnQV7 … KPz3dz6oOM

Common Disc Info:
    Title: BGamer Portugal Extra: Sports 2004
    Disc Number / Letter: (OPTIONAL)
    Disc Title: (OPTIONAL)
    System: IBM PC compatible
    Media Type: CD-ROM
    Category: Coverdiscs
    Region: Portugal
    Languages: English
    Disc Serial: (REQUIRED, IF EXISTS)

    Ringcode Information:
        Data Side Mastering Code (laser branded/etched): DUPLICO 2000    JOGO COMPLETO ACTUA SOCCER3    9/29/04
        Data Side Mastering SID Code: LN76
        Data Side Toolstamp or Mastering Code (engraved/stamped): (REQUIRED, IF EXISTS)
        Data Side Mould SID Code: IFPI LH06
        Data Side Additional Mould: (REQUIRED, IF EXISTS)
        Label Side Mould SID Code: (REQUIRED, IF EXISTS)
    Barcode: (OPTIONAL)
    Error Count: 0
    Comments:

[T:VOL] Actua Soccer 3
http://redump.org/disc/37730/
BGamer Portugal Extra: Sports 2004

    Contents:
Full Game:
Actua Soccer 3

Version and Editions:
    Version: (REQUIRED, IF EXISTS)
    Edition/Release: (VERIFY THIS) Original

Extras:
    Primary Volume Descriptor (PVD):

0320 : 20 20 20 20 20 20 20 20  20 20 20 20 20 32 30 30                200
0330 : 34 30 32 32 35 31 37 32  32 30 30 30 30 00 32 30   4022517220000.20
0340 : 30 34 30 32 32 35 31 37  32 32 30 30 30 30 00 30   04022517220000.0
0350 : 30 30 30 30 30 30 30 30  30 30 30 30 30 30 30 00   000000000000000.
0360 : 30 30 30 30 30 30 30 30  30 30 30 30 30 30 30 30   0000000000000000
0370 : 00 01 00 00 00 00 00 00  00 00 00 00 00 00 00 00   ................

Copy Protection:
    Copy Protection: None found

Tracks and Write Offsets:
    DAT:

<rom name="PC - BGamer Actua Soccer.bin" size="788529168" crc="89f5ea08" md5="3c00461470ab75aa3fe4a9ab3dd23ed1" sha1="b0447889917ec22456a1a36928359ef860ab7e20" />

    Cuesheet:

FILE "PC - BGamer Actua Soccer.bin" BINARY
  TRACK 01 MODE1/2352
    INDEX 01 00:00:00

    Write Offset: -12

6

(2 replies, posted in Guests & account requests)

Hi

have here some update to ops2m and will have xbox magazine updates to do.

Thanks