1

(3,100 replies, posted in General discussion)

baronluigi wrote:

Hi. I have downloaded the last version of MPF (which has DIC included), installed the last version of Frameworks and C++ distribution, however the program won´t start. I am using Windows 10.


https://i.imgur.com/Afc0UFp.png

What else can I do?

First I would make sure no file is corrupted for me, I have: Version 2.1-7f4921a4 make sure the hashes for the files you have match these:

PS G:\Application\MPF\net48\Programs\Creator> Get-FileHash -a md5 ./*.exe

Algorithm       Hash                                                                   Path
---------       ----                                                                   ----
MD5             3B40252DCCB2DFBFB357DD76B9A53FDD                                       G:\Application\MPF\net48\Programs\Creator\DiscImageCreator.exe
MD5             AC0C1E7422DDA2EC12765E2D905A59E1                                       G:\Application\MPF\net48\Programs\Creator\DVDAuth.exe
MD5             E9EE2C1E59C498501A93D11A43C49B27                                       G:\Application\MPF\net48\Programs\Creator\E_WISE_W.EXE
MD5             ECA778DCAC7B3213AE4AF676E8EC4EA3                                       G:\Application\MPF\net48\Programs\Creator\EccEdc.exe
MD5             EF3D3C21753D3326FE97FB6B7939FCF5                                       G:\Application\MPF\net48\Programs\Creator\i6comp.exe
MD5             6F420F6897C615E1DD66C1A722611204                                       G:\Application\MPF\net48\Programs\Creator\unscrambler.exe

If something is different I would redownload the program: https://github.com/SabreTools/MPF/releases

  • If that doesn't work try another drive if you have another one lying around.

  • If you're using a IDE drive with a usb adapter you might want to try to hook it up to your pc another way like directly to a IDE slot or to a PCIe to IDE adapter. Same thing with a SATA drive if you're using a SATA to USB adapter try connecting it to your motherboard sata port instead.

  • Try another output directory not in the root of the drive, maybe something like "D:\ISO" don't put a backslash at the end of the directory. Notice in your screenshot there's two backslashes after D: in the final command (D:\\) maybe the program should accept it I'm not sure, but it's sure worth a try.

  • Make sure you're not running too high on system memory when you launch the program.

  • Any DVD drive should be fine for PS2 but still if you want to dump CD-ROM, GD-ROM or Xbox DVDs have a look at compatible drives: http://wiki.redump.org/index.php?title= … patibility

  • Try to dump your game using another method like ImgBurn just to make sure your drive is not to blame

  • Look at the windows event viewer there should be an Overview and summary page where you can check the latest error (in the last hour) maybe there's more info there.

Good luck!

http://redump.org/disc/19654/

Common Disc Info:
    Title: Sound Novel Machi
    Foreign Title (Non-latin): サウンドノベル街
    Disc Number / Letter: 2
    Disc Title: 10.13-10.15 Incl.
    System: Sega Saturn
    Media Type: CD-ROM
    Category: Games
    Region: Japan
    Languages: Japanese
    Disc Serial: T-34001G

    Ringcode Information:
        Data Side Mastering Code (laser branded/etched): T-34001GP-02069 1M1 C 7Z
        Data Side Mastering SID Code: IFPI L223
        Data Side Toolstamp or Mastering Code (engraved/stamped): (REQUIRED, IF EXISTS)
        Data Side Mould SID Code: IFPI 3926
        Data Side Additional Mould: (REQUIRED, IF EXISTS)
        Label Side Mould SID Code: (REQUIRED, IF EXISTS)
        Label Side Additional Mould:
    Barcode: 4 932345 975063
    Error Count: 0
    Comments: (OPTIONAL)
    Contents: (OPTIONAL)

Version and Editions:
    Version: (REQUIRED, IF EXISTS)
    Edition/Release: Original

Extras:
    Primary Volume Descriptor (PVD):

0320 : 20 20 20 20 20 20 20 20  20 20 20 20 20 31 39 39                199
0330 : 37 31 30 30 38 30 30 30  30 30 30 30 30 24 31 39   7100800000000$19
0340 : 39 37 31 32 31 32 31 30  32 31 32 36 30 30 14 30   97121210212600.0
0350 : 30 30 30 30 30 30 30 30  30 30 30 30 30 30 30 00   000000000000000.
0360 : 30 30 30 30 30 30 30 30  30 30 30 30 30 30 30 30   0000000000000000
0370 : 00 01 00 00 00 00 00 00  00 00 00 00 00 00 00 00   ................

    Header:

Tracks and Write Offsets:
    DAT:

<rom name="MACHI2 (Track 1).bin" size="630293664" crc="8672b34d" md5="fd4d98e66e83ed121e247b26b753b64b" sha1="417f4435505b9174535906d637943293eae8d618" />
<rom name="MACHI2 (Track 2).bin" size="3880800" crc="f335bd36" md5="b32d1caeebe83dd63ae9f586947adc84" sha1="85527e6c041beb4a7e29c346d5079ec2e6325edc" />

    Cuesheet:

CATALOG 0000000000000
FILE "MACHI2 (Track 1).bin" BINARY
  TRACK 01 MODE1/2352
    INDEX 01 00:00:00
FILE "MACHI2 (Track 2).bin" BINARY
  TRACK 02 AUDIO
    INDEX 00 00:00:00
    INDEX 01 00:02:00

    Write Offset: 0

Logs here:

https://1drv.ms/u/s!AjKL64V7BuN9myA1yU89aZtCWTfs

http://redump.org/disc/19653/

Common Disc Info:
    Title: Sound Novel Machi
    Foreign Title (Non-latin): サウンドノベル街
    Disc Number / Letter: 1
    Disc Title: 10.11-10.13 Incl.
    System: Sega Saturn
    Media Type: CD-ROM
    Category: Games
    Region: Japan
    Languages: Japanese
    Disc Serial: T-34001G

    Ringcode Information:
        Data Side Mastering Code (laser branded/etched): T-34001GP-02068 1M1 C 7Z
        Data Side Mastering SID Code: IFPI L223
        Data Side Toolstamp or Mastering Code (engraved/stamped): (REQUIRED, IF EXISTS)
        Data Side Mould SID Code: IFPI 3905
        Data Side Additional Mould: (REQUIRED, IF EXISTS)
        Label Side Mould SID Code: (REQUIRED, IF EXISTS)
        Label Side Additional Mould:
    Barcode: 4 932345 975063
    Error Count: 0
    Comments: (OPTIONAL)
    Contents: (OPTIONAL)

Version and Editions:
    Version: (REQUIRED, IF EXISTS)
    Edition/Release: Original

Extras:
    Primary Volume Descriptor (PVD):

0320 : 20 20 20 20 20 20 20 20  20 20 20 20 20 31 39 39                199
0330 : 37 31 30 30 38 30 30 30  30 30 30 30 30 24 31 39   7100800000000$19
0340 : 39 37 31 32 31 32 30 38  33 30 33 30 30 30 14 30   97121208303000.0
0350 : 30 30 30 30 30 30 30 30  30 30 30 30 30 30 30 00   000000000000000.
0360 : 30 30 30 30 30 30 30 30  30 30 30 30 30 30 30 30   0000000000000000
0370 : 00 01 00 00 00 00 00 00  00 00 00 00 00 00 00 00   ................

    Header:

Tracks and Write Offsets:
    DAT:

<rom name="MACHI1 (Track 1).bin" size="613309872" crc="02e13493" md5="9b1a7e02cbb77188b51449f5201212e8" sha1="0bb47aba55fd37127d547da9811d85c3c0a57d4c" />
<rom name="MACHI1 (Track 2).bin" size="3880800" crc="ea2afe21" md5="9e3c6c115caf94d6a9fb4c0e528745ec" sha1="bab86fcfa5d81bed29f2185973123d43abd9c01f" />

    Cuesheet:

CATALOG 0000000000000
FILE "MACHI1 (Track 1).bin" BINARY
  TRACK 01 MODE1/2352
    INDEX 01 00:00:00
FILE "MACHI1 (Track 2).bin" BINARY
  TRACK 02 AUDIO
    INDEX 00 00:00:00
    INDEX 01 00:02:00

    Write Offset: 0

Logs here:

https://1drv.ms/u/s!AjKL64V7BuN9mx5J-wdwTTkpfxyK

http://redump.org/disc/16968/

Common Disc Info:
    Title: D no Shokutaku
    Foreign Title (Non-latin): Dの食卓
    Disc Number / Letter: 2
    Disc Title: (OPTIONAL)
    System: Sega Saturn
    Media Type: CD-ROM
    Category: Games
    Region: Japan
    Languages: Japanese
    Disc Serial: T-8101G

    Ringcode Information:
        Data Side Mastering Code (laser branded/etched): T-8101GP-00408-P2K V
        Data Side Mastering SID Code: IFPI L237
        Data Side Toolstamp or Mastering Code (engraved/stamped): 13
        Data Side Mould SID Code: IFPI 4011
        Data Side Additional Mould: (REQUIRED, IF EXISTS)
        Label Side Mould SID Code: (REQUIRED, IF EXISTS)
        Label Side Additional Mould:
    Barcode: (OPTIONAL)
    Error Count: 0
    Comments: (OPTIONAL)
    Contents: (OPTIONAL)

Version and Editions:
    Version: (REQUIRED, IF EXISTS)
    Edition/Release: Original

Extras:
    Primary Volume Descriptor (PVD):

0320 : 20 20 20 20 20 20 20 20  20 20 20 20 20 31 39 39                199
0330 : 35 30 37 30 36 30 31 30  34 34 31 30 30 14 31 39   5070601044100.19
0340 : 39 35 30 37 30 36 30 31  30 34 34 31 30 30 14 30   95070601044100.0
0350 : 30 30 30 30 30 30 30 30  30 30 30 30 30 30 30 00   000000000000000.
0360 : 30 30 30 30 30 30 30 30  30 30 30 30 30 30 30 30   0000000000000000
0370 : 00 01 00 00 00 00 00 00  00 00 00 00 00 00 00 00   ................

    Header:

Tracks and Write Offsets:
    DAT:

<rom name="D (Track 1).bin" size="534200352" crc="27f308e0" md5="cb8a7087dbb9b765f4772d6b02ee9994" sha1="79e928d28038a56785757187a2161e4f48ba270e" />
<rom name="D (Track 2).bin" size="1764000" crc="82437320" md5="e03343a8c9f1853d8af2f154b67e2dac" sha1="8fd42dae3a71212cb64eb8eb2c7c4c8b037ebfbe" />

    Cuesheet:

CATALOG 0000000000000
FILE "D (Track 1).bin" BINARY
  TRACK 01 MODE1/2352
    INDEX 01 00:00:00
FILE "D (Track 2).bin" BINARY
  TRACK 02 AUDIO
    INDEX 00 00:00:00
    INDEX 01 00:02:00

    Write Offset: 390

Logs here:

https://1drv.ms/u/s!AjKL64V7BuN9mxwSOpIN6hRrLiKO

http://redump.org/disc/16967/

Common Disc Info:
    Title: D no Shokutaku
    Foreign Title (Non-latin): Dの食卓
    Disc Number / Letter: 1
    Disc Title: (OPTIONAL)
    System: Sega Saturn
    Media Type: CD-ROM
    Category: Games
    Region: Japan
    Languages: Japanese
    Disc Serial: T-8101G

    Ringcode Information:
        Data Side Mastering Code (laser branded/etched): T-8101GP-00407-P1K V
        Data Side Mastering SID Code: IFPI L237
        Data Side Toolstamp or Mastering Code (engraved/stamped): 12
        Data Side Mould SID Code:
        Data Side Additional Mould: (REQUIRED, IF EXISTS)
        Label Side Mould SID Code: (REQUIRED, IF EXISTS)
        Label Side Additional Mould:
    Barcode:
    Error Count: 0
    Comments: (OPTIONAL)
    Contents: (OPTIONAL)

Version and Editions:
    Version: (REQUIRED, IF EXISTS)
    Edition/Release: Original

Extras:
    Primary Volume Descriptor (PVD):

0320 : 20 20 20 20 20 20 20 20  20 20 20 20 20 31 39 39                199
0330 : 35 30 37 30 36 30 30 32  39 33 38 30 30 14 31 39   5070600293800.19
0340 : 39 35 30 37 30 36 30 30  32 39 33 38 30 30 14 30   95070600293800.0
0350 : 30 30 30 30 30 30 30 30  30 30 30 30 30 30 30 00   000000000000000.
0360 : 30 30 30 30 30 30 30 30  30 30 30 30 30 30 30 30   0000000000000000
0370 : 00 01 00 00 00 00 00 00  00 00 00 00 00 00 00 00   ................

    Header:

Tracks and Write Offsets:
    DAT:

<rom name="D (Track 1).bin" size="563064096" crc="dd6522fa" md5="8ebabf2b1cd866eec3b9538b5b748df5" sha1="ac553a14fb16ab6ad173f946c9b92752c751b56e" />
<rom name="D (Track 2).bin" size="1764000" crc="82437320" md5="e03343a8c9f1853d8af2f154b67e2dac" sha1="8fd42dae3a71212cb64eb8eb2c7c4c8b037ebfbe" />

    Cuesheet:

CATALOG 0000000000000
FILE "D (Track 1).bin" BINARY
  TRACK 01 MODE1/2352
    INDEX 01 00:00:00
FILE "D (Track 2).bin" BINARY
  TRACK 02 AUDIO
    INDEX 00 00:00:00
    INDEX 01 00:02:00

    Write Offset: 390

Logs here:

https://1drv.ms/u/s!AjKL64V7BuN9mxqAusCaqCUhYxmM

http://redump.org/disc/35609/

Common Disc Info:
    Title: Tokimeki Memorial: Forever with You
    Foreign Title (Non-latin): ときめきメモリアル-foreverwithyou-
    Disc Number / Letter: (OPTIONAL)
    Disc Title: (OPTIONAL)
    System: Sega Saturn
    Media Type: CD-ROM
    Category: Games
    Region: Japan
    Languages: Japanese
    Disc Serial: T-9504G

    Ringcode Information:
        Data Side Mastering Code (laser branded/etched): T-9504GP-00892 2MB3 C 66
        Data Side Mastering SID Code: IFPI L223
        Data Side Toolstamp or Mastering Code (engraved/stamped): (REQUIRED, IF EXISTS)
        Data Side Mould SID Code: IFPI 3907
        Data Side Additional Mould: (REQUIRED, IF EXISTS)
        Label Side Mould SID Code: (REQUIRED, IF EXISTS)
        Label Side Additional Mould:
    Barcode: T4988602010503 (on cd pouch) T4988602026559 (On the special-ban binder case)
    Error Count: 0
    Comments: JASRAC ID: 962046
    Contents: (OPTIONAL)

Version and Editions:
    Version: (REQUIRED, IF EXISTS)
    Edition/Release: Special-ban

Extras:
    Primary Volume Descriptor (PVD):

0320 : 20 20 20 20 20 20 20 20  20 20 20 20 20 31 39 39                199
0330 : 36 30 36 30 35 30 30 30  30 30 30 30 30 00 31 39   6060500000000.19
0340 : 39 36 30 36 30 35 31 36  33 38 33 39 30 30 DC 30   96060516383900.0
0350 : 30 30 30 30 30 30 30 30  30 30 30 30 30 30 30 00   000000000000000.
0360 : 30 30 30 30 30 30 30 30  30 30 30 30 30 30 30 30   0000000000000000
0370 : 00 01 00 00 00 00 00 00  00 00 00 00 00 00 00 00   ................

    Header:

Tracks and Write Offsets:
    DAT:

<rom name="TOKIMEKI_MEMORIARU_FOREVER_WITH_ (Track 1).bin" size="239685264" crc="22e2ae16" md5="2f6943d792d80e780ab37273ec1a96ae" sha1="1cd7310334d324b14a64757f29f6e06c23501a60" />
<rom name="TOKIMEKI_MEMORIARU_FOREVER_WITH_ (Track 2).bin" size="358080240" crc="0550bb8f" md5="c52e5d8f522043ff91cc61aadfe91d97" sha1="574ad3542ad5b1c894f2f037af06f31e4d272add" />
<rom name="TOKIMEKI_MEMORIARU_FOREVER_WITH_ (Track 3).bin" size="43048656" crc="272270be" md5="f45e71c8ee15ed6813670dd10c8de434" sha1="584e4db70716d5d7c5b5ea0ccf4fb2a272a61285" />

    Cuesheet:

CATALOG 0000000000000
FILE "TOKIMEKI_MEMORIARU_FOREVER_WITH_ (Track 1).bin" BINARY
  TRACK 01 MODE1/2352
    INDEX 01 00:00:00
FILE "TOKIMEKI_MEMORIARU_FOREVER_WITH_ (Track 2).bin" BINARY
  TRACK 02 MODE2/2352
    INDEX 00 00:00:00
    INDEX 01 00:03:00
FILE "TOKIMEKI_MEMORIARU_FOREVER_WITH_ (Track 3).bin" BINARY
  TRACK 03 AUDIO
    INDEX 00 00:00:00
    INDEX 01 00:02:00

    Write Offset: 0

Logs here:

https://1drv.ms/u/s!AjKL64V7BuN9mxgdAYbqIt6MFZIs

http://redump.org/disc/23002/

Common Disc Info:
    Title: Sega Saturn de Hakken!! Tamagotchi Park
    Foreign Title (Non-latin): セガサターンで発見!!たまごっちパーク
    Disc Number / Letter: (OPTIONAL)
    Disc Title: (OPTIONAL)
    System: Sega Saturn
    Media Type: CD-ROM
    Category: Games
    Region: Japan
    Languages: Japanese
    Disc Serial: T-13325G

    Ringcode Information:
        Data Side Mastering Code (laser branded/etched): T-13325GP-02067-P1K V
        Data Side Mastering SID Code: IFPI L237
        Data Side Toolstamp or Mastering Code (engraved/stamped): (REQUIRED, IF EXISTS)
        Data Side Mould SID Code: IFPI 4011
        Data Side Additional Mould: (REQUIRED, IF EXISTS)
        Label Side Mould SID Code: (REQUIRED, IF EXISTS)
        Label Side Additional Mould:
    Barcode: 4902425 59854 3
    Error Count: 0
    Comments: Bundled with a Sega Saturn Power Memory pack.
    Contents: (OPTIONAL)

Version and Editions:
    Version: (REQUIRED, IF EXISTS)
    Edition/Release: Original

Extras:
    Primary Volume Descriptor (PVD):

0320 : 20 20 20 20 20 20 20 20  20 20 20 20 20 31 39 39                199
0330 : 37 31 32 30 35 30 31 30  31 30 31 30 31 01 31 39   7120501010101.19
0340 : 39 37 31 32 30 35 30 31  30 31 30 31 30 31 01 30   97120501010101.0
0350 : 30 30 30 30 30 30 30 30  30 30 30 30 30 30 30 00   000000000000000.
0360 : 30 30 30 30 30 30 30 30  30 30 30 30 30 30 30 30   0000000000000000
0370 : 00 01 00 00 00 00 00 00  00 00 00 00 00 00 00 00   ................

    Header:

Tracks and Write Offsets:
    DAT:

<rom name="TAMAGOCHII_PARK (Track 1).bin" size="7815696" crc="3feb672e" md5="2917c4e1bef7ce849d396b43c8783a8f" sha1="0d9244f0a62fb4c7b51f6cfc06fec7f8841aad05" />
<rom name="TAMAGOCHII_PARK (Track 2).bin" size="1764000" crc="82437320" md5="e03343a8c9f1853d8af2f154b67e2dac" sha1="8fd42dae3a71212cb64eb8eb2c7c4c8b037ebfbe" />

    Cuesheet:

CATALOG 0000000000000
FILE "TAMAGOCHII_PARK (Track 1).bin" BINARY
  TRACK 01 MODE1/2352
    INDEX 01 00:00:00
FILE "TAMAGOCHII_PARK (Track 2).bin" BINARY
  TRACK 02 AUDIO
    INDEX 00 00:00:00
    INDEX 01 00:02:00

    Write Offset: 390

Logs attached

8

(0 replies, posted in Verifications)

http://redump.org/disc/2639/

Common Disc Info:
    Title: Panzer Dragoon II Zwei
    Foreign Title (Non-latin): パンツァー・ドラグーン・ツヴァイ
    Disc Number / Letter: (OPTIONAL)
    Disc Title: (OPTIONAL)
    System: Sega Saturn
    Media Type: CD-ROM
    Category: Games
    Region: Japan
    Languages: Japanese
    Disc Serial: GS-9049

    Ringcode Information:
        Data Side Mastering Code (laser branded/etched): GS-9049P-00760-P5K V
        Data Side Mastering SID Code: IFPI L237
        Data Side Toolstamp or Mastering Code (engraved/stamped): 21
        Data Side Mould SID Code: IFPI 4011
        Data Side Additional Mould: (REQUIRED, IF EXISTS)
        Label Side Mould SID Code: (REQUIRED, IF EXISTS)
        Label Side Additional Mould:
    Barcode: 4 974365 090494
    Error Count: 0
    Comments: (OPTIONAL)
    Contents: (OPTIONAL)

Version and Editions:
    Version: (REQUIRED, IF EXISTS)
    Edition/Release: Original

Extras:
    Primary Volume Descriptor (PVD):

0320 : 20 20 20 20 20 20 20 20  20 20 20 20 20 31 39 39                199
0330 : 36 30 33 32 32 30 30 30  30 30 30 30 30 00 31 39   6032200000000.19
0340 : 39 36 30 33 32 32 30 30  30 30 30 30 30 30 00 30   96032200000000.0
0350 : 30 30 30 30 30 30 30 30  30 30 30 30 30 30 30 00   000000000000000.
0360 : 30 30 30 30 30 30 30 30  30 30 30 30 30 30 30 30   0000000000000000
0370 : 00 01 00 00 00 00 00 00  00 00 00 00 00 00 00 00   ................

    Header:

Tracks and Write Offsets:
    DAT:

<rom name="PANZER_DRAGOON_ZWEI (Track 1).bin" size="428906016" crc="4e901617" md5="ce06c819d8f3575b315ae041838c8a03" sha1="efe2ca536ca63a3877ffaa0b909aace282ec0a9c" />
<rom name="PANZER_DRAGOON_ZWEI (Track 2).bin" size="9560880" crc="86e6ca69" md5="1000adbe52722928f73a1c474bdead1e" sha1="05321078a99bb91e96bd335ff1bb88b1e5f2c8a1" />
<rom name="PANZER_DRAGOON_ZWEI (Track 3).bin" size="5997600" crc="c2e97b34" md5="9710d063b64cdf0b7a35032219a41b4b" sha1="4a6f2b5cf1718436139f6eaac33f7c789db87fa6" />
<rom name="PANZER_DRAGOON_ZWEI (Track 4).bin" size="30844128" crc="5c6da07a" md5="9df0838007fb6b98881ccd0796f67be5" sha1="11ed9ae7b74cdfc3db7d38d04a156760d468f5b5" />

    Cuesheet:

CATALOG 0000000000000
FILE "PANZER_DRAGOON_ZWEI (Track 1).bin" BINARY
  TRACK 01 MODE1/2352
    INDEX 01 00:00:00
FILE "PANZER_DRAGOON_ZWEI (Track 2).bin" BINARY
  TRACK 02 AUDIO
    INDEX 00 00:00:00
    INDEX 01 00:02:00
FILE "PANZER_DRAGOON_ZWEI (Track 3).bin" BINARY
  TRACK 03 AUDIO
    INDEX 00 00:00:00
    INDEX 01 00:01:74
FILE "PANZER_DRAGOON_ZWEI (Track 4).bin" BINARY
  TRACK 04 AUDIO
    INDEX 00 00:00:00
    INDEX 01 00:01:74

    Write Offset: 684

Logs here:

https://1drv.ms/u/s!AjKL64V7BuN9mxb-aaNxNaeXyzaq

9

(0 replies, posted in Verifications)

http://redump.org/disc/25184/

Common Disc Info:
    Title: Panzer Dragoon
    Foreign Title (Non-latin): パンツァー・ドラグーン
    Disc Number / Letter: (OPTIONAL)
    Disc Title: (OPTIONAL)
    System: Sega Saturn
    Media Type: CD-ROM
    Category: Games
    Region: Japan
    Languages: Japanese
    Disc Serial: GS-9015

    Ringcode Information:
        Data Side Mastering Code (laser branded/etched): GS-9015P-00298 4A2 C 52
        Data Side Mastering SID Code: IFPI L223
        Data Side Toolstamp or Mastering Code (engraved/stamped): (REQUIRED, IF EXISTS)
        Data Side Mould SID Code: IFPI 3905
        Data Side Additional Mould: (REQUIRED, IF EXISTS)
        Label Side Mould SID Code: (REQUIRED, IF EXISTS)
        Label Side Additional Mould:
    Barcode: 4 974365 090159
    Error Count: 0
    Comments: (OPTIONAL)
    Contents: (OPTIONAL)

Version and Editions:
    Version: (REQUIRED, IF EXISTS)
    Edition/Release: Original

Extras:
    Primary Volume Descriptor (PVD):

0320 : 20 20 20 20 20 20 20 20  20 20 20 20 20 31 39 39                199
0330 : 35 30 33 31 30 30 30 30  30 30 31 30 30 14 31 39   5031000000100.19
0340 : 39 35 30 33 31 30 30 30  30 30 30 31 30 30 14 30   95031000000100.0
0350 : 30 30 30 30 30 30 30 30  30 30 30 30 30 30 30 00   000000000000000.
0360 : 30 30 30 30 30 30 30 30  30 30 30 30 30 30 30 30   0000000000000000
0370 : 00 01 00 00 00 00 00 00  00 00 00 00 00 00 00 00   ................

    Header:

Tracks and Write Offsets:
    DAT:

<rom name="PanzerDragoon (Track 01).bin" size="256278624" crc="bdc4cff8" md5="b4b35400bb956837fa3301cd4faf68dc" sha1="62704a420aad185e27df23c8df924cdde7b17f14" />
<rom name="PanzerDragoon (Track 02).bin" size="33588912" crc="bbe22e7d" md5="5987ff612fc1100d242fa141fd10a14e" sha1="01add2e076f442563d42048eb206497603b7aca6" />
<rom name="PanzerDragoon (Track 03).bin" size="36194928" crc="0c52abb7" md5="df064a19a7ac8eff7ab2d63914ddec5b" sha1="794dfb5962184e09ae4e1ea6996dadb5c0fd3858" />
<rom name="PanzerDragoon (Track 04).bin" size="12891312" crc="acb4d723" md5="0e983bd11969118d219ce5e62d8d6209" sha1="ab1b3cb3c1ccd0e5738bf5a9b5c0d6002e58e2f5" />
<rom name="PanzerDragoon (Track 05).bin" size="42688800" crc="fcf133e7" md5="1d39e6a3c09bcdf775255e59e36a6c48" sha1="a31be6db95970664a1c90f161fa47425151a2e95" />
<rom name="PanzerDragoon (Track 06).bin" size="17343648" crc="3ffa5053" md5="29293d5ed5474b7caec240e66cb427c1" sha1="4aaf358e069eb8c905342dcc64ecc665b6f494fb" />
<rom name="PanzerDragoon (Track 07).bin" size="41103552" crc="be621e56" md5="9df9caf0d8008403e020a605babab330" sha1="34216fc3dd6b226937f2304b3556bb1319ed319c" />
<rom name="PanzerDragoon (Track 08).bin" size="36503040" crc="3e32c8f2" md5="e165661904f2c1251212f8803687b124" sha1="b658fd1f29a38b54346e16575cbbf0b20535b019" />
<rom name="PanzerDragoon (Track 09).bin" size="13269984" crc="27b638d2" md5="4107bc7ccc16fac46883daa7d50dcec7" sha1="8cabbb8809fc32b49faee7c5dc64d8baae9b1f03" />
<rom name="PanzerDragoon (Track 10).bin" size="37396800" crc="b099d97b" md5="d691dd3e4b39652af2b8f6272affc098" sha1="0bfcd4ddccaf9fbbf4ee60acd7e35d2a3c991fd7" />
<rom name="PanzerDragoon (Track 11).bin" size="11082624" crc="d84e3805" md5="93e9cb5d4a6f7cc452fb3f92a9960c0b" sha1="d00c7465180fab47b50a8689126f834dce7b3c06" />
<rom name="PanzerDragoon (Track 12).bin" size="40143936" crc="1b05748c" md5="cee56845e200ce9cb4eee7dd39d30c46" sha1="2816ad764e548cacae0c79316cbb269abe6dfe63" />
<rom name="PanzerDragoon (Track 13).bin" size="5115600" crc="66cb46d7" md5="2c051557706719d577e941c1956c6207" sha1="4bcf314d0ee38ea2d1f0e24d762048906bd1aa0c" />
<rom name="PanzerDragoon (Track 14).bin" size="32424672" crc="dcc39e8d" md5="249adbddfcfeb5de06c2d0bb309fcc38" sha1="430d8fe59c4be81d43dc26f76381082554cc33d0" />
<rom name="PanzerDragoon (Track 15).bin" size="29378832" crc="dad9a3c2" md5="e2bc918a182b84895444cb485674e992" sha1="ec720d86b6cf5ad4a290ee4edd82c4ffb48ec407" />
<rom name="PanzerDragoon (Track 16).bin" size="3001152" crc="d0a939ee" md5="2b2b381ca8b26d072828702102a93b9d" sha1="6a01bcc8d6124578d415002342471072b5fde547" />

    Cuesheet:

CATALOG 0000000000000
FILE "PanzerDragoon (Track 01).bin" BINARY
  TRACK 01 MODE1/2352
    INDEX 01 00:00:00
FILE "PanzerDragoon (Track 02).bin" BINARY
  TRACK 02 AUDIO
    INDEX 00 00:00:00
    INDEX 01 00:02:01
FILE "PanzerDragoon (Track 03).bin" BINARY
  TRACK 03 AUDIO
    INDEX 00 00:00:00
    INDEX 01 00:02:00
FILE "PanzerDragoon (Track 04).bin" BINARY
  TRACK 04 AUDIO
    INDEX 00 00:00:00
    INDEX 01 00:02:00
FILE "PanzerDragoon (Track 05).bin" BINARY
  TRACK 05 AUDIO
    INDEX 00 00:00:00
    INDEX 01 00:02:00
FILE "PanzerDragoon (Track 06).bin" BINARY
  TRACK 06 AUDIO
    INDEX 00 00:00:00
    INDEX 01 00:02:00
FILE "PanzerDragoon (Track 07).bin" BINARY
  TRACK 07 AUDIO
    INDEX 00 00:00:00
    INDEX 01 00:02:00
FILE "PanzerDragoon (Track 08).bin" BINARY
  TRACK 08 AUDIO
    INDEX 00 00:00:00
    INDEX 01 00:02:00
FILE "PanzerDragoon (Track 09).bin" BINARY
  TRACK 09 AUDIO
    INDEX 00 00:00:00
    INDEX 01 00:02:00
FILE "PanzerDragoon (Track 10).bin" BINARY
  TRACK 10 AUDIO
    INDEX 00 00:00:00
    INDEX 01 00:02:00
FILE "PanzerDragoon (Track 11).bin" BINARY
  TRACK 11 AUDIO
    INDEX 00 00:00:00
    INDEX 01 00:02:00
FILE "PanzerDragoon (Track 12).bin" BINARY
  TRACK 12 AUDIO
    INDEX 00 00:00:00
    INDEX 01 00:02:00
FILE "PanzerDragoon (Track 13).bin" BINARY
  TRACK 13 AUDIO
    INDEX 00 00:00:00
    INDEX 01 00:02:00
FILE "PanzerDragoon (Track 14).bin" BINARY
  TRACK 14 AUDIO
    INDEX 00 00:00:00
    INDEX 01 00:02:00
FILE "PanzerDragoon (Track 15).bin" BINARY
  TRACK 15 AUDIO
    INDEX 00 00:00:00
    INDEX 01 00:02:00
FILE "PanzerDragoon (Track 16).bin" BINARY
  TRACK 16 AUDIO
    INDEX 00 00:00:00
    INDEX 01 00:02:00

    Write Offset: 222

Logs here:

https://1drv.ms/u/s!AjKL64V7BuN9mxSVtu0sFaDXxJN7

http://redump.org/disc/5905/

Common Disc Info:
    Title: Shenmue: Ichishou Yokosuka (Shenmue Passport)
    Foreign Title (Non-latin): シェンムー 一章 横須賀 (シェンムーパスポート)
    Disc Number / Letter: (OPTIONAL)
    Disc Title: Shenmue Passport
    System: Sega Dreamcast
    Media Type: GD-ROM
    Category: Games
    Region: Japan
    Languages: Japanese
    Disc Serial: HDR-0016

    Ringcode Information:
        Data Side Mastering Code (laser branded/etched): <HDR-0016-0270D>HJC07C
        Data Side Mastering SID Code: IFPI L463
        Data Side Toolstamp or Mastering Code (engraved/stamped): (REQUIRED, IF EXISTS)
        Data Side Mould SID Code: IFPI 7836
        Data Side Additional Mould: (REQUIRED, IF EXISTS)
        Label Side Mould SID Code: (REQUIRED, IF EXISTS)
        Label Side Additional Mould:
    Barcode: (OPTIONAL)
    EXE/Build Date: (REQUIRED)
    Error Count: 0
    Comments: (OPTIONAL)
    Contents: (OPTIONAL)

Version and Editions:
    Version: (REQUIRED, IF EXISTS)
    Edition/Release: Original

Extras:
    Primary Volume Descriptor (PVD):

0320 : 20 20 20 20 20 20 20 20  20 20 20 20 20 31 39 39                199
0330 : 39 31 32 30 35 31 35 32  31 30 39 30 30 24 31 39   9120515210900$19
0340 : 39 39 31 32 30 35 31 35  32 31 30 39 30 30 24 30   99120515210900$0
0350 : 30 30 30 30 30 30 30 30  30 30 30 30 30 30 30 00   000000000000000.
0360 : 30 30 30 30 30 30 30 30  30 30 30 30 30 30 30 30   0000000000000000
0370 : 00 01 00 00 00 00 00 00  00 00 00 00 00 00 00 00   ................

    Header:

Tracks and Write Offsets:
    DAT:

<rom name="SHENMUE_DISC4 (Track 1).bin" size="705600" crc="46a80589" md5="51dadc55daba840454bf8f1b651c512d" sha1="5145fb763f448fd5cfb4e86c6005e7d4f1e077f7" />
<rom name="SHENMUE_DISC4 (Track 2).bin" size="1898064" crc="cfbe87ad" md5="97cfd642de2d4993497f794e1f83a6b9" sha1="dc0ef9fdef60da8713eff4554ad9421ee7b9e232" />

    Cuesheet:

FILE "SHENMUE_DISC4 (Track 1).bin" BINARY
  TRACK 01 MODE1/2352
    INDEX 01 00:00:00
FILE "SHENMUE_DISC4 (Track 2).bin" BINARY
  TRACK 02 AUDIO
    INDEX 00 00:00:00
    INDEX 01 00:02:00

    Write Offset: 24

HD Area Hashes

Track03.bin
MD5: 72825964772C0D419F98178564C5CFBD
SHA1: 6822270148ED8537AF0411808BC007E22DC8B984
CRC32: 53853329

Track04.bin
MD5: 92F4B008FB82C9CD5C8B10B02A540B96
SHA1: E78B8FF0B774ACF3A2810D54A4A5CBD3A344E416
CRC32: C26F35DC

Track05.bin
MD5: 422608ACCC797426E9B1A750D135B1D8
SHA1: 03A7A915C9499A33DF2F9DA2029D3D651510677F
CRC32: 1921CEB4

Track06.bin
MD5: 886EF9F9532BA942EBB369DF3784090C
SHA1: ED782A0BC35F3F7F83AD7A54BB8D7FC83EC4668A
CRC32: 6DD8F55F

Track07.bin
MD5: F355BF7390B7E07A760C695D8AD47263
SHA1: 27A98620B49E9D2737F7142B932FE9DA0EFC78BB
CRC32: 9802C4E5

HD info in attached logs:

http://redump.org/disc/5904/

Common Disc Info:
    Title: Shenmue: Ichishou Yokosuka (Disc 3)
    Foreign Title (Non-latin): シェンムー 一章 横須賀
    Disc Number / Letter: 3
    Disc Title: (OPTIONAL)
    System: Sega Dreamcast
    Media Type: CD-ROM
    Category: Games
    Region: Japan
    Languages: Japanese
    Disc Serial: HDR-0016

    Ringcode Information:
        Data Side Mastering Code (laser branded/etched): <HDR-0016-0269>HJB26C
        Data Side Mastering SID Code: IFPI L463
        Data Side Toolstamp or Mastering Code (engraved/stamped): (REQUIRED, IF EXISTS)
        Data Side Mould SID Code: IFPI 7832
        Data Side Additional Mould: (REQUIRED, IF EXISTS)
        Label Side Mould SID Code: (REQUIRED, IF EXISTS)
        Label Side Additional Mould:
    Barcode: (OPTIONAL)
    EXE/Build Date: (REQUIRED)
    Error Count: 0
    Comments: (OPTIONAL)
    Contents: (OPTIONAL)

Version and Editions:
    Version: (REQUIRED, IF EXISTS)
    Edition/Release: Original

Extras:
    Primary Volume Descriptor (PVD):

0320 : 20 20 20 20 20 20 20 20  20 20 20 20 20 31 39 39                199
0330 : 39 31 31 32 32 31 31 33  33 32 31 30 30 24 31 39   9112211332100$19
0340 : 39 39 31 31 32 32 31 31  33 33 32 31 30 30 24 30   99112211332100$0
0350 : 30 30 30 30 30 30 30 30  30 30 30 30 30 30 30 00   000000000000000.
0360 : 30 30 30 30 30 30 30 30  30 30 30 30 30 30 30 30   0000000000000000
0370 : 00 01 00 00 00 00 00 00  00 00 00 00 00 00 00 00   ................

    Header:

Tracks and Write Offsets:
    DAT:

<rom name="SHENMUE_DISC3 (Track 1).bin" size="37300368" crc="fce3c2cd" md5="c7f5088b8a4d0ea82bdedd23fecadf23" sha1="7b03c037901621dedfca01f509446604e3a54e8c" />
<rom name="SHENMUE_DISC3 (Track 2).bin" size="3027024" crc="ed73d73c" md5="0d8b551d17c66d5da5871ff6aa04507e" sha1="64c1a8fdcaab60be08a736e5a35a8d129583c4ef" />

    Cuesheet:

FILE "SHENMUE_DISC3 (Track 1).bin" BINARY
  TRACK 01 MODE1/2352
    INDEX 01 00:00:00
FILE "SHENMUE_DISC3 (Track 2).bin" BINARY
  TRACK 02 AUDIO
    INDEX 00 00:00:00
    INDEX 01 00:02:00

    Write Offset: 24

HD Area Hashes

Track03.bin
MD5: E7E7BA71B511AEF26F621022C7D3923B
SHA1: 04EA563135CDD360742CD10BFB1E5660604FE04D
CRC32: DC01CD75

Track04.bin
MD5: 92F4B008FB82C9CD5C8B10B02A540B96
SHA1: E78B8FF0B774ACF3A2810D54A4A5CBD3A344E416
CRC32: C26F35DC

Track05.bin
MD5: 422608ACCC797426E9B1A750D135B1D8
SHA1: 03A7A915C9499A33DF2F9DA2029D3D651510677F
CRC32: 1921CEB4

Track06.bin
MD5: 7EAE27AE6D5F0E6BB284D323099BC687
SHA1: 097459D54BA988269D5D9149DE5DBE193BC2727B
CRC32: E998585B

HD info in attached logs:

http://redump.org/disc/5903/

Common Disc Info:
    Title: Shenmue: Ichishou Yokosuka (Disc 2)
    Foreign Title (Non-latin): シェンムー 一章 横須賀
    Disc Number / Letter: 2
    Disc Title: (OPTIONAL)
    System: Sega Dreamcast
    Media Type: GD-ROM
    Category: Games
    Region: Japan
    Languages: Japanese
    Disc Serial: HDR-0016

    Ringcode Information:
        Data Side Mastering Code (laser branded/etched): <HDR-0016-0268>HJC02H
        Data Side Mastering SID Code: IFPI L463
        Data Side Toolstamp or Mastering Code (engraved/stamped): (REQUIRED, IF EXISTS)
        Data Side Mould SID Code: IFPI 7839
        Data Side Additional Mould: (REQUIRED, IF EXISTS)
        Label Side Mould SID Code: (REQUIRED, IF EXISTS)
        Label Side Additional Mould:
    Barcode: (OPTIONAL)
    EXE/Build Date: (REQUIRED)
    Error Count: 0
    Comments: (OPTIONAL)
    Contents: (OPTIONAL)

Version and Editions:
    Version: (REQUIRED, IF EXISTS)
    Edition/Release: Original

Extras:
    Primary Volume Descriptor (PVD):

0320 : 20 20 20 20 20 20 20 20  20 20 20 20 20 31 39 39                199
0330 : 39 31 31 32 32 31 31 34  36 30 31 30 30 24 31 39   9112211460100$19
0340 : 39 39 31 31 32 32 31 31  34 36 30 31 30 30 24 30   99112211460100$0
0350 : 30 30 30 30 30 30 30 30  30 30 30 30 30 30 30 00   000000000000000.
0360 : 30 30 30 30 30 30 30 30  30 30 30 30 30 30 30 30   0000000000000000
0370 : 00 01 00 00 00 00 00 00  00 00 00 00 00 00 00 00   ................

    Header:

Tracks and Write Offsets:
    DAT:

<rom name="SHENMUE_DISC2 (Track 1).bin" size="37269792" crc="8180792c" md5="c61ee86f239db7bac73f4366d3a834ef" sha1="0e6d8140349a885757b1797fba44db669607da64" />
<rom name="SHENMUE_DISC2 (Track 2).bin" size="2996448" crc="de8eeddb" md5="43764f430182bbfa7c1e50160b6f2021" sha1="59e49aa622493d1454b585d55026ba4e1b951f12" />

    Cuesheet:

FILE "SHENMUE_DISC2 (Track 1).bin" BINARY
  TRACK 01 MODE1/2352
    INDEX 01 00:00:00
FILE "SHENMUE_DISC2 (Track 2).bin" BINARY
  TRACK 02 AUDIO
    INDEX 00 00:00:00
    INDEX 01 00:02:00

    Write Offset: 24

HD Area Hashes:

Track03.bin
MD5: 9C30D580E4F24C43BBCDD861530B4161
SHA1: C1EAE4D10348104B7A371F951F198C26570DFD21
CRC32: 30DE60EC

Track04.bin
MD5: 92F4B008FB82C9CD5C8B10B02A540B96
SHA1: E78B8FF0B774ACF3A2810D54A4A5CBD3A344E416
CRC32: C26F35DC

Track05.bin
MD5: 886EF9F9532BA942EBB369DF3784090C
SHA1: ED782A0BC35F3F7F83AD7A54BB8D7FC83EC4668A
CRC32: 6DD8F55F

Track06.bin
MD5: BA682C6C2A2DC370F8BDEAA4F7EA4229
SHA1: BFDBEE2FC1F43E7B7E933804A9AD1D5BA9AEBDFF
CRC32: DCF444C6

HD info in attached logs

http://redump.org/disc/5902/

Common Disc Info:
    Title: Shenmu isshou yokosuga
    Foreign Title (Non-latin): シェンムー・一章・横須賀
    Disc Number / Letter: 1
    Disc Title: (OPTIONAL)
    System: Sega Dreamcast
    Media Type: GD-ROM
    Category: Games
    Region: Japan
    Languages: Japanese
    Disc Serial: HDR-0016

    Ringcode Information:
        Data Side Mastering Code (laser branded/etched): <HDR-0016-0267>HTB29A
        Data Side Mastering SID Code: IFPI L463
        Data Side Toolstamp or Mastering Code (engraved/stamped): (REQUIRED, IF EXISTS)
        Data Side Mould SID Code: IFPI 7838
        Data Side Additional Mould: (REQUIRED, IF EXISTS)
        Label Side Mould SID Code: (REQUIRED, IF EXISTS)
        Label Side Additional Mould:
    Barcode: (OPTIONAL)
    EXE/Build Date: (REQUIRED)
    Error Count: 0
    Comments: (OPTIONAL)
    Contents: (OPTIONAL)

Version and Editions:
    Version: (REQUIRED, IF EXISTS)
    Edition/Release: Original

Extras:
    Primary Volume Descriptor (PVD):

0320 : 20 20 20 20 20 20 20 20  20 20 20 20 20 31 39 39                199
0330 : 39 31 31 32 32 31 31 31  35 32 30 30 30 24 31 39   9112211152000$19
0340 : 39 39 31 31 32 32 31 31  31 35 32 30 30 30 24 30   99112211152000$0
0350 : 30 30 30 30 30 30 30 30  30 30 30 30 30 30 30 00   000000000000000.
0360 : 30 30 30 30 30 30 30 30  30 30 30 30 30 30 30 30   0000000000000000
0370 : 00 01 00 00 00 00 00 00  00 00 00 00 00 00 00 00   ................

    Header:

Tracks and Write Offsets:
    DAT:

<rom name="SHENMUE_DISC1 (Track 1).bin" size="24402000" crc="065ad246" md5="f6543c78c44a26bb133f68acf10291dc" sha1="4dd8b454abfc97ff0d2278035dbfdc0f9a8deee3" />
<rom name="SHENMUE_DISC1 (Track 2).bin" size="1860432" crc="9205ddad" md5="fdbf39ae9961f08dbb3ea96338d79879" sha1="70bda45f052e8718078f9cc0f76301f65103d4bf" />

    Cuesheet:

FILE "SHENMUE_DISC1 (Track 1).bin" BINARY
  TRACK 01 MODE1/2352
    INDEX 01 00:00:00
FILE "SHENMUE_DISC1 (Track 2).bin" BINARY
  TRACK 02 AUDIO
    INDEX 00 00:00:00
    INDEX 01 00:02:00

    Write Offset: 24

HD Area hashes

Track03.bin
MD5: 40246405D362A63D2CB476B9E11FCA8D
SHA1: 8B36358D79AC61FB04708380B8D4500346EFA108
CRC32: 58DA20DA

Track04.bin
MD5: 92F4B008FB82C9CD5C8B10B02A540B96
SHA1: E78B8FF0B774ACF3A2810D54A4A5CBD3A344E416
CRC32: C26F35DC

Track05.bin
MD5: 886EF9F9532BA942EBB369DF3784090C
SHA1: ED782A0BC35F3F7F83AD7A54BB8D7FC83EC4668A
CRC32: 6DD8F55F

Track06.bin
MD5: 82D23BFFDAD174EF8D7E4CA2DA6C3C15
SHA1: 5D17315E79E14C454B97C8E26EAF9A1245E0AB82
CRC32: A847313F

HD info in attached logs

14

(0 replies, posted in Verifications)

http://redump.org/disc/6023/

Common Disc Info:
    Title: Sonic Adventure 2
    Foreign Title (Non-latin): ソニックアドベンチャー2
    Disc Number / Letter: (OPTIONAL)
    Disc Title: (OPTIONAL)
    System: Sega Dreamcast
    Media Type: GD-ROM
    Category: Games
    Region: Japan
    Languages: English, French, German, Japanese, Spanish
    Disc Serial: HDR-0165

    Ringcode Information:
        Data Side Mastering Code (laser branded/etched): <HDR-0165-0707A>HL530B
        Data Side Mastering SID Code: IFPI L463
        Data Side Toolstamp or Mastering Code (engraved/stamped): (REQUIRED, IF EXISTS)
        Data Side Mould SID Code: IFPI 7830
        Data Side Additional Mould: (REQUIRED, IF EXISTS)
        Label Side Mould SID Code: (REQUIRED, IF EXISTS)
        Label Side Additional Mould:
    Barcode: 4 974365 501747
    EXE/Build Date: (REQUIRED)
    Error Count: 0
    Comments: (OPTIONAL)
    Contents: (OPTIONAL)

Version and Editions:
    Version: (REQUIRED, IF EXISTS)
    Edition/Release: 10th Anniversary Birthday Pack

Extras:
    Primary Volume Descriptor (PVD):

0320 : 20 20 20 20 20 20 20 20  20 20 20 20 20 32 30 30                200
0330 : 31 30 35 32 39 30 34 32  30 30 30 30 30 E4 32 30   1052904200000.20
0340 : 30 31 30 35 32 39 30 34  32 30 30 30 30 30 E4 30   01052904200000.0
0350 : 30 30 30 30 30 30 30 30  30 30 30 30 30 30 30 00   000000000000000.
0360 : 30 30 30 30 30 30 30 30  30 30 30 30 30 30 30 30   0000000000000000
0370 : 00 01 00 00 00 00 00 00  00 00 00 00 00 00 00 00   ................

    Header:

Tracks and Write Offsets:
    DAT:

<rom name="Sonic_adventure_2 (Track 1).bin" size="12757248" crc="e87abb3c" md5="39b08ceb829d6b607d6657ef24318a8e" sha1="ad9864f0f2dd633a3d2778ff13f8103e6b6f2f2f" />
<rom name="Sonic_adventure_2 (Track 2).bin" size="2389632" crc="b818e036" md5="f976717bc49a7decf3ec6f2a20e26092" sha1="70ff7ffbfc1e66bdf5596578a1b2fb49f7dfb592" />

    Cuesheet:

FILE "Sonic_adventure_2 (Track 1).bin" BINARY
  TRACK 01 MODE1/2352
    INDEX 01 00:00:00
FILE "Sonic_adventure_2 (Track 2).bin" BINARY
  TRACK 02 AUDIO
    INDEX 00 00:00:00
    INDEX 01 00:02:00

    Write Offset: 24

HD Area Hashes

Track03.bin
MD5: 5513F807FCB8DB4BBE3B45480617E1DD
SHA1: DB0341BB7B6033A82D44F460D1F31381DF0BCCC2
CRC32: 126001F8

HD info in attached logs

http://redump.org/disc/10701/

Common Disc Info:
    Title: Biohazard: Code: Veronica: Kanzenban
    Foreign Title (Non-latin): バイオハザードコード:ベロニカ~完全版~
    Disc Number / Letter: 2
    Disc Title: (OPTIONAL)
    System: Sega Dreamcast
    Media Type: GD-ROM
    Category: Games
    Region: Japan
    Languages: Japanese
    Disc Serial: T-1240M

    Ringcode Information:
        Data Side Mastering Code (laser branded/etched): <T-1240M-0613>HL121A
        Data Side Mastering SID Code: IFPI L463
        Data Side Toolstamp or Mastering Code (engraved/stamped): (REQUIRED, IF EXISTS)
        Data Side Mould SID Code: IFPI 7839
        Data Side Additional Mould: (REQUIRED, IF EXISTS)
        Label Side Mould SID Code: (REQUIRED, IF EXISTS)
        Label Side Additional Mould:
    Barcode: 4 976219 555098
    EXE/Build Date: (REQUIRED)
    Error Count: 0
    Comments: (OPTIONAL)
    Contents: (OPTIONAL)

Version and Editions:
    Version: (REQUIRED, IF EXISTS)
    Edition/Release: Original

Extras:
    Primary Volume Descriptor (PVD):

0320 : 20 20 20 20 20 20 20 20  20 20 20 20 20 32 30 30                200
0330 : 31 30 31 30 39 30 31 30  30 30 30 30 30 24 32 30   1010901000000$20
0340 : 30 31 30 31 30 39 30 31  30 30 30 30 30 30 24 30   01010901000000$0
0350 : 30 30 30 30 30 30 30 30  30 30 30 30 30 30 30 00   000000000000000.
0360 : 30 30 30 30 30 30 30 30  30 30 30 30 30 30 30 30   0000000000000000
0370 : 00 01 00 00 00 00 00 00  00 00 00 00 00 00 00 00   ................

    Header:

Tracks and Write Offsets:
    DAT:

<rom name="BH_VERONICA_PLUS (Track 1).bin" size="1058400" crc="3af5681d" md5="259c72431836405f6c5801985a13ec20" sha1="80bbb8eb1dfafb620fcef19603fabe8ac79b1ec8" />
<rom name="BH_VERONICA_PLUS (Track 2).bin" size="2088576" crc="1859ea65" md5="652a31166a58b8f933e8a924e7c88780" sha1="0ecd537e42946f3e74c80c9fcb8d0bccccfc96f1" />

    Cuesheet:

FILE "BH_VERONICA_PLUS (Track 1).bin" BINARY
  TRACK 01 MODE1/2352
    INDEX 01 00:00:00
FILE "BH_VERONICA_PLUS (Track 2).bin" BINARY
  TRACK 02 AUDIO
    INDEX 00 00:00:00
    INDEX 01 00:02:00

    Write Offset: 24

HD Area Hashes:

Track03.bin
MD5: 8E08D641DD293893F5B60FBDE6056164
SHA1: 5DE34450F3E1D73E4703633854B481EE7566AEDF
CRC32: FDEB70F2

HD info in attached log file

http://redump.org/disc/10700/

Common Disc Info:
    Title: Biohazard: Code: Veronica: Kanzenban
    Foreign Title (Non-latin): バイオハザードコード:ベロニカ~完全版~
    Disc Number / Letter: 1
    Disc Title: (OPTIONAL)
    System: Sega Dreamcast
    Media Type: GD-ROM
    Category: Games
    Region: Japan
    Languages: Japanese
    Disc Serial: T-1240M

    Ringcode Information:
        Data Side Mastering Code (laser branded/etched): <T1240M-0612>HL120C
        Data Side Mastering SID Code: IFPI L463
        Data Side Toolstamp or Mastering Code (engraved/stamped): (REQUIRED, IF EXISTS)
        Data Side Mould SID Code: IFPI 7836
        Data Side Additional Mould: (REQUIRED, IF EXISTS)
        Label Side Mould SID Code: (REQUIRED, IF EXISTS)
        Label Side Additional Mould:
    Barcode: 4 976219 555098
    EXE/Build Date: (REQUIRED)
    Error Count: 0
    Comments: (OPTIONAL)
    Contents: (OPTIONAL)

Version and Editions:
    Version: (REQUIRED, IF EXISTS)
    Edition/Release: Original

Extras:
    Primary Volume Descriptor (PVD):

0320 : 20 20 20 20 20 20 20 20  20 20 20 20 20 32 30 30                200
0330 : 31 30 31 30 39 30 31 30  30 30 30 30 30 24 32 30   1010901000000$20
0340 : 30 31 30 31 30 39 30 31  30 30 30 30 30 30 24 30   01010901000000$0
0350 : 30 30 30 30 30 30 30 30  30 30 30 30 30 30 30 00   000000000000000.
0360 : 30 30 30 30 30 30 30 30  30 30 30 30 30 30 30 30   0000000000000000
0370 : 00 01 00 00 00 00 00 00  00 00 00 00 00 00 00 00   ................

    Header:

Tracks and Write Offsets:
    DAT:

<rom name="BH_VERONICA_PLUS (Track 1).bin" size="1058400" crc="b39f5d0f" md5="feda6a2d8e16de5f36b8bc0768b16d07" sha1="8d8197b02bc4b6ae761448db3d4f36e9d4225936" />
<rom name="BH_VERONICA_PLUS (Track 2).bin" size="2088576" crc="1859ea65" md5="652a31166a58b8f933e8a924e7c88780" sha1="0ecd537e42946f3e74c80c9fcb8d0bccccfc96f1" />

    Cuesheet:

FILE "BH_VERONICA_PLUS (Track 1).bin" BINARY
  TRACK 01 MODE1/2352
    INDEX 01 00:00:00
FILE "BH_VERONICA_PLUS (Track 2).bin" BINARY
  TRACK 02 AUDIO
    INDEX 00 00:00:00
    INDEX 01 00:02:00

    Write Offset: 24

HD Area Hashes:

Track03.bin
MD5: FDCFB837AB06EF50CEB125FBD6BD8880
SHA1: 3A26C6F33FDC4507FBDB37AA601BA4FDBF3F14B1
CRC32: 72C7BD7E

HD info in attached logs

17

(0 replies, posted in Verifications)

http://redump.org/disc/17734/

Common Disc Info:
    Title: Space Channel 5
    Foreign Title (Non-latin): スペース・チャンネル5
    Disc Number / Letter: (OPTIONAL)
    Disc Title: (OPTIONAL)
    System: Sega Dreamcast
    Media Type: GD-ROM
    Category: Games
    Region: Japan
    Languages: Japanese
    Disc Serial: HDR-0029

    Ringcode Information:
        Data Side Mastering Code (laser branded/etched): HDR-0029-0275 MT B08
        Data Side Mastering SID Code: IFPI L262
        Data Side Toolstamp or Mastering Code (engraved/stamped): (REQUIRED, IF EXISTS)
        Data Side Mould SID Code: IFPI 4482
        Data Side Additional Mould: (REQUIRED, IF EXISTS)
        Label Side Mould SID Code: (REQUIRED, IF EXISTS)
        Label Side Additional Mould:
    Barcode: 4 974365 500290
    EXE/Build Date: (REQUIRED)
    Error Count: 0
    Comments: (OPTIONAL)
    Contents: (OPTIONAL)

Version and Editions:
    Version: (REQUIRED, IF EXISTS)
    Edition/Release: Original

Extras:
    Primary Volume Descriptor (PVD):

0320 : 20 20 20 20 20 20 20 20  20 20 20 20 20 31 39 39                199
0330 : 39 30 39 32 30 32 31 33  35 34 31 30 30 24 31 39   9092021354100$19
0340 : 39 39 30 39 32 30 32 31  33 35 34 31 30 30 24 30   99092021354100$0
0350 : 30 30 30 30 30 30 30 30  30 30 30 30 30 30 30 00   000000000000000.
0360 : 30 30 30 30 30 30 30 30  30 30 30 30 30 30 30 30   0000000000000000
0370 : 00 01 00 00 00 00 00 00  00 00 00 00 00 00 00 00   ................

    Header:

Tracks and Write Offsets:
    DAT:

<rom name="SPACE_CHANNEL_5 (Track 1).bin" size="1992144" crc="b3f62c50" md5="86cd5c6a063d164f4d0bb10bc5675e40" sha1="3492ba6ea9ad3bd9e000a1178e419e50bbf770b4" />
<rom name="SPACE_CHANNEL_5 (Track 2).bin" size="2088576" crc="1859ea65" md5="652a31166a58b8f933e8a924e7c88780" sha1="0ecd537e42946f3e74c80c9fcb8d0bccccfc96f1" />

    Cuesheet:

FILE "SPACE_CHANNEL_5 (Track 1).bin" BINARY
  TRACK 01 MODE1/2352
    INDEX 01 00:00:00
FILE "SPACE_CHANNEL_5 (Track 2).bin" BINARY
  TRACK 02 AUDIO
    INDEX 00 00:00:00
    INDEX 01 00:02:00

    Write Offset: 13

HD Area Hashes

Track03.bin
MD5: 8AFDA74359D0ECAE25421F358397BE4B
SHA1: A93FB2FE7443DBC69943056EC5E0294A7538A80F
CRC32: ED7C9312

Track04.bin
MD5: 0E5FFC3BB7E5718FD8C6461CDA47C4C8
SHA1: 7655DC694846B27043E13CCB1044AC9E79F00669
CRC32: 5794831D

Track05.bin
MD5: 0E5FFC3BB7E5718FD8C6461CDA47C4C8
SHA1: 35D081A49B2763FA3E4A2BF18AF4A00CB966F890
CRC32: DA46A33E

HD info in attached log files

18

(0 replies, posted in Verifications)

http://redump.org/disc/5853/

Common Disc Info:
    Title: Sonic Adventure
    Foreign Title (Non-latin): ソニック・アドベンチャー
    Disc Number / Letter: (OPTIONAL)
    Disc Title: (OPTIONAL)
    System: Sega Dreamcast
    Media Type: GD-ROM
    Category: Games
    Region: Japan
    Languages: Japanese
    Disc Serial: HDR-0001

    Ringcode Information:
        Data Side Mastering Code (laser branded/etched): HDR-0001-0017 3MM1 C 8Z
        Data Side Mastering SID Code: IFPI L223
        Data Side Toolstamp or Mastering Code (engraved/stamped): (REQUIRED, IF EXISTS)
        Data Side Mould SID Code: IFPI 39B0
        Data Side Additional Mould: (REQUIRED, IF EXISTS)
        Label Side Mould SID Code: (REQUIRED, IF EXISTS)
        Label Side Additional Mould:
    Barcode: (OPTIONAL)
    EXE/Build Date: (REQUIRED)
    Error Count: 0
    Comments: (OPTIONAL)
    Contents: (OPTIONAL)

Version and Editions:
    Version: (REQUIRED, IF EXISTS)
    Edition/Release: Original

Extras:
    Primary Volume Descriptor (PVD):

0320 : 20 20 20 20 20 20 20 20  20 20 20 20 20 31 39 39                199
0330 : 38 31 32 32 33 30 31 30  30 30 30 30 30 24 31 39   8122301000000$19
0340 : 39 38 31 32 32 33 30 31  30 30 30 30 30 30 24 30   98122301000000$0
0350 : 30 30 30 30 30 30 30 30  30 30 30 30 30 30 30 00   000000000000000.
0360 : 30 30 30 30 30 30 30 30  30 30 30 30 30 30 30 30   0000000000000000
0370 : 00 01 00 00 00 00 00 00  00 00 00 00 00 00 00 00   ................

    Header:

Tracks and Write Offsets:
    DAT:

<rom name="SONIC_ADV (Track 1).bin" size="27530160" crc="c58b5d08" md5="1824bfa6a7670cdcba15526d0fc21376" sha1="3723997027355996f4e281ca373163400e900d10" />
<rom name="SONIC_ADV (Track 2).bin" size="2389632" crc="b818e036" md5="f976717bc49a7decf3ec6f2a20e26092" sha1="70ff7ffbfc1e66bdf5596578a1b2fb49f7dfb592" />

    Cuesheet:

FILE "SONIC_ADV (Track 1).bin" BINARY
  TRACK 01 MODE1/2352
    INDEX 01 00:00:00
FILE "SONIC_ADV (Track 2).bin" BINARY
  TRACK 02 AUDIO
    INDEX 00 00:00:00
    INDEX 01 00:02:00

    Write Offset: -132

HD Area Hashes

Track03.bin
MD5: DFA7A7DF2B6C22128F3AFE4697CC4433
SHA1: C98509D77792BE67791B15F762A2019AA85CFBBA
CRC32: 4E7E341A

HD infos in attached log file

19

(0 replies, posted in Verifications)

http://redump.org/disc/38452/

Common Disc Info:
    Title: July
    Foreign Title (Non-latin): ジュライ
    Disc Number / Letter: (OPTIONAL)
    Disc Title: (OPTIONAL)
    System: Sega Dreamcast
    Media Type: GD-ROM
    Category: Games
    Region: Japan
    Languages: Japanese
    Disc Serial: T-35401M

    Ringcode Information:
        Data Side Mastering Code (laser branded/etched): T-35401M-0003A 10M3 C 8Z
        Data Side Mastering SID Code: IFPI L223
        Data Side Toolstamp or Mastering Code (engraved/stamped): (REQUIRED, IF EXISTS)
        Data Side Mould SID Code: IFPI 3938
        Data Side Additional Mould: (REQUIRED, IF EXISTS)
        Label Side Mould SID Code: (REQUIRED, IF EXISTS)
        Label Side Additional Mould:
    Barcode: 4 521492 001017
    EXE/Build Date: (REQUIRED)
    Error Count: 0
    Comments: (OPTIONAL)
    Contents: (OPTIONAL)

Version and Editions:
    Version: (REQUIRED, IF EXISTS)
    Edition/Release: Original

Extras:
    Primary Volume Descriptor (PVD):

0320 : 20 20 20 20 20 20 20 20  20 20 20 20 20 31 39 39                199
0330 : 38 31 31 32 34 31 33 32  32 34 33 30 30 24 31 39   8112413224300$19
0340 : 39 38 31 31 32 34 31 33  32 32 34 33 30 30 24 30   98112413224300$0
0350 : 30 30 30 30 30 30 30 30  30 30 30 30 30 30 30 00   000000000000000.
0360 : 30 30 30 30 30 30 30 30  30 30 30 30 30 30 30 30   0000000000000000
0370 : 00 01 00 00 00 00 00 00  00 00 00 00 00 00 00 00   ................

    Header:

Tracks and Write Offsets:
    DAT:

<rom name="JULY (Track 1).bin" size="1166592" crc="a7fc1221" md5="d0bf0f734ebf8eb3ce260969717241d6" sha1="9f50fd94eeafd8a995e6f8b0002ff904809c6f8b" />
<rom name="JULY (Track 2).bin" size="2389632" crc="b818e036" md5="f976717bc49a7decf3ec6f2a20e26092" sha1="70ff7ffbfc1e66bdf5596578a1b2fb49f7dfb592" />

    Cuesheet:

FILE "JULY (Track 1).bin" BINARY
  TRACK 01 MODE1/2352
    INDEX 01 00:00:00
FILE "JULY (Track 2).bin" BINARY
  TRACK 02 AUDIO
    INDEX 00 00:00:00
    INDEX 01 00:02:00

    Write Offset: -358

HD Area Hashes:

Track03.bin
MD5: 23E70871F0BC0CB0FC094EC4072B8629
SHA1: A64CFFA8A721B8730F8D80A908F0C3F1F823B7FD
CRC32: 42EC1B59

HD info in attached logs

20

(0 replies, posted in Verifications)

http://redump.org/disc/5924/

Common Disc Info:
    Title: Jet Set Radio
    Foreign Title (Non-latin): ジェットセットラジオ
    Disc Number / Letter: (OPTIONAL)
    Disc Title: (OPTIONAL)
    System: Sega Dreamcast
    Media Type: GD-ROM
    Category: Games
    Region: Japan
    Languages: Japanese
    Disc Serial: HDR-0078

    Ringcode Information:
        Data Side Mastering Code (laser branded/etched): HDR-0078-0422 6M5 C 06
        Data Side Mastering SID Code: IFPI L223
        Data Side Toolstamp or Mastering Code (engraved/stamped): (REQUIRED, IF EXISTS)
        Data Side Mould SID Code: IFPI 3903
        Data Side Additional Mould: (REQUIRED, IF EXISTS)
        Label Side Mould SID Code: (REQUIRED, IF EXISTS)
        Label Side Additional Mould:
    Barcode: 4 974365 500788
    EXE/Build Date: (REQUIRED)
    Error Count: 0
    Comments: (OPTIONAL)
    Contents: (OPTIONAL)

Version and Editions:
    Version: (REQUIRED, IF EXISTS)
    Edition/Release: Original (VERIFY THIS)

Extras:
    Primary Volume Descriptor (PVD):

0320 : 20 20 20 20 20 20 20 20  20 20 20 20 20 32 30 30                200
0330 : 30 30 36 30 31 31 38 35  39 35 30 30 30 24 32 30   0060118595000$20
0340 : 30 30 30 36 30 31 31 38  35 39 35 30 30 30 24 30   00060118595000$0
0350 : 30 30 30 30 30 30 30 30  30 30 30 30 30 30 30 00   000000000000000.
0360 : 30 30 30 30 30 30 30 30  30 30 30 30 30 30 30 30   0000000000000000
0370 : 00 01 00 00 00 00 00 00  00 00 00 00 00 00 00 00   ................

    Header:

Tracks and Write Offsets:
    DAT:

<rom name="JET_SET_RADIO (Track 1).bin" size="1996848" crc="93d2bdc9" md5="58b56f794ae6adb2b69db632d8bed6a3" sha1="e8067ab0aab09b701fdb53a3624448b5b1d6675d" />
<rom name="JET_SET_RADIO (Track 2).bin" size="2088576" crc="1859ea65" md5="652a31166a58b8f933e8a924e7c88780" sha1="0ecd537e42946f3e74c80c9fcb8d0bccccfc96f1" />

    Cuesheet:

FILE "JET_SET_RADIO (Track 1).bin" BINARY
  TRACK 01 MODE1/2352
    INDEX 01 00:00:00
FILE "JET_SET_RADIO (Track 2).bin" BINARY
  TRACK 02 AUDIO
    INDEX 00 00:00:00
    INDEX 01 00:02:00

    Write Offset: -455

HD Area Hashes:

Track03.bin
MD5: 8ED5D35C975DB6BB355EC209A5C9BCC6
SHA1: B80AAEB0CA01FFB8D3C7BC7AC7764C5D7EBF1557
CRC32: FBDCD78B

HD info in attached logs

21

(0 replies, posted in Verifications)

http://redump.org/disc/18037/

Common Disc Info:
    Title: Crazy Taxi
    Foreign Title (Non-latin): (OPTIONAL)
    Disc Number / Letter: (OPTIONAL)
    Disc Title: (OPTIONAL)
    System: Sega Dreamcast
    Media Type: GD-ROM
    Category: Games
    Region: USA
    Languages: English
    Disc Serial: 51035

    Ringcode Information:
        Data Side Mastering Code (laser branded/etched): *10S* 51035 B
        Data Side Mastering SID Code: IFPI L433
        Data Side Toolstamp or Mastering Code (engraved/stamped): A9
        Data Side Mould SID Code: IFPI 7402
        Data Side Additional Mould: (REQUIRED, IF EXISTS)
        Label Side Mould SID Code: (REQUIRED, IF EXISTS)
        Label Side Additional Mould:
    Barcode: 0 10086 51035 5
    EXE/Build Date: (REQUIRED)
    Error Count: 0
    Comments: (OPTIONAL)
    Contents: (OPTIONAL)

Version and Editions:
    Version: (REQUIRED, IF EXISTS)
    Edition/Release: Sega All Stars

Extras:
    Primary Volume Descriptor (PVD):

0320 : 20 20 20 20 20 20 20 20  20 20 20 20 20 31 39 39                199
0330 : 39 31 31 31 34 30 35 34  39 32 39 30 30 24 31 39   9111405492900$19
0340 : 39 39 31 31 31 34 30 35  34 39 32 39 30 30 24 30   99111405492900$0
0350 : 30 30 30 30 30 30 30 30  30 30 30 30 30 30 30 00   000000000000000.
0360 : 30 30 30 30 30 30 30 30  30 30 30 30 30 30 30 30   0000000000000000
0370 : 00 01 00 00 00 00 00 00  00 00 00 00 00 00 00 00   ................

    Header:

Tracks and Write Offsets:
    DAT:

<rom name="CRAZY_TAXI (Track 1).bin" size="1058400" crc="f8bb5b3c" md5="be87b59616171c57d9fd252acdda806b" sha1="cf38f6c262f304729870f443fce69ffd182214e1" />
<rom name="CRAZY_TAXI (Track 2).bin" size="1589952" crc="8557fcaa" md5="824ff123fbce45b5883962eb3fa43cab" sha1="a3705cb0ce53c7adf906c5af76887406984de6a9" />

    Cuesheet:

FILE "CRAZY_TAXI (Track 1).bin" BINARY
  TRACK 01 MODE1/2352
    INDEX 01 00:00:00
FILE "CRAZY_TAXI (Track 2).bin" BINARY
  TRACK 02 AUDIO
    INDEX 00 00:00:00
    INDEX 01 00:02:00

    Write Offset: -445

HD Area Hashes:

Track03.bin
MD5: A127C8645B365990D8EC74A24DFC97C2
SHA1: 082C341F140904B9A63B984C2DCE1EA276F7AFDB
CRC32: EDE401B9

HD Info in attached logs

22

(0 replies, posted in Verifications)

http://redump.org/disc/17960/

Common Disc Info:
    Title: NHL 2K2
    Foreign Title (Non-latin): (OPTIONAL)
    Disc Number / Letter: (OPTIONAL)
    Disc Title: (OPTIONAL)
    System: Sega Dreamcast
    Media Type: CD-ROM
    Category: Games
    Region: USA
    Languages: English
    Disc Serial: 51182

    Ringcode Information:
        Data Side Mastering Code (laser branded/etched): *2S* 51182 B
        Data Side Mastering SID Code: IFPI L433
        Data Side Toolstamp or Mastering Code (engraved/stamped): B1
        Data Side Mould SID Code: IFPI 7489
        Data Side Additional Mould: (REQUIRED, IF EXISTS)
        Label Side Mould SID Code: (REQUIRED, IF EXISTS)
        Label Side Additional Mould:
    Barcode: 0 10086 51182 6
    EXE/Build Date: (REQUIRED)
    Error Count: 0
    Comments: (OPTIONAL)
    Contents: (OPTIONAL)

Version and Editions:
    Version: (REQUIRED, IF EXISTS)
    Edition/Release: Original

Extras:
    Primary Volume Descriptor (PVD):

0320 : 20 20 20 20 20 20 20 20  20 20 20 20 20 32 30 30                200
0330 : 32 30 32 30 38 31 39 35  34 34 33 30 30 E0 32 30   2020819544300.20
0340 : 30 32 30 32 30 38 31 39  35 34 34 33 30 30 E0 32   02020819544300.2
0350 : 30 31 31 30 32 30 38 31  39 35 34 34 33 30 30 E0   011020819544300.
0360 : 32 30 30 32 30 32 30 38  31 39 35 34 34 33 30 30   2002020819544300
0370 : E0 01 00 00 00 00 00 00  00 00 00 00 00 00 00 00   ................

    Header:

Tracks and Write Offsets:
    DAT:

<rom name="NHL2K2 (Track 1).bin" size="1342992" crc="d390fa2b" md5="14b80846b8113cd29e4b2719ca745890" sha1="dcb0adaa0f0c65985d60fd0b5ff2852985a6a7a8" />
<rom name="NHL2K2 (Track 2).bin" size="1519392" crc="21c7ae30" md5="c81b05f5ce417ea2c2f4e58ceae71cdd" sha1="af642277839e450f26a7b9f93ae2510578e2bb58" />

    Cuesheet:

FILE "NHL2K2 (Track 1).bin" BINARY
  TRACK 01 MODE1/2352
    INDEX 01 00:00:00
FILE "NHL2K2 (Track 2).bin" BINARY
  TRACK 02 AUDIO
    INDEX 00 00:00:00
    INDEX 01 00:02:00

    Write Offset: -541

Hashes for HD Area:

Track03.bin
MD5: E69E863AEDBD3CF5D82060BF5C67D3D7
SHA1: 3C3BA6DC198E572F14F623F2A1652183E1029600
CRC32: DD4F079B


Track04.bin
MD5: 4ABF6058D28447B03F6B8071FF9440A3
SHA1: 260D369112685D249AA43B67CA7DBC6CD12E6673
CRC32: 6BC55214

Track05.bin
MD5: A75BA6892DCCFAF53FB1BF147AC06472
SHA1: 2D8B05FE8D7122088586BA326E001F73ADC51D91
CRC32: AE2BBA77

Logs attached with HD info

23

(0 replies, posted in General discussion)

As in the title. What is error count in some pages? For example: http://redump.org/disc/1867/. My guess is that it is an intentional error written to the disc by the game producer to try to prevent copying. Am I wrong? Also is the error count related to the number of erroneous bytes or erroneous sectors?

24

(10 replies, posted in General discussion)

This is what I am trying to explain I dumped all other games using "Direct disc access" in multiman I am guessing this enables 1:1 dump (encrypted), but for some reason this method didn't work for this particular game. It only worked without "Direct disc access" ie: decrypted. In the end it dumped correctly with DICUI on my PC and getting the disc key worked on the PS3 so I could combine both in my submission. If it ever does that again I'll just dump the game using DCUI.

25

(10 replies, posted in General discussion)

Thanks for checking lxxxl,

I see that you used DICUI for your dump so I tried to do the same with my bluray drive and this time I get the same hash as you. I am just puzzled as to why the file is different when dumping from the PS3 vs from a PC with DICUI and a non PS3 OEM Bluray drive?

I do get an error using this method but I am guessing that is because I'm not using an OEM PS3 drive

LBA[000000, 0000000]: [F:ReadDiscStructure][L:1326]
    Opcode: 0xad
    ScsiStatus: 0x02 = CHECK_CONDITION
    SenseData Key-Asc-Ascq: 05-24-00 = ILLEGAL_REQUEST - INVALID FIELD IN CDB

PS3      SHA-1: 58158CCF08782CF66C0302363037D9ED365C816B
DICUI   SHA-1: e48fdc414b53df71e84021b92eed20b961b570fc

Edit: I compared both files using a binary diff tool and I came to the conclusion that the ISO dumped by DICUI seems to be encrypted and the one dumped using my PS3 seems to be decrypted, I can verify that by mounting both ISO and trying to open:

PS3_GAME\USRDIR\DATA\ICON0.png

On the DICUI dump it doesn't show the picture because the data is encrypted but on the PS3 dump it display a png picture just fine. So I am guessing to stay as close as possible to the original media we should use the encrypted version right?