Verifying this database entry: http://redump.org/disc/17379/

Logs URL: https://mega.nz/file/BhJgVbCJ#lkGOQaRb_ … VmgM19eR1Q

Common Disc Info:
    Title: Clockwork Knight: Pepperouchau no Daibouken Gekan
    Foreign Title (Non-latin): クロックワーク・ナイト~ペパルーチョの大冒険・下巻~
    Disc Number / Letter: 
    Disc Title: 
    System: Sega Saturn
    Media Type: CD-ROM
    Category: Games
    Region: Japan
    Languages: Japanese
    Disc Serial: GS-9029

    Ringcode Information:
        Mastering Code (laser branded/etched): GS-9029P-00404   2M2   C   57
        Mastering SID Code: IFPI L223
        Data-Side Mould SID Code: IFPI 3927
        Label-Side Mould SID Code: (REQUIRED, IF EXISTS)
        Additional Mould: 
        Toolstamp or Mastering Code (engraved/stamped): 
    Barcode: 4 974365 090296
    EXE/Build Date: 19950705
    Error Count: 0
    Comments: Internal Serial: GS-9029
    Contents: Sega ID: 670-7060

Version and Editions:
    Version: 1.001
    Edition/Release: Original

Extras:
    Primary Volume Descriptor (PVD):

0320 : 20 20 20 20 20 20 20 20  20 20 20 20 20 31 39 39                199
0330 : 35 30 37 30 35 30 37 30  34 32 33 30 30 14 31 39   5070507042300.19
0340 : 39 35 30 37 30 35 30 37  30 34 32 33 30 30 14 30   95070507042300.0
0350 : 30 30 30 30 30 30 30 30  30 30 30 30 30 30 30 00   000000000000000.
0360 : 30 30 30 30 30 30 30 30  30 30 30 30 30 30 30 30   0000000000000000
0370 : 00 01 00 00 00 00 00 00  00 00 00 00 00 00 00 00   ................

    Header:

0000 : 53 45 47 41 20 53 45 47  41 53 41 54 55 52 4E 20   SEGA SEGASATURN 
0010 : 53 45 47 41 20 45 4E 54  45 52 50 52 49 53 45 53   SEGA ENTERPRISES
0020 : 47 53 2D 39 30 32 39 20  20 20 56 31 2E 30 30 31   GS-9029   V1.001
0030 : 31 39 39 35 30 37 30 35  43 44 2D 31 2F 31 20 20   19950705CD-1/1  
0040 : 4A 54 20 20 20 20 20 20  20 20 20 20 20 20 20 20   JT              
0050 : 4A 20 20 20 20 20 20 20  20 20 20 20 20 20 20 20   J               
0060 : 43 4C 4F 43 4B 57 4F 52  4B 20 4B 4E 49 47 48 54   CLOCKWORK KNIGHT
0070 : 20 50 65 70 70 65 72 6F  75 63 68 61 75 27 73 20    Pepperouchau's 
0080 : 41 64 76 65 6E 74 75 72  65 20 76 6F 6C 75 6D 65   Adventure volume
0090 : 20 32 20 20 20 20 20 20  20 20 20 20 20 20 20 20    2              
00A0 : 20 20 20 20 20 20 20 20  20 20 20 20 20 20 20 20                   
00B0 : 20 20 20 20 20 20 20 20  20 20 20 20 20 20 20 20                   
00C0 : 20 20 20 20 20 20 20 20  20 20 20 30 36 3A 35 31              06:51
00D0 : 00 00 00 00 00 00 00 00  00 00 00 00 00 00 00 00   ................
00E0 : 00 00 80 00 00 00 00 00  00 00 00 00 00 00 00 00   ................
00F0 : 06 00 30 00 00 00 00 00  00 00 00 00 00 00 00 00   ..0.............

Tracks and Write Offsets:
    DAT:

<rom name="Clockwork Knight - Pepperouchau no Daibouken Gekan (Track 1).bin" size="288708000" crc="d7bad9a0" md5="7bfd1d0cc2b91a56c3ee9b16c7554322" sha1="c74e873ab8b07d77039288b78e1bbbac416bcf4a" />
<rom name="Clockwork Knight - Pepperouchau no Daibouken Gekan (Track 2).bin" size="40428528" crc="654efb32" md5="ac997475cbf6a8e795e7d35d3ca9faa0" sha1="e4a4027e517b7c10f75d248236d1e4221bb823db" />

    Cuesheet:

CATALOG 0000000000000
FILE "Clockwork Knight - Pepperouchau no Daibouken Gekan (Track 1).bin" BINARY
  TRACK 01 MODE1/2352
    INDEX 01 00:00:00
FILE "Clockwork Knight - Pepperouchau no Daibouken Gekan (Track 2).bin" BINARY
  TRACK 02 AUDIO
    INDEX 00 00:00:00
    INDEX 01 00:01:74

    Write Offset: 0

Verifying this database entry: http://redump.org/disc/17370/

Logs URL: https://mega.nz/file/8oIwgTRK#Wec9ee5lx … KCterYqAZ4

Common Disc Info:
    Title: Clockwork Knight: Pepperouchau no Daibouken Joukan
    Foreign Title (Non-latin): クロックワーク・ナイト~ペパルーチョの大冒険・上巻~
    Disc Number / Letter:
    Disc Title:
    System: Sega Saturn
    Media Type: CD-ROM
    Category: Games
    Region: Japan
    Languages: Japanese
    Disc Serial: GS-9004

    Ringcode Information:
        Mastering Code (laser branded/etched): GS-9004P-00270-P1K   V
        Mastering SID Code: IFPI L237
        Data-Side Mould SID Code: IFPI 4001
        Label-Side Mould SID Code: (REQUIRED, IF EXISTS)
        Additional Mould: 
        Toolstamp or Mastering Code (engraved/stamped): 13
    Barcode: 4 974365 090043
    EXE/Build Date: 19941115
    Error Count: 0
    Comments: Internal Serial: GS-9004
    Contents: Sega ID: 670-5886

Version and Editions:
    Version: 1.000
    Edition/Release: Original

Extras:
    Primary Volume Descriptor (PVD):

0320 : 20 20 20 20 20 20 20 20  20 20 20 20 20 31 39 39                199
0330 : 34 31 31 31 35 30 32 35  34 32 33 30 30 14 31 39   4111502542300.19
0340 : 39 34 31 31 31 35 30 32  35 34 32 33 30 30 14 30   94111502542300.0
0350 : 30 30 30 30 30 30 30 30  30 30 30 30 30 30 30 00   000000000000000.
0360 : 30 30 30 30 30 30 30 30  30 30 30 30 30 30 30 30   0000000000000000
0370 : 00 01 00 00 00 00 00 00  00 00 00 00 00 00 00 00   ................

    Header:

0000 : 53 45 47 41 20 53 45 47  41 53 41 54 55 52 4E 20   SEGA SEGASATURN 
0010 : 53 45 47 41 20 45 4E 54  45 52 50 52 49 53 45 53   SEGA ENTERPRISES
0020 : 47 53 2D 39 30 30 34 20  20 20 56 31 2E 30 30 30   GS-9004   V1.000
0030 : 31 39 39 34 31 31 31 35  43 44 2D 31 2F 31 20 20   19941115CD-1/1  
0040 : 4A 54 20 20 20 20 20 20  20 20 20 20 20 20 20 20   JT              
0050 : 4A 20 20 20 20 20 20 20  20 20 20 20 20 20 20 20   J               
0060 : 43 4C 4F 43 4B 57 4F 52  4B 20 4B 4E 49 47 48 54   CLOCKWORK KNIGHT
0070 : 20 50 65 70 70 65 72 6F  75 63 68 61 75 27 73 20    Pepperouchau's 
0080 : 41 64 76 65 6E 74 75 72  65 20 76 6F 6C 75 6D 65   Adventure volume
0090 : 20 31 20 20 20 20 20 20  20 20 20 20 20 20 20 20    1              
00A0 : 20 20 20 20 20 20 20 20  20 20 20 20 20 20 20 20                   
00B0 : 20 20 20 20 20 20 20 20  20 20 20 20 20 20 20 20                   
00C0 : 20 20 20 20 20 20 20 20  20 20 20 20 20 20 20 20                   
00D0 : 00 00 00 00 00 00 00 00  00 00 00 00 00 00 00 00   ................
00E0 : 00 00 80 00 00 00 00 00  00 00 00 00 00 00 00 00   ................
00F0 : 06 00 30 00 00 00 00 00  00 00 00 00 00 00 00 00   ..0.............

Tracks and Write Offsets:
    DAT:

<rom name="Clockwork Knight - Pepperouchau no Daibouken Joukan (Track 1).bin" size="216553344" crc="3766c5e1" md5="0a83b24407f8640cec8a497dc9952c85" sha1="14d36313b95762614c9513e89464f6b9d2c54b98" />
<rom name="Clockwork Knight - Pepperouchau no Daibouken Joukan (Track 2).bin" size="8159088" crc="a73b676c" md5="9f85df439810e2a898e724f8f4c48599" sha1="b6927859434a202484482371a261f35d09bea194" />
<rom name="Clockwork Knight - Pepperouchau no Daibouken Joukan (Track 3).bin" size="23117808" crc="93050353" md5="1ab3302e59550b222d91f2c5a8233885" sha1="093afc623342f1ae1cb3525f6734948534880094" />

    Cuesheet:

CATALOG 0000000000000
FILE "Clockwork Knight - Pepperouchau no Daibouken Joukan (Track 1).bin" BINARY
  TRACK 01 MODE1/2352
    INDEX 01 00:00:00
FILE "Clockwork Knight - Pepperouchau no Daibouken Joukan (Track 2).bin" BINARY
  TRACK 02 AUDIO
    INDEX 00 00:00:00
    INDEX 01 00:02:00
FILE "Clockwork Knight - Pepperouchau no Daibouken Joukan (Track 3).bin" BINARY
  TRACK 03 AUDIO
    INDEX 00 00:00:00
    INDEX 01 00:01:74

    Write Offset: 1860

Verifying this database entry: http://redump.org/disc/26466/

Logs URL: https://mega.nz/file/JoA3VYSR#GmRUe78qS … nC-zoafphQ

Common Disc Info:
    Title: Clockwork Knight: Pepperouchau no Fukubukuro
    Foreign Title (Non-latin): クロックワーク・ナイト~ペパルーチョの福袋~
    Disc Number / Letter: 
    Disc Title: 
    System: Sega Saturn
    Media Type: CD-ROM
    Category: Games
    Region: Japan
    Languages: Japanese
    Disc Serial: GS-9074

    Ringcode Information:
        Mastering Code (laser branded/etched): GS-9074P-00562-P1K   V
        Mastering SID Code: IFPI L237
        Data-Side Mould SID Code: IFPI 4011
        Label-Side Mould SID Code: (REQUIRED, IF EXISTS)
        Additional Mould: 
        Toolstamp or Mastering Code (engraved/stamped): 12
    Barcode: 4 974365 090746
    EXE/Build Date: 19951020
    Error Count: 0
    Comments: Internal Serial: GS-9074
    Contents: Sega ID: 670-7677

Version and Editions:
    Version: 1.000
    Edition/Release: Original

Extras:
    Primary Volume Descriptor (PVD):

0320 : 20 20 20 20 20 20 20 20  20 20 20 20 20 31 39 39                199
0330 : 35 31 30 32 30 31 33 30  30 33 33 30 30 14 31 39   5102013003300.19
0340 : 39 35 31 30 32 30 31 33  30 30 33 33 30 30 14 30   95102013003300.0
0350 : 30 30 30 30 30 30 30 30  30 30 30 30 30 30 30 00   000000000000000.
0360 : 30 30 30 30 30 30 30 30  30 30 30 30 30 30 30 30   0000000000000000
0370 : 00 01 00 00 00 00 00 00  00 00 00 00 00 00 00 00   ................

    Header:

0000 : 53 45 47 41 20 53 45 47  41 53 41 54 55 52 4E 20   SEGA SEGASATURN 
0010 : 53 45 47 41 20 45 4E 54  45 52 50 52 49 53 45 53   SEGA ENTERPRISES
0020 : 47 53 2D 39 30 37 34 20  20 20 56 31 2E 30 30 30   GS-9074   V1.000
0030 : 31 39 39 35 31 30 32 30  43 44 2D 31 2F 31 20 20   19951020CD-1/1  
0040 : 4A 54 20 20 20 20 20 20  20 20 20 20 20 20 20 20   JT              
0050 : 4A 20 20 20 20 20 20 20  20 20 20 20 20 20 20 20   J               
0060 : 43 4C 4F 43 4B 57 4F 52  4B 20 4B 4E 49 47 48 54   CLOCKWORK KNIGHT
0070 : 20 50 65 70 70 65 72 6F  75 63 68 61 75 27 73 20    Pepperouchau's 
0080 : 46 55 4B 55 42 55 4B 55  52 4F 20 20 20 20 20 20   FUKUBUKURO      
0090 : 20 20 20 20 20 20 20 20  20 20 20 20 20 20 20 20                   
00A0 : 20 20 20 20 20 20 20 20  20 20 20 20 20 20 20 20                   
00B0 : 20 20 20 20 20 20 20 20  20 20 20 20 20 20 20 20                   
00C0 : 20 20 20 20 20 20 20 20  20 20 20 20 20 20 20 20                   
00D0 : 00 00 00 00 00 00 00 00  00 00 00 00 00 00 00 00   ................
00E0 : 00 00 80 00 00 00 00 00  00 00 00 00 00 00 00 00   ................
00F0 : 06 00 30 00 00 00 00 00  00 00 00 00 00 00 00 00   ..0.............

Tracks and Write Offsets:
    DAT:

<rom name="Clockwork Knight - Pepperouchau no Fukubukuro (Track 1).bin" size="415565472" crc="2bf0bd4f" md5="932b157d0854673822d71262627521c2" sha1="e6c7752e13580ae775a86568ed08c68e5a9c507f" />
<rom name="Clockwork Knight - Pepperouchau no Fukubukuro (Track 2).bin" size="40433232" crc="e135e351" md5="604ca47d79c91bfc6f8487a5feb5e48b" sha1="4509e37e347068eeacf0b1e2c4b3ccf4036a6c2a" />
<rom name="Clockwork Knight - Pepperouchau no Fukubukuro (Track 3).bin" size="8128512" crc="2b441be8" md5="3c0cdccd73ce453e78bd3641bd5a0a24" sha1="af2a4689ce73d105944e15489dc3959338ad027e" />

    Cuesheet:

CATALOG 0000000000000
FILE "Clockwork Knight - Pepperouchau no Fukubukuro (Track 1).bin" BINARY
  TRACK 01 MODE1/2352
    INDEX 01 00:00:00
FILE "Clockwork Knight - Pepperouchau no Fukubukuro (Track 2).bin" BINARY
  TRACK 02 AUDIO
    INDEX 00 00:00:00
    INDEX 01 00:02:00
FILE "Clockwork Knight - Pepperouchau no Fukubukuro (Track 3).bin" BINARY
  TRACK 03 AUDIO
    INDEX 00 00:00:00
    INDEX 01 00:01:74

    Write Offset: 390

Verifying this database entry: http://redump.org/disc/17370/

This one seems to be lumped in with the database entry for the retail release of the game on here. I assume this is because the data for this "Sample" version is 1:1 to the retail release. Regardless, I've made a verification dump from my own copy of the "Clockwork Knight Sample" disc, and I'll leave it up to the staff here on how to add it.

Logs URL: https://mega.nz/file/AxIj3I5Q#t3mGtVYCD … 0n6rHd3g7A

Common Disc Info:
    Title: Clockwork Knight: Pepperouchau no Daibouken Joukan
    Foreign Title (Non-latin): クロックワーク・ナイト~ペパルーチョの大冒険・上巻~
    Disc Number / Letter: 
    Disc Title: 
    System: Sega Saturn
    Media Type: CD-ROM
    Category: Games
    Region: Japan
    Languages: Japanese
    Disc Serial: DGS-9004

    Ringcode Information:
        Mastering Code (laser branded/etched): GS-9004P-00270-P1K   V
        Mastering SID Code: IFPI L237
        Data-Side Mould SID Code: IFPI 4001
        Label-Side Mould SID Code: (REQUIRED, IF EXISTS)
        Additional Mould: 
        Toolstamp or Mastering Code (engraved/stamped): 11
    Barcode: 
    EXE/Build Date: 19941115
    Error Count: 0
    Comments: Internal Serial: GS-9004. Matches the retail version of the game 1:1.
    Contents: 

Version and Editions:
    Version: 1.000
    Edition/Release: Sample

Extras:
    Primary Volume Descriptor (PVD):

0320 : 20 20 20 20 20 20 20 20  20 20 20 20 20 31 39 39                199
0330 : 34 31 31 31 35 30 32 35  34 32 33 30 30 14 31 39   4111502542300.19
0340 : 39 34 31 31 31 35 30 32  35 34 32 33 30 30 14 30   94111502542300.0
0350 : 30 30 30 30 30 30 30 30  30 30 30 30 30 30 30 00   000000000000000.
0360 : 30 30 30 30 30 30 30 30  30 30 30 30 30 30 30 30   0000000000000000
0370 : 00 01 00 00 00 00 00 00  00 00 00 00 00 00 00 00   ................

    Header:

0000 : 53 45 47 41 20 53 45 47  41 53 41 54 55 52 4E 20   SEGA SEGASATURN 
0010 : 53 45 47 41 20 45 4E 54  45 52 50 52 49 53 45 53   SEGA ENTERPRISES
0020 : 47 53 2D 39 30 30 34 20  20 20 56 31 2E 30 30 30   GS-9004   V1.000
0030 : 31 39 39 34 31 31 31 35  43 44 2D 31 2F 31 20 20   19941115CD-1/1  
0040 : 4A 54 20 20 20 20 20 20  20 20 20 20 20 20 20 20   JT              
0050 : 4A 20 20 20 20 20 20 20  20 20 20 20 20 20 20 20   J               
0060 : 43 4C 4F 43 4B 57 4F 52  4B 20 4B 4E 49 47 48 54   CLOCKWORK KNIGHT
0070 : 20 50 65 70 70 65 72 6F  75 63 68 61 75 27 73 20    Pepperouchau's 
0080 : 41 64 76 65 6E 74 75 72  65 20 76 6F 6C 75 6D 65   Adventure volume
0090 : 20 31 20 20 20 20 20 20  20 20 20 20 20 20 20 20    1              
00A0 : 20 20 20 20 20 20 20 20  20 20 20 20 20 20 20 20                   
00B0 : 20 20 20 20 20 20 20 20  20 20 20 20 20 20 20 20                   
00C0 : 20 20 20 20 20 20 20 20  20 20 20 20 20 20 20 20                   
00D0 : 00 00 00 00 00 00 00 00  00 00 00 00 00 00 00 00   ................
00E0 : 00 00 80 00 00 00 00 00  00 00 00 00 00 00 00 00   ................
00F0 : 06 00 30 00 00 00 00 00  00 00 00 00 00 00 00 00   ..0.............

Tracks and Write Offsets:
    DAT:

<rom name="Clockwork Knight Sample (DGS-9004) (Track 1).bin" size="216553344" crc="3766c5e1" md5="0a83b24407f8640cec8a497dc9952c85" sha1="14d36313b95762614c9513e89464f6b9d2c54b98" />
<rom name="Clockwork Knight Sample (DGS-9004) (Track 2).bin" size="8159088" crc="a73b676c" md5="9f85df439810e2a898e724f8f4c48599" sha1="b6927859434a202484482371a261f35d09bea194" />
<rom name="Clockwork Knight Sample (DGS-9004) (Track 3).bin" size="23117808" crc="93050353" md5="1ab3302e59550b222d91f2c5a8233885" sha1="093afc623342f1ae1cb3525f6734948534880094" />

    Cuesheet:

CATALOG 0000000000000
FILE "Clockwork Knight Sample (DGS-9004) (Track 1).bin" BINARY
  TRACK 01 MODE1/2352
    INDEX 01 00:00:00
FILE "Clockwork Knight Sample (DGS-9004) (Track 2).bin" BINARY
  TRACK 02 AUDIO
    INDEX 00 00:00:00
    INDEX 01 00:02:00
FILE "Clockwork Knight Sample (DGS-9004) (Track 3).bin" BINARY
  TRACK 03 AUDIO
    INDEX 00 00:00:00
    INDEX 01 00:01:74

    Write Offset: 1860

Verifying this database entry: http://redump.org/disc/64525/

I've noticed this one is marked as "Incomplete or not properly formatted", probably due to it only having data for "Toolstamp or Mastering Code (engraved/stamped)" and then nothing else. I can confirm that this is correct, as my copy that I am using for verification is exactly the same as this. It literally JUST contains this and nothing else.

Logs URL: https://mega.nz/file/dtJFxarb#jZqEo1Pdg … bvkgxPXLxU

Common Disc Info:
    Title: Photo CD Operating System
    Foreign Title (Non-latin): 
    Disc Number / Letter: 
    Disc Title: 
    System: Sega Saturn
    Media Type: CD-ROM
    Category: Applications
    Region: Europe
    Languages: English, Finnish, German, Italian, Japanese, Spanish
    Disc Serial: MK81681-50

    Ringcode Information:
        Mastering Code (laser branded/etched): 
        Mastering SID Code: 
        Data-Side Mould SID Code: 
        Label-Side Mould SID Code: (REQUIRED, IF EXISTS)
        Additional Mould: 
        Toolstamp or Mastering Code (engraved/stamped): MK-81681P-00485   A
    Barcode: 4 974365 816810
    EXE/Build Date: 19950912
    Error Count: 0
    Comments:

Internal Serial: SEGAVIEW
Sega ID: 670-7871-50
Languages are selectable via the Sega Saturn BIOS.

    Contents: 

Version and Editions:
    Version: 1.002
    Edition/Release: Original

Extras:
    Primary Volume Descriptor (PVD):

0320 : 20 20 20 20 20 20 20 20  20 20 20 20 20 31 39 39                199
0330 : 35 30 39 31 32 30 31 30  30 30 30 30 30 24 31 39   5091201000000$19
0340 : 39 35 30 39 31 32 30 31  30 30 30 30 30 30 24 30   95091201000000$0
0350 : 30 30 30 30 30 30 30 30  30 30 30 30 30 30 30 00   000000000000000.
0360 : 30 30 30 30 30 30 30 30  30 30 30 30 30 30 30 30   0000000000000000
0370 : 00 01 00 00 00 00 00 00  00 00 00 00 00 00 00 00   ................

    Header:

0000 : 53 45 47 41 20 53 45 47  41 53 41 54 55 52 4E 20   SEGA SEGASATURN 
0010 : 53 45 47 41 20 45 4E 54  45 52 50 52 49 53 45 53   SEGA ENTERPRISES
0020 : 53 45 47 41 56 49 45 57  45 52 56 31 2E 30 30 32   SEGAVIEWERV1.002
0030 : 31 39 39 35 30 39 31 32  43 44 2D 31 2F 31 20 20   19950912CD-1/1  
0040 : 45 54 20 20 20 20 20 20  20 20 20 20 20 20 20 20   ET              
0050 : 4A 20 20 20 20 20 20 20  20 20 20 20 20 20 20 20   J               
0060 : 50 48 4F 54 4F 20 43 44  20 4F 50 45 52 41 54 49   PHOTO CD OPERATI
0070 : 4E 47 20 53 59 53 54 45  4D 20 20 20 20 20 20 20   NG SYSTEM       
0080 : 4D 4B 2D 38 31 36 38 31  20 20 20 20 20 20 20 20   MK-81681        
0090 : 20 20 20 20 20 20 20 20  20 20 20 20 20 20 20 20                   
00A0 : 20 20 20 20 20 20 20 20  20 20 20 20 20 20 20 20                   
00B0 : 20 20 20 20 20 20 20 20  20 20 20 20 20 20 20 20                   
00C0 : 20 20 20 20 20 20 20 20  20 20 20 20 20 20 20 20                   
00D0 : 00 00 00 00 00 00 00 00  00 00 00 00 00 00 00 00   ................
00E0 : 00 00 80 00 00 00 00 00  00 00 00 00 00 00 00 00   ................
00F0 : 06 01 00 00 00 00 00 00  00 00 00 00 00 00 00 00   ................

Tracks and Write Offsets:
    DAT:

<rom name="Photo CD Operating System (Track 1).bin" size="5059152" crc="6cf69a54" md5="ab04694d1eed163b3a8e3c2bcd25544e" sha1="93ba0622d6e077e74b8e365dc3b4e586f9f49952" />
<rom name="Photo CD Operating System (Track 2).bin" size="42806400" crc="d1950763" md5="a4f2b21d39d3bb0785dd7c0572c799fd" sha1="140e78b31fb9e1ccb91fb62721d64192079af7a0" />
<rom name="Photo CD Operating System (Track 3).bin" size="3880800" crc="9f0c72a9" md5="a0504ac125aabae3312a9f61d0becd00" sha1="eb8a96c9bd1358cc8606e099bad61762df07790a" />

    Cuesheet:

FILE "Photo CD Operating System (Track 1).bin" BINARY
  TRACK 01 MODE1/2352
    INDEX 01 00:00:00
FILE "Photo CD Operating System (Track 2).bin" BINARY
  TRACK 02 MODE2/2352
    INDEX 00 00:00:00
    INDEX 01 00:02:00
FILE "Photo CD Operating System (Track 3).bin" BINARY
  TRACK 03 AUDIO
    INDEX 00 00:00:00
    INDEX 01 00:02:00

    Write Offset: 18

Verifying this database entry: http://redump.org/disc/44766/
(Version 1.010)

Logs URL: https://mega.nz/file/hhAFGKiZ#pIzuFM74S … q-aemtaqKM

Common Disc Info:
    Title: SegaSaturn Photo CD Operator
    Foreign Title (Non-latin): セガサターンフォトCDオペレーター
    Disc Number / Letter: 
    Disc Title: 
    System: Sega Saturn
    Media Type: CD-ROM
    Category: Applications
    Region: Japan
    Languages: Japanese
    Disc Serial: HSS-0121

    Ringcode Information:
        Mastering Code (laser branded/etched): HSS0121P-00297A-P1K   V
        Mastering SID Code: IFPI L237
        Data-Side Mould SID Code: IFPI 4011
        Label-Side Mould SID Code: (REQUIRED, IF EXISTS)
        Additional Mould: 
        Toolstamp or Mastering Code (engraved/stamped): 213
    Barcode: 4 974365 001216
    EXE/Build Date: 19950621
    Error Count: 0
    Comments:

Internal Serial: SEGAVIEW
Sega ID: 670-6610

    Contents: 

Version and Editions:
    Version: 1.010
    Edition/Release: Original

Extras:
    Primary Volume Descriptor (PVD):

0320 : 20 20 20 20 20 20 20 20  20 20 20 20 20 31 39 39                199
0330 : 35 30 36 32 31 30 31 30  30 30 30 30 30 24 31 39   5062101000000$19
0340 : 39 35 30 36 32 31 30 31  30 30 30 30 30 30 24 30   95062101000000$0
0350 : 30 30 30 30 30 30 30 30  30 30 30 30 30 30 30 00   000000000000000.
0360 : 30 30 30 30 30 30 30 30  30 30 30 30 30 30 30 30   0000000000000000
0370 : 00 01 00 00 00 00 00 00  00 00 00 00 00 00 00 00   ................

    Header:

0000 : 53 45 47 41 20 53 45 47  41 53 41 54 55 52 4E 20   SEGA SEGASATURN 
0010 : 53 45 47 41 20 45 4E 54  45 52 50 52 49 53 45 53   SEGA ENTERPRISES
0020 : 53 45 47 41 56 49 45 57  45 52 56 31 2E 30 31 30   SEGAVIEWERV1.010
0030 : 31 39 39 35 30 36 32 31  43 44 2D 31 2F 31 20 20   19950621CD-1/1  
0040 : 4A 54 20 20 20 20 20 20  20 20 20 20 20 20 20 20   JT              
0050 : 4A 20 20 20 20 20 20 20  20 20 20 20 20 20 20 20   J               
0060 : 53 45 47 41 53 41 54 55  52 4E 20 50 48 4F 54 4F   SEGASATURN PHOTO
0070 : 20 43 44 20 4F 50 45 52  41 54 4F 52 20 20 20 20    CD OPERATOR    
0080 : 48 53 53 2D 30 31 32 31  20 20 20 20 20 20 20 20   HSS-0121        
0090 : 20 20 20 20 20 20 20 20  20 20 20 20 20 20 20 20                   
00A0 : 20 20 20 20 20 20 20 20  20 20 20 20 20 20 20 20                   
00B0 : 20 20 20 20 20 20 20 20  20 20 20 20 20 20 20 20                   
00C0 : 20 20 20 20 20 20 20 20  20 20 20 20 20 20 20 20                   
00D0 : 00 00 00 00 00 00 00 00  00 00 00 00 00 00 00 00   ................
00E0 : 00 00 80 00 00 00 00 00  00 00 00 00 00 00 00 00   ................
00F0 : 06 01 00 00 00 00 00 00  00 00 00 00 00 00 00 00   ................

Tracks and Write Offsets:
    DAT:

<rom name="SegaSaturn Photo CD Operator (Track 1).bin" size="4833360" crc="2c9b3b3c" md5="2d05e68359cdb12a61b5c02abfff2078" sha1="75053276c2a6a64452cc796625ef81c2adcd19a0" />
<rom name="SegaSaturn Photo CD Operator (Track 2).bin" size="29915088" crc="1b0bea38" md5="3e9e837bc1ee56b8bd5cbfdcbfab037b" sha1="891af0232626407fce001653940bd36ad31fe582" />
<rom name="SegaSaturn Photo CD Operator (Track 3).bin" size="3880800" crc="9f0c72a9" md5="a0504ac125aabae3312a9f61d0becd00" sha1="eb8a96c9bd1358cc8606e099bad61762df07790a" />

    Cuesheet:

CATALOG 0000000000000
FILE "SegaSaturn Photo CD Operator (Track 1).bin" BINARY
  TRACK 01 MODE1/2352
    INDEX 01 00:00:00
FILE "SegaSaturn Photo CD Operator (Track 2).bin" BINARY
  TRACK 02 MODE2/2352
    INDEX 00 00:00:00
    INDEX 01 00:03:00
FILE "SegaSaturn Photo CD Operator (Track 3).bin" BINARY
  TRACK 03 AUDIO
    INDEX 00 00:00:00
    INDEX 01 00:02:00

    Write Offset: 684

Verifying this database entry: http://redump.org/disc/41102/

Logs URL: https://mega.nz/file/R5R0zJyD#U_q2mJkX9 … WB5Msn55DA

Common Disc Info:
    Title: Saturn CG Selection Vol. 1
    Foreign Title (Non-latin): サターンCGセレクションVol.1
    Disc Number / Letter: 
    Disc Title: 
    System: Sega Saturn
    Media Type: CD-ROM
    Category: Coverdiscs
    Region: Japan
    Languages: Japanese
    Disc Serial: 610-6113

    Ringcode Information:
        Mastering Code (laser branded/etched): 610-6113P00476A-P1K   V
        Mastering SID Code: IFPI L237
        Data-Side Mould SID Code: IFPI 4011
        Label-Side Mould SID Code: (REQUIRED, IF EXISTS)
        Additional Mould: 
        Toolstamp or Mastering Code (engraved/stamped): 12
    Barcode: (OPTIONAL)
    EXE/Build Date: 19950922
    Error Count: 0
    Comments: Internal Serial: J-0101. Bundled with Saturn CG Selection MOOK.
    Contents: 

Version and Editions:
    Version: 1.001
    Edition/Release: Bundled with Book

Extras:
    Primary Volume Descriptor (PVD):

0320 : 20 20 20 20 20 20 20 20  20 20 20 20 20 31 39 39                199
0330 : 35 30 39 32 31 30 30 33  31 34 30 30 30 14 31 39   5092100314000.19
0340 : 39 35 30 39 32 31 30 30  33 31 34 30 30 30 14 30   95092100314000.0
0350 : 30 30 30 30 30 30 30 30  30 30 30 30 30 30 30 00   000000000000000.
0360 : 30 30 30 30 30 30 30 30  30 30 30 30 30 30 30 30   0000000000000000
0370 : 00 01 00 00 00 00 00 00  00 00 00 00 00 00 00 00   ................

    Header:

0000 : 53 45 47 41 20 53 45 47  41 53 41 54 55 52 4E 20   SEGA SEGASATURN 
0010 : 53 45 47 41 20 45 4E 54  45 52 50 52 49 53 45 53   SEGA ENTERPRISES
0020 : 4A 2D 30 31 30 31 20 20  20 20 56 31 2E 30 30 31   J-0101    V1.001
0030 : 31 39 39 35 30 39 32 32  43 44 2D 31 2F 31 20 20   19950922CD-1/1  
0040 : 4A 20 20 20 20 20 20 20  20 20 20 20 20 20 20 20   J               
0050 : 4A 20 20 20 20 20 20 20  20 20 20 20 20 20 20 20   J               
0060 : 43 47 20 53 45 4C 45 43  54 49 4F 4E 20 20 20 20   CG SELECTION    
0070 : 20 20 20 20 20 20 20 20  20 20 20 20 20 20 20 20                   
0080 : 20 20 20 20 20 20 20 20  20 20 20 20 20 20 20 20                   
0090 : 20 20 20 20 20 20 20 20  20 20 20 20 20 20 20 20                   
00A0 : 20 20 20 20 20 20 20 20  20 20 20 20 20 20 20 20                   
00B0 : 20 20 20 20 20 20 20 20  20 20 20 20 20 20 20 20                   
00C0 : 20 20 20 20 20 20 20 20  20 20 20 20 20 20 20 20                   
00D0 : 00 00 00 00 00 00 00 00  00 00 00 00 00 00 00 00   ................
00E0 : 00 00 18 00 00 00 00 00  00 00 00 00 00 00 00 00   ................
00F0 : 06 01 00 00 00 00 00 00  00 00 00 00 00 00 00 00   ................

Tracks and Write Offsets:
    DAT:

<rom name="Saturn CG Selection Vol. 1 (Track 1).bin" size="743232" crc="8671bd1b" md5="c5467afb9748c9c34a3f6da8e6bf45b1" sha1="3b307f01095ff7747b7472c9a3e70b461c5900c1" />
<rom name="Saturn CG Selection Vol. 1 (Track 2).bin" size="509772480" crc="ff67ad05" md5="eaf1b2dcbeb153a103dfdf4dba0373fe" sha1="72f1bffa3b067ddd93c201166c8f6995ba151f2f" />
<rom name="Saturn CG Selection Vol. 1 (Track 3).bin" size="1764000" crc="82437320" md5="e03343a8c9f1853d8af2f154b67e2dac" sha1="8fd42dae3a71212cb64eb8eb2c7c4c8b037ebfbe" />

    Cuesheet:

CATALOG 0000000000000
FILE "Saturn CG Selection Vol. 1 (Track 1).bin" BINARY
  TRACK 01 MODE1/2352
    INDEX 01 00:00:00
FILE "Saturn CG Selection Vol. 1 (Track 2).bin" BINARY
  TRACK 02 MODE2/2352
    INDEX 00 00:00:00
    INDEX 01 00:04:00
FILE "Saturn CG Selection Vol. 1 (Track 3).bin" BINARY
  TRACK 03 AUDIO
    INDEX 00 00:00:00
    INDEX 01 00:02:00

    Write Offset: 390

8

(0 replies, posted in Verifications)

Verifying this database entry: http://redump.org/disc/41900/

Logs URL: https://mega.nz/file/NpBAiDhD#v-2-wKPzM … geKcqy6c38

Common Disc Info:
    Title: Sega Saturn CG Collection
    Foreign Title (Non-latin): セガサターン CGコレクション
    Disc Number / Letter: 
    Disc Title: 
    System: Video CD
    Media Type: CD-ROM
    Category: Multimedia
    Region: Japan
    Languages: Japanese
    Disc Serial: GS-7001

    Ringcode Information:
        Mastering Code (laser branded/etched): GS-7001P-00397-B1K   V
        Mastering SID Code: IFPI L237
        Data-Side Mould SID Code: IFPI 4011
        Label-Side Mould SID Code: (REQUIRED, IF EXISTS)
        Additional Mould: 
        Toolstamp or Mastering Code (engraved/stamped): 11
    Barcode: 4 974365 070014
    Error Count: 0
    Comments: Sega Saturn CG Selection Official VCD.
    Contents: Sega ID: 670-7051

Version and Editions:
    Version: 
    Edition/Release: Original

Extras:
    Primary Volume Descriptor (PVD):

0320 : 20 20 20 20 20 20 20 20  20 20 20 20 20 31 39 39                199
0330 : 35 30 36 32 30 31 39 30  30 30 30 30 30 24 30 30   5062019000000$00
0340 : 30 30 30 30 30 30 30 30  30 30 30 30 30 30 00 30   00000000000000.0
0350 : 30 30 30 30 30 30 30 30  30 30 30 30 30 30 30 00   000000000000000.
0360 : 30 30 30 30 30 30 30 30  30 30 30 30 30 30 30 30   0000000000000000
0370 : 00 01 00 00 00 00 00 00  00 00 00 00 00 00 00 00   ................

Tracks and Write Offsets:
    DAT:

<rom name="Sega Saturn CG Collection (VCD) (Track 01).bin" size="153134016" crc="e6da02db" md5="e6330a4077ff2a15c390853081da6a8b" sha1="4621050a139389eb4f585a0467fa293ba7b44af9" />
<rom name="Sega Saturn CG Collection (VCD) (Track 02).bin" size="39052608" crc="45623962" md5="0d55c213d21e57e9ce1461e1995a815e" sha1="79caa4f54c7e554719dea2fac9a3d756a58c40f8" />
<rom name="Sega Saturn CG Collection (VCD) (Track 03).bin" size="50135232" crc="f05f0835" md5="bfccc353ca63effb993eeb226b8722ae" sha1="09f0b67a6e8515770a46244353cba030207b991f" />
<rom name="Sega Saturn CG Collection (VCD) (Track 04).bin" size="71529024" crc="55b3805d" md5="e76e2438c67ddbf5645ecbe5629d935d" sha1="519e68039e6c8e0d52f210c2110c3047d25153f0" />
<rom name="Sega Saturn CG Collection (VCD) (Track 05).bin" size="13996752" crc="33048bda" md5="fc91bb85ef3127c26c4b068511f8341a" sha1="aa37b166c2dd09bdd2826215cbf73a431fb436cd" />
<rom name="Sega Saturn CG Collection (VCD) (Track 06).bin" size="31629696" crc="f2080069" md5="b2ce2cf0da5870b5a8542131dc5d1a12" sha1="70ba4a80ad6a6c6f0ad9bffdc8c4f841ce8c81fa" />
<rom name="Sega Saturn CG Collection (VCD) (Track 07).bin" size="20055504" crc="5b3ed348" md5="6227161679bdb41fb7bd9fd1a30489bf" sha1="8d4f13bc35760986386e73db5e4ba4b6c8d41122" />
<rom name="Sega Saturn CG Collection (VCD) (Track 08).bin" size="8857632" crc="9e282fc0" md5="05b712eb07585244a82beabbd3be307d" sha1="c02f3bd4bafcc59a613bfdcc27ad2a306677ace6" />
<rom name="Sega Saturn CG Collection (VCD) (Track 09).bin" size="14857584" crc="d0cbf573" md5="9a466871d7f6887992f400c179c24433" sha1="573367bbc5c976506214e26697b0b6cb35dd3b6e" />
<rom name="Sega Saturn CG Collection (VCD) (Track 10).bin" size="12016368" crc="b908bdba" md5="00224a9b5f28ab268dea991765aa065a" sha1="e915b5fcbf2e943b4c5ecb1ac23e52d6265ed28a" />
<rom name="Sega Saturn CG Collection (VCD) (Track 11).bin" size="21118608" crc="49fb9e2d" md5="92c671a82af7fbbe6f1cc0b210d9cd7f" sha1="854affa6aa928b2d16de500b3e3e9ca73e64220c" />
<rom name="Sega Saturn CG Collection (VCD) (Track 12).bin" size="4967424" crc="9c9ec502" md5="ac755a5201a90c6e452085a97a3959bc" sha1="416ff0b6941fd5cfb43ab5ce91ea2f5d60143116" />
<rom name="Sega Saturn CG Collection (VCD) (Track 13).bin" size="12571440" crc="592b862f" md5="b15f427d886d0f637d47ecafb18bbec9" sha1="760569c85267ebb95e4d2abc065d05fb3d6e1a42" />

    Cuesheet:

CATALOG 0000000000000
FILE "Sega Saturn CG Collection (VCD) (Track 01).bin" BINARY
  TRACK 01 MODE2/2352
    INDEX 01 00:00:00
FILE "Sega Saturn CG Collection (VCD) (Track 02).bin" BINARY
  TRACK 02 MODE2/2352
    INDEX 00 00:00:00
    INDEX 01 00:02:01
FILE "Sega Saturn CG Collection (VCD) (Track 03).bin" BINARY
  TRACK 03 MODE2/2352
    INDEX 00 00:00:00
    INDEX 01 00:02:01
FILE "Sega Saturn CG Collection (VCD) (Track 04).bin" BINARY
  TRACK 04 MODE2/2352
    INDEX 00 00:00:00
    INDEX 01 00:02:01
FILE "Sega Saturn CG Collection (VCD) (Track 05).bin" BINARY
  TRACK 05 MODE2/2352
    INDEX 00 00:00:00
    INDEX 01 00:02:01
FILE "Sega Saturn CG Collection (VCD) (Track 06).bin" BINARY
  TRACK 06 MODE2/2352
    INDEX 00 00:00:00
    INDEX 01 00:02:01
FILE "Sega Saturn CG Collection (VCD) (Track 07).bin" BINARY
  TRACK 07 MODE2/2352
    INDEX 00 00:00:00
    INDEX 01 00:02:01
FILE "Sega Saturn CG Collection (VCD) (Track 08).bin" BINARY
  TRACK 08 MODE2/2352
    INDEX 00 00:00:00
    INDEX 01 00:02:01
FILE "Sega Saturn CG Collection (VCD) (Track 09).bin" BINARY
  TRACK 09 MODE2/2352
    INDEX 00 00:00:00
    INDEX 01 00:02:01
FILE "Sega Saturn CG Collection (VCD) (Track 10).bin" BINARY
  TRACK 10 MODE2/2352
    INDEX 00 00:00:00
    INDEX 01 00:02:01
FILE "Sega Saturn CG Collection (VCD) (Track 11).bin" BINARY
  TRACK 11 MODE2/2352
    INDEX 00 00:00:00
    INDEX 01 00:02:01
FILE "Sega Saturn CG Collection (VCD) (Track 12).bin" BINARY
  TRACK 12 MODE2/2352
    INDEX 00 00:00:00
    INDEX 01 00:02:01
FILE "Sega Saturn CG Collection (VCD) (Track 13).bin" BINARY
  TRACK 13 MODE2/2352
    INDEX 00 00:00:00
    INDEX 01 00:02:01

    Write Offset: 222

Verifying this database entry: http://redump.org/disc/62952/
(The later version of the disc with "BuG!" included as playable demo.)

Logs URL: https://mega.nz/file/BxwmkYiZ#HYrdp5drQ … uDRMygkNHk

Common Disc Info:
    Title: Bootleg Sampler
    Foreign Title (Non-latin): 
    Disc Number / Letter: 
    Disc Title: 
    System: Sega Saturn
    Media Type: CD-ROM
    Category: Demos
    Region: USA
    Languages: English
    Disc Serial: 81031

    Ringcode Information:
        Mastering Code (laser branded/etched): 1008681031-2 1S
        Mastering SID Code: IFPI L433
        Data-Side Mould SID Code: IFPI 7453
        Label-Side Mould SID Code: (REQUIRED, IF EXISTS)
        Additional Mould: 
        Toolstamp or Mastering Code (engraved/stamped): 11/95 1SA1
    Barcode: 
    EXE/Build Date: 19951102
    Error Count: 0
    Comments: Internal Serial: MK-81031
    Contents:

Playable Demos:
World Series Baseball
Sega Rally Championship
Clockwork Knight II
Bug!
Videos:
Virtua Fighter 2
Virtua Cop
Mystaria
Wing Arms
NHL All-Star Hockey
Panzer Dragoon
Daytona USA
More Games! (A video showing then upcoming games)

Version and Editions:
    Version: 2.009 
    Edition/Release: Not for Resale

Extras:
    Primary Volume Descriptor (PVD):

0320 : 20 20 20 20 20 20 20 20  20 20 20 20 20 31 39 39                199
0330 : 35 31 31 30 33 31 38 32  30 35 33 30 30 14 31 39   5110318205300.19
0340 : 39 35 31 31 30 33 31 38  32 30 35 33 30 30 14 30   95110318205300.0
0350 : 30 30 30 30 30 30 30 30  30 30 30 30 30 30 30 00   000000000000000.
0360 : 30 30 30 30 30 30 30 30  30 30 30 30 30 30 30 30   0000000000000000
0370 : 00 01 00 00 00 00 00 00  00 00 00 00 00 00 00 00   ................

    Header:

0000 : 53 45 47 41 20 53 45 47  41 53 41 54 55 52 4E 20   SEGA SEGASATURN 
0010 : 53 45 47 41 20 45 4E 54  45 52 50 52 49 53 45 53   SEGA ENTERPRISES
0020 : 4D 4B 2D 38 31 30 33 31  20 56 32 2E 30 30 39 20   MK-81031 V2.009 
0030 : 31 39 39 35 31 31 30 32  43 44 2D 31 2F 31 20 20   19951102CD-1/1  
0040 : 55 54 20 20 20 20 20 20  20 20 20 20 20 20 20 20   UT              
0050 : 4A 20 20 20 20 20 20 20  20 20 20 20 20 20 20 20   J               
0060 : 42 4F 4F 54 4C 45 47 20  53 41 4D 50 4C 45 52 20   BOOTLEG SAMPLER 
0070 : 20 20 20 20 20 20 20 20  20 20 20 20 20 20 20 20                   
0080 : 20 20 20 20 20 20 20 20  20 20 20 20 20 20 20 20                   
0090 : 20 20 20 20 20 20 20 20  20 20 20 20 20 20 20 20                   
00A0 : 20 20 20 20 20 20 20 20  20 20 20 20 20 20 20 20                   
00B0 : 20 20 20 20 20 20 20 20  20 20 20 20 20 20 20 20                   
00C0 : 20 20 20 20 20 20 20 20  20 20 20 20 20 20 20 20                   
00D0 : 00 00 00 00 00 00 00 00  00 00 00 00 00 00 00 00   ................
00E0 : 00 00 10 00 00 00 00 00  00 00 00 00 00 00 00 00   ................
00F0 : 06 03 00 00 00 01 00 00  00 00 00 00 00 00 00 00   ................

Tracks and Write Offsets:
    DAT:

<rom name="Bootleg Sampler (NTSC-U Ver. 2) (Track 01).bin" size="365390256" crc="a1900116" md5="e614855a52b946a3abe7147fa5c33265" sha1="741e9ebc9606fb34c1fea7d7bb797dad3aa88618" />
<rom name="Bootleg Sampler (NTSC-U Ver. 2) (Track 02).bin" size="1764000" crc="2cf9b28b" md5="20ec6103997da4b63436bcf47ba40cd9" sha1="d747a85d5acae36b2bab10f09ccdbeff005f570d" />
<rom name="Bootleg Sampler (NTSC-U Ver. 2) (Track 03).bin" size="2436672" crc="feca9d12" md5="bd00983d1cbdfdb8b6b752d8f48621a4" sha1="8f1c284d6ba121f8702428616cfbfc3cac53b56b" />
<rom name="Bootleg Sampler (NTSC-U Ver. 2) (Track 04).bin" size="2678928" crc="14b4b517" md5="df416b3cece6414d4b4494d6bb248b95" sha1="01c313d3aa562efb2179f5f89810aab1f9011c8a" />
<rom name="Bootleg Sampler (NTSC-U Ver. 2) (Track 05).bin" size="2643648" crc="c1261151" md5="21183545de3a796e6cf6035a3436f08a" sha1="2d924929b92fb79e2d6f129bb960edde8a026295" />
<rom name="Bootleg Sampler (NTSC-U Ver. 2) (Track 06).bin" size="45574704" crc="adda6eb6" md5="8dfe7245d18007401ba4b86f3d7077d4" sha1="57b4ac7b4b8c3a4c4da172b73ca0a1973bd2588e" />
<rom name="Bootleg Sampler (NTSC-U Ver. 2) (Track 07).bin" size="40786032" crc="9a0a38ad" md5="a091268c7c038c1c702d8c9db831bee0" sha1="baa1a4c857b155769b13fd6a12d677953bc262e5" />
<rom name="Bootleg Sampler (NTSC-U Ver. 2) (Track 08).bin" size="7121856" crc="1894c05b" md5="59d7b2b4f24764b0ec1359094b0b5e74" sha1="e463bc6828c51dd2d7b42da1df7defa7707341a4" />
<rom name="Bootleg Sampler (NTSC-U Ver. 2) (Track 09).bin" size="23141328" crc="5f47e605" md5="365e11022307480349faa57182202f3d" sha1="ae4f33a8e26c07998e6e74363c6438179241fc01" />
<rom name="Bootleg Sampler (NTSC-U Ver. 2) (Track 10).bin" size="1411200" crc="b41a71f8" md5="7ea90da2645e79b4431a23ee946edcf6" sha1="f1d1a9361f76f8e0229f0cc1cfde97393caa4f24" />
<rom name="Bootleg Sampler (NTSC-U Ver. 2) (Track 11).bin" size="1411200" crc="488240d1" md5="17465ba01c67948fb5dc24a7dc7734d2" sha1="b88c7098bde0fe47b144de539043960bcd1d9b47" />
<rom name="Bootleg Sampler (NTSC-U Ver. 2) (Track 12).bin" size="1411200" crc="90f5257c" md5="22e011e6f45b3a055d7ba2be5c42f123" sha1="b223f8c3f670e6d33c393814efa1c0b9c39f56b2" />
<rom name="Bootleg Sampler (NTSC-U Ver. 2) (Track 13).bin" size="1411200" crc="d3ac2d4a" md5="7ad009378aa790df58a82804327b8e82" sha1="94296163c05769fd791c68cab7d4ff49fd2c7b47" />
<rom name="Bootleg Sampler (NTSC-U Ver. 2) (Track 14).bin" size="1411200" crc="1ee90490" md5="7c9c51f3e01d3b3d7779f832ae34e6e2" sha1="74674cd2f7ce156efc3ad76717556ea29152e04f" />
<rom name="Bootleg Sampler (NTSC-U Ver. 2) (Track 15).bin" size="1058400" crc="fc3b5675" md5="357f595aa745a70a1bb9e9b196ab3e6b" sha1="5f99e66ddc4434dc54de2ec5e619a0109d3c0bc6" />

    Cuesheet:

CATALOG 0000000000000
FILE "Bootleg Sampler (NTSC-U Ver. 2) (Track 01).bin" BINARY
  TRACK 01 MODE1/2352
    INDEX 01 00:00:00
FILE "Bootleg Sampler (NTSC-U Ver. 2) (Track 02).bin" BINARY
  TRACK 02 AUDIO
    INDEX 00 00:00:00
    INDEX 01 00:01:74
FILE "Bootleg Sampler (NTSC-U Ver. 2) (Track 03).bin" BINARY
  TRACK 03 AUDIO
    INDEX 00 00:00:00
    INDEX 01 00:02:00
FILE "Bootleg Sampler (NTSC-U Ver. 2) (Track 04).bin" BINARY
  TRACK 04 AUDIO
    INDEX 00 00:00:00
    INDEX 01 00:02:00
FILE "Bootleg Sampler (NTSC-U Ver. 2) (Track 05).bin" BINARY
  TRACK 05 AUDIO
    INDEX 00 00:00:00
    INDEX 01 00:02:00
FILE "Bootleg Sampler (NTSC-U Ver. 2) (Track 06).bin" BINARY
  TRACK 06 AUDIO
    INDEX 00 00:00:00
    INDEX 01 00:02:00
FILE "Bootleg Sampler (NTSC-U Ver. 2) (Track 07).bin" BINARY
  TRACK 07 AUDIO
    INDEX 00 00:00:00
    INDEX 01 00:02:00
FILE "Bootleg Sampler (NTSC-U Ver. 2) (Track 08).bin" BINARY
  TRACK 08 AUDIO
    INDEX 00 00:00:00
    INDEX 01 00:02:00
FILE "Bootleg Sampler (NTSC-U Ver. 2) (Track 09).bin" BINARY
  TRACK 09 AUDIO
    INDEX 00 00:00:00
    INDEX 01 00:02:00
FILE "Bootleg Sampler (NTSC-U Ver. 2) (Track 10).bin" BINARY
  TRACK 10 AUDIO
    INDEX 00 00:00:00
    INDEX 01 00:02:00
FILE "Bootleg Sampler (NTSC-U Ver. 2) (Track 11).bin" BINARY
  TRACK 11 AUDIO
    INDEX 00 00:00:00
    INDEX 01 00:02:00
FILE "Bootleg Sampler (NTSC-U Ver. 2) (Track 12).bin" BINARY
  TRACK 12 AUDIO
    INDEX 00 00:00:00
    INDEX 01 00:02:00
FILE "Bootleg Sampler (NTSC-U Ver. 2) (Track 13).bin" BINARY
  TRACK 13 AUDIO
    INDEX 00 00:00:00
    INDEX 01 00:02:00
FILE "Bootleg Sampler (NTSC-U Ver. 2) (Track 14).bin" BINARY
  TRACK 14 AUDIO
    INDEX 00 00:00:00
    INDEX 01 00:02:00
FILE "Bootleg Sampler (NTSC-U Ver. 2) (Track 15).bin" BINARY
  TRACK 15 AUDIO
    INDEX 00 00:00:00
    INDEX 01 00:02:00

    Write Offset: 222

Verifying this database entry: http://redump.org/disc/14129/
(The earlier version of the disc with "BuG!" included as JUST a video preview.)

Logs URL: https://mega.nz/file/Q5ZzkaiS#tUvZ1Cgsu … Zw5byebrPI

Common Disc Info:
    Title: Bootleg Sampler
    Foreign Title (Non-latin): 
    Disc Number / Letter: 
    Disc Title: 
    System: Sega Saturn
    Media Type: CD-ROM
    Category: Demos
    Region: USA
    Languages: English
    Disc Serial: 81031

    Ringcode Information:
        Mastering Code (laser branded/etched): *9S*   1008681031
        Mastering SID Code:  IFPI L433
        Data-Side Mould SID Code: 
        Label-Side Mould SID Code: (REQUIRED, IF EXISTS)
        Additional Mould: 
        Toolstamp or Mastering Code (engraved/stamped): A3
    Barcode: 
    EXE/Build Date: 19951026
    Error Count: 0
    Comments: Internal Serial: MK-81031
    Contents:

Demos:
World Series Baseball
SEGA Rally Championship
Clockwork Knight II
Videos:
Bug!
Virtua Cop
Mystaria
Wing Arms
NHL All-Star Hockey
Panzer Dragoon
Daytona USA
More Games! (A video showing then upcoming games)

Version and Editions:
    Version: 1.006 
    Edition/Release:  Not for Resale

Extras:
    Primary Volume Descriptor (PVD):

0320 : 20 20 20 20 20 20 20 20  20 20 20 20 20 31 39 39                199
0330 : 35 31 30 32 36 31 33 32  35 35 34 30 30 14 31 39   5102613255400.19
0340 : 39 35 31 30 32 36 31 33  32 35 35 34 30 30 14 30   95102613255400.0
0350 : 30 30 30 30 30 30 30 30  30 30 30 30 30 30 30 00   000000000000000.
0360 : 30 30 30 30 30 30 30 30  30 30 30 30 30 30 30 30   0000000000000000
0370 : 00 01 00 00 00 00 00 00  00 00 00 00 00 00 00 00   ................

    Header:

0000 : 53 45 47 41 20 53 45 47  41 53 41 54 55 52 4E 20   SEGA SEGASATURN 
0010 : 53 45 47 41 20 45 4E 54  45 52 50 52 49 53 45 53   SEGA ENTERPRISES
0020 : 4D 4B 2D 38 31 30 33 31  20 56 31 2E 30 30 36 20   MK-81031 V1.006 
0030 : 31 39 39 35 31 30 32 36  43 44 2D 31 2F 31 20 20   19951026CD-1/1  
0040 : 55 54 20 20 20 20 20 20  20 20 20 20 20 20 20 20   UT              
0050 : 4A 20 20 20 20 20 20 20  20 20 20 20 20 20 20 20   J               
0060 : 42 4F 4F 54 4C 45 47 20  53 41 4D 50 4C 45 52 20   BOOTLEG SAMPLER 
0070 : 20 20 20 20 20 20 20 20  20 20 20 20 20 20 20 20                   
0080 : 20 20 20 20 20 20 20 20  20 20 20 20 20 20 20 20                   
0090 : 20 20 20 20 20 20 20 20  20 20 20 20 20 20 20 20                   
00A0 : 20 20 20 20 20 20 20 20  20 20 20 20 20 20 20 20                   
00B0 : 20 20 20 20 20 20 20 20  20 20 20 20 20 20 20 20                   
00C0 : 20 20 20 20 20 20 20 20  20 20 20 20 20 20 20 20                   
00D0 : 00 00 00 00 00 00 00 00  00 00 00 00 00 00 00 00   ................
00E0 : 00 00 10 00 00 00 00 00  00 00 00 00 00 00 00 00   ................
00F0 : 06 03 00 00 00 01 00 00  00 00 00 00 00 00 00 00   ................

Tracks and Write Offsets:
    DAT:

<rom name="Bootleg Sampler (NTSC-U Ver. 1) (Track 1).bin" size="328343904" crc="8491571e" md5="f210849659298ec9900567c9da3ddf8b" sha1="f76d3df80bac3b5507d35df4a94357577bc02140" />
<rom name="Bootleg Sampler (NTSC-U Ver. 1) (Track 2).bin" size="1413552" crc="cd485e90" md5="feb2dfe3d89f251d9eb08ae8fe0bbad5" sha1="c21bd767993ea9f6d2dec8342dff398040ed1eb0" />
<rom name="Bootleg Sampler (NTSC-U Ver. 1) (Track 3).bin" size="2083872" crc="b3a3b38f" md5="453c99998bccf4f9a4a986b213f3aed7" sha1="f6245537b3b235956624df568e73aba6d912e88d" />
<rom name="Bootleg Sampler (NTSC-U Ver. 1) (Track 4).bin" size="2326128" crc="ff761350" md5="203781c9472a5f9ab19112498fae7ce8" sha1="6b81e1280f3e3e00b341e5de10e165944b2bf38b" />
<rom name="Bootleg Sampler (NTSC-U Ver. 1) (Track 5).bin" size="2290848" crc="54d4fa76" md5="6a836a4fe5a1288749172bec7fcba56c" sha1="4a21bf6804168ec5c0ea15923056d6fb2930b452" />
<rom name="Bootleg Sampler (NTSC-U Ver. 1) (Track 6).bin" size="45221904" crc="7f69164f" md5="897b30af32abfe7d637885a5d3496942" sha1="384331acae758e213ac5cb2de671c7e2301ceb68" />
<rom name="Bootleg Sampler (NTSC-U Ver. 1) (Track 7).bin" size="40433232" crc="323c44d4" md5="f574715b3ef9579796a68f62775480fc" sha1="68621ae3e2a12c267d6f6cfe9e932d9eaaf61ab9" />
<rom name="Bootleg Sampler (NTSC-U Ver. 1) (Track 8).bin" size="6769056" crc="98f2ff1c" md5="fab96d00109d763684bc2c33e64218e5" sha1="523cf7404f6bd6c99ede712c55f15a1e8513e7d3" />

    Cuesheet:

FILE "Bootleg Sampler (NTSC-U Ver. 1) (Track 1).bin" BINARY
  TRACK 01 MODE1/2352
    INDEX 01 00:00:00
FILE "Bootleg Sampler (NTSC-U Ver. 1) (Track 2).bin" BINARY
  TRACK 02 AUDIO
    INDEX 00 00:00:00
    INDEX 01 00:02:00
FILE "Bootleg Sampler (NTSC-U Ver. 1) (Track 3).bin" BINARY
  TRACK 03 AUDIO
    INDEX 00 00:00:00
    INDEX 01 00:02:00
FILE "Bootleg Sampler (NTSC-U Ver. 1) (Track 4).bin" BINARY
  TRACK 04 AUDIO
    INDEX 00 00:00:00
    INDEX 01 00:02:00
FILE "Bootleg Sampler (NTSC-U Ver. 1) (Track 5).bin" BINARY
  TRACK 05 AUDIO
    INDEX 00 00:00:00
    INDEX 01 00:02:00
FILE "Bootleg Sampler (NTSC-U Ver. 1) (Track 6).bin" BINARY
  TRACK 06 AUDIO
    INDEX 00 00:00:00
    INDEX 01 00:02:00
FILE "Bootleg Sampler (NTSC-U Ver. 1) (Track 7).bin" BINARY
  TRACK 07 AUDIO
    INDEX 00 00:00:00
    INDEX 01 00:02:00
FILE "Bootleg Sampler (NTSC-U Ver. 1) (Track 8).bin" BINARY
  TRACK 08 AUDIO
    INDEX 00 00:00:00
    INDEX 01 00:02:00

    Write Offset: 588

11

(0 replies, posted in Verifications)

Verifying this database entry: http://redump.org/disc/41383/
(The "Bundled with Issue 3 of UK Sega Saturn Magazine. CD Made in USA." version of the disc.)

Logs URL: https://mega.nz/file/hsYAxZhY#2_US4Ie6L … KlJ50Db1os

Common Disc Info:
    Title: Bootleg Sampler
    Foreign Title (Non-latin): 
    Disc Number / Letter: 
    Disc Title: 
    System: Sega Saturn
    Media Type: CD-ROM
    Category: Demos
    Region: Europe
    Languages: English
    Disc Serial: 610-6165

    Ringcode Information:
        Mastering Code (laser branded/etched): MK-81031P-606
        Mastering SID Code: IFPI L433
        Data-Side Mould SID Code: 
        Label-Side Mould SID Code: (REQUIRED, IF EXISTS)
        Additional Mould: 
        Toolstamp or Mastering Code (engraved/stamped): 11/95 3SA1
    Barcode: 
    EXE/Build Date: 199    51107
    Error Count: 0
    Comments:

Internal Serial: MK-81031. Bundled with Issue 3 of UK Sega Saturn Magazine.
CD Made in USA.

    Contents:

Playable Demos (4):
- World Series Baseball
- Sega Rally Championship
- Clockwork Knight 2
- Bug!
Non-playable Demos (8):
- Virtua Fighter 2
- Virtua Cop
- Mystaria - The Realms of Lore
- Wing Arms
- NHL All-Star Hockey
- Panzer Dragoon
- Daytona USA
- A medley of Ghen War, Cyber Speedway, Virtua Fighter Remix, Black Fire, Astal, Mr. Bones, CONGO The Movie - The Lost City of Zinj and The Mansion of Hidden Souls

Version and Editions:
    Version: 1.000 
    Edition/Release: Bundled with Magazine

Extras:
    Primary Volume Descriptor (PVD):

0320 : 20 20 20 20 20 20 20 20  20 20 20 20 20 31 39 39                199
0330 : 35 31 31 30 37 31 37 30  35 31 30 30 30 14 31 39   5110717051000.19
0340 : 39 35 31 31 30 37 31 37  30 35 31 30 30 30 14 30   95110717051000.0
0350 : 30 30 30 30 30 30 30 30  30 30 30 30 30 30 30 00   000000000000000.
0360 : 30 30 30 30 30 30 30 30  30 30 30 30 30 30 30 30   0000000000000000
0370 : 00 01 00 00 00 00 00 00  00 00 00 00 00 00 00 00   ................

    Header:

0000 : 53 45 47 41 20 53 45 47  41 53 41 54 55 52 4E 20   SEGA SEGASATURN 
0010 : 53 45 47 41 20 45 4E 54  45 52 50 52 49 53 45 53   SEGA ENTERPRISES
0020 : 4D 4B 2D 38 31 30 33 31  20 56 31 2E 30 30 30 20   MK-81031 V1.000 
0030 : 31 39 39 35 31 31 30 37  43 44 2D 31 2F 31 20 20   19951107CD-1/1  
0040 : 45 20 20 20 20 20 20 20  20 20 20 20 20 20 20 20   E               
0050 : 4A 20 20 20 20 20 20 20  20 20 20 20 20 20 20 20   J               
0060 : 42 4F 4F 54 4C 45 47 20  53 41 4D 50 4C 45 52 20   BOOTLEG SAMPLER 
0070 : 20 20 20 20 20 20 20 20  20 20 20 20 20 20 20 20                   
0080 : 20 20 20 20 20 20 20 20  20 20 20 20 20 20 20 20                   
0090 : 20 20 20 20 20 20 20 20  20 20 20 20 20 20 20 20                   
00A0 : 20 20 20 20 20 20 20 20  20 20 20 20 20 20 20 20                   
00B0 : 20 20 20 20 20 20 20 20  20 20 20 20 20 20 20 20                   
00C0 : 20 20 20 20 20 20 20 20  20 20 20 20 20 20 20 20                   
00D0 : 00 00 00 00 00 00 00 00  00 00 00 00 00 00 00 00   ................
00E0 : 00 00 10 00 00 00 00 00  00 00 00 00 00 00 00 00   ................
00F0 : 06 03 00 00 00 01 00 00  00 00 00 00 00 00 00 00   ................

Tracks and Write Offsets:
    DAT:

<rom name="Bootleg Sampler (PAL Ver.) (Track 01).bin" size="365526672" crc="8f23f3a3" md5="f1d6d551f55de7c29655b1cb16dd320b" sha1="4b9bfb3121ab947defaf7de44330a71d531076a6" />
<rom name="Bootleg Sampler (PAL Ver.) (Track 02).bin" size="1411200" crc="054a9065" md5="f3b3f132709f434473d05afe450a3f47" sha1="7eb7754f3e2a849a39e4eae63235a246f2029c07" />
<rom name="Bootleg Sampler (PAL Ver.) (Track 03).bin" size="2083872" crc="5bd78c7f" md5="bc00ca74189555a3cfd207fb599f0ce0" sha1="43b633abf2d6d1d0e6f523f9ae995df60b60d93c" />
<rom name="Bootleg Sampler (PAL Ver.) (Track 04).bin" size="2326128" crc="a578929b" md5="b54f9c58361f4cb7a910cfb6d5b057ef" sha1="1973421dbe5d04bf060a991ab9bf17d388be4d1d" />
<rom name="Bootleg Sampler (PAL Ver.) (Track 05).bin" size="2290848" crc="ded31706" md5="3eb131c9e2d80d11ec8ac178b82de88e" sha1="d8825a413a51d7668ce43b9d830d8bdaa0393afa" />
<rom name="Bootleg Sampler (PAL Ver.) (Track 06).bin" size="45221904" crc="24834696" md5="d56846fd19f01c5505dfe8f2281a7b76" sha1="4e070d24c5cccffce5a0a614ad8e64dcc024ff15" />
<rom name="Bootleg Sampler (PAL Ver.) (Track 07).bin" size="40433232" crc="37f55ca1" md5="1a6f2fa89c11b21b05972a889500ce24" sha1="8431a2fc0bfc754bebcc0848654df0b36b0db12d" />
<rom name="Bootleg Sampler (PAL Ver.) (Track 08).bin" size="6769056" crc="62c637d2" md5="4c6e6c3e1c41f8c12b27d8ce313d82b7" sha1="55ed1155f4201d6048c1aa9ec14040c0781dc347" />
<rom name="Bootleg Sampler (PAL Ver.) (Track 09).bin" size="22788528" crc="70a92c6d" md5="df61b8cd902b7d0ffd13dd0863a7a59e" sha1="a93b95e44e9068e12671935ce7f47eb27d6adf91" />
<rom name="Bootleg Sampler (PAL Ver.) (Track 10).bin" size="1058400" crc="eb0199f2" md5="fb22360f937cebc3387ab034968493ed" sha1="20d08397628b597fab82af07def649daa3a11af1" />
<rom name="Bootleg Sampler (PAL Ver.) (Track 11).bin" size="1058400" crc="a2dff0ed" md5="fd73c8a4cc37fc598c25308544bb4c74" sha1="0e15e8460d1c9314c73157603ba235fa2eb772ba" />
<rom name="Bootleg Sampler (PAL Ver.) (Track 12).bin" size="1058400" crc="1af82ae5" md5="5f7d54a64659c15417420ae1f25b78ef" sha1="0f518f895c7f82d9835d07299e86c56e52df917f" />
<rom name="Bootleg Sampler (PAL Ver.) (Track 13).bin" size="1058400" crc="f594d453" md5="4494b06431aac498e862e54a54ed5d27" sha1="b0560fc84def5934dcbefbf098b5d20896926e60" />
<rom name="Bootleg Sampler (PAL Ver.) (Track 14).bin" size="1058400" crc="fdb6a37a" md5="36adbcbca4e913cdd0c235cb005741a6" sha1="a625d3729104686f9c5c3d0bef2541de09d6c7dd" />
<rom name="Bootleg Sampler (PAL Ver.) (Track 15).bin" size="1058400" crc="e5674694" md5="5ccf1852639df0f6447197fcde07d8aa" sha1="42d5ca8408e682d9d02784da0f9b031d30501df6" />

    Cuesheet:

CATALOG 0000000000000
FILE "Bootleg Sampler (PAL Ver.) (Track 01).bin" BINARY
  TRACK 01 MODE1/2352
    INDEX 01 00:00:00
FILE "Bootleg Sampler (PAL Ver.) (Track 02).bin" BINARY
  TRACK 02 AUDIO
    INDEX 00 00:00:00
    INDEX 01 00:01:74
FILE "Bootleg Sampler (PAL Ver.) (Track 03).bin" BINARY
  TRACK 03 AUDIO
    INDEX 00 00:00:00
    INDEX 01 00:02:00
FILE "Bootleg Sampler (PAL Ver.) (Track 04).bin" BINARY
  TRACK 04 AUDIO
    INDEX 00 00:00:00
    INDEX 01 00:02:00
FILE "Bootleg Sampler (PAL Ver.) (Track 05).bin" BINARY
  TRACK 05 AUDIO
    INDEX 00 00:00:00
    INDEX 01 00:02:00
FILE "Bootleg Sampler (PAL Ver.) (Track 06).bin" BINARY
  TRACK 06 AUDIO
    INDEX 00 00:00:00
    INDEX 01 00:02:00
FILE "Bootleg Sampler (PAL Ver.) (Track 07).bin" BINARY
  TRACK 07 AUDIO
    INDEX 00 00:00:00
    INDEX 01 00:02:00
FILE "Bootleg Sampler (PAL Ver.) (Track 08).bin" BINARY
  TRACK 08 AUDIO
    INDEX 00 00:00:00
    INDEX 01 00:02:00
FILE "Bootleg Sampler (PAL Ver.) (Track 09).bin" BINARY
  TRACK 09 AUDIO
    INDEX 00 00:00:00
    INDEX 01 00:02:00
FILE "Bootleg Sampler (PAL Ver.) (Track 10).bin" BINARY
  TRACK 10 AUDIO
    INDEX 00 00:00:00
    INDEX 01 00:02:00
FILE "Bootleg Sampler (PAL Ver.) (Track 11).bin" BINARY
  TRACK 11 AUDIO
    INDEX 00 00:00:00
    INDEX 01 00:02:00
FILE "Bootleg Sampler (PAL Ver.) (Track 12).bin" BINARY
  TRACK 12 AUDIO
    INDEX 00 00:00:00
    INDEX 01 00:02:00
FILE "Bootleg Sampler (PAL Ver.) (Track 13).bin" BINARY
  TRACK 13 AUDIO
    INDEX 00 00:00:00
    INDEX 01 00:02:00
FILE "Bootleg Sampler (PAL Ver.) (Track 14).bin" BINARY
  TRACK 14 AUDIO
    INDEX 00 00:00:00
    INDEX 01 00:02:00
FILE "Bootleg Sampler (PAL Ver.) (Track 15).bin" BINARY
  TRACK 15 AUDIO
    INDEX 00 00:00:00
    INDEX 01 00:02:00

    Write Offset: 222

12

(2 replies, posted in Verifications)

Dump 2
Logs URL: https://mega.nz/file/MgwAkBDS#KQzMh12MN … EZPHoUECs8

Common Disc Info:
    Title: Saturn Super Vol. 1
    Foreign Title (Non-latin): サターン・スーパーVol.1
    Disc Number / Letter: 
    Disc Title: 
    System: Sega Saturn
    Media Type: CD-ROM
    Category: Coverdiscs
    Region: Japan
    Languages: Japanese
    Disc Serial: 610-6020-01

    Ringcode Information:
        Mastering Code (laser branded/etched): 610-6020P-00388   7MM1   C   56
        Mastering SID Code: IFPI L223
        Data-Side Mould SID Code: IFPI 3905
        Label-Side Mould SID Code: (REQUIRED, IF EXISTS)
        Additional Mould: 
        Toolstamp or Mastering Code (engraved/stamped): 
    Barcode: 
    EXE/Build Date: 19950615
    Error Count: 0
    Comments: Internal Serial: 610602001. Bundled with the Volume 1 of Saturn Super magazine.
    Contents:

Playable Demos:
Wing Arms (Very Early Build)
Race Drivin’ (30 Second Playtime)
World Advanced Daisenryaku: Koutetsu no Senpuu (Opening CG)

Video Demos:
Riglord Saga
Clockwork Knight: Pepperouchau no Daibouken Gekan
X-Men: Children of the Atom
Gakkou no Kaidan
Fire Pro Gaiden: Blazing Tornado
Suiko Enbu
Virtual Volleyball
Moero!! Pro Yakyuu '95: Double Header
Metal Fighter MIKU
Lupin the 3rd: The Master File
D no Shokutaku
Princess Maker 2
Puyo Puyo 2
SteamGear Mash
Layer Section
Golden Axe: The Duel
Virtua Fighter Remix

Original Demos:
Shining Wisdom
Detana Twinbee Yahoo! Deluxe Pack
Gakkou no Kowai Uwasa: Hanako-san ga Kita!!
Jikkyou Powerful Pro Yakyuu '95 Kaimaku-ban
Tokimeki Memorial: Forever With You
King of Boxing
Street Fighter: Real Battle On Film
Street Fighter II Movie
QuoVadis
SimCity 2000
Shin Megami Tensei: Devil Summoner
Tengai Makyō: Daiyon no Mokushiroku

Arcade Videos:
Virtua Fighter 2
Sega Rally
Virtua Cop
Virtua Striker

Version and Editions:
    Version: 1.000
    Edition/Release: Bundled with Magazine

Extras:
    Primary Volume Descriptor (PVD):

0320 : 20 20 20 20 20 20 20 20  20 20 20 20 20 31 39 39                199
0330 : 35 30 36 31 34 32 32 33  39 35 34 30 30 14 31 39   5061422395400.19
0340 : 39 35 30 36 31 34 32 32  33 39 35 34 30 30 14 30   95061422395400.0
0350 : 30 30 30 30 30 30 30 30  30 30 30 30 30 30 30 00   000000000000000.
0360 : 30 30 30 30 30 30 30 30  30 30 30 30 30 30 30 30   0000000000000000
0370 : 00 01 00 00 00 00 00 00  00 00 00 00 00 00 00 00   ................

    Header:

0000 : 53 45 47 41 20 53 45 47  41 53 41 54 55 52 4E 20   SEGA SEGASATURN 
0010 : 53 45 47 41 20 54 50 20  54 2D 32 35 35 20 20 20   SEGA TP T-255   
0020 : 36 31 30 36 30 32 30 30  31 20 56 31 2E 30 30 30   610602001 V1.000
0030 : 31 39 39 35 30 36 31 35  43 44 2D 31 2F 31 20 20   19950615CD-1/1  
0040 : 4A 20 20 20 20 20 20 20  20 20 20 20 20 20 20 20   J               
0050 : 4A 20 20 20 20 20 20 20  20 20 20 20 20 20 20 20   J               
0060 : 53 41 54 55 52 4E 20 53  55 50 45 52 20 20 20 20   SATURN SUPER    
0070 : 20 20 20 20 20 20 20 20  20 20 20 20 20 20 20 20                   
0080 : 20 20 20 20 20 20 20 20  20 20 20 20 20 20 20 20                   
0090 : 20 20 20 20 20 20 20 20  20 20 20 20 20 20 20 20                   
00A0 : 20 20 20 20 20 20 20 20  20 20 20 20 20 20 20 20                   
00B0 : 20 20 20 20 20 20 20 20  20 20 20 20 20 20 20 20                   
00C0 : 20 20 20 20 20 20 20 20  20 20 20 20 20 20 20 20                   
00D0 : 00 00 00 00 00 00 00 00  00 00 00 00 00 00 00 00   ................
00E0 : 00 00 18 00 00 00 00 00  00 00 00 00 00 00 00 00   ................
00F0 : 06 01 00 00 00 00 00 00  00 00 00 00 00 00 00 00   ................

Tracks and Write Offsets:
    DAT:

<rom name="Saturn Super Vol. 1 (Track 1).bin" size="74436096" crc="6b9644a5" md5="a532cf7bc74277098507a710b2e48f88" sha1="1afcb952bc8b710707b711dc42590a0c1f87d642" />
<rom name="Saturn Super Vol. 1 (Track 2).bin" size="370378848" crc="66d412f6" md5="663656ebb6ac05f3cd8f7b6d4f5da1c8" sha1="f283708ec03f21d941d1e3a210a00d0758682498" />
<rom name="Saturn Super Vol. 1 (Track 3).bin" size="17115504" crc="b82bba44" md5="3e2baceb5ad03931139098c6bd35c92b" sha1="5565f7b9fbda588629c9d50924d98e91c4a1248a" />
<rom name="Saturn Super Vol. 1 (Track 4).bin" size="59670240" crc="b53e62ce" md5="c128972fb4d0de0422b8aa6a3d221af2" sha1="0c0cf829f6a9b71a53e662945170670dca670439" />

    Cuesheet:

FILE "Saturn Super Vol. 1 (Track 1).bin" BINARY
  TRACK 01 MODE1/2352
    INDEX 01 00:00:00
FILE "Saturn Super Vol. 1 (Track 2).bin" BINARY
  TRACK 02 MODE2/2352
    INDEX 00 00:00:00
    INDEX 01 00:04:00
FILE "Saturn Super Vol. 1 (Track 3).bin" BINARY
  TRACK 03 AUDIO
    INDEX 00 00:00:00
    INDEX 01 00:02:00
FILE "Saturn Super Vol. 1 (Track 4).bin" BINARY
  TRACK 04 AUDIO
    INDEX 00 00:00:00
    INDEX 01 00:02:00

    Write Offset: -607

13

(2 replies, posted in Verifications)

Dump 1

Logs URL: https://mega.nz/file/xxgWGJDY#G9_GOIY1f … 3gY-Yr45QQ

Common Disc Info:
    Title: Saturn Super Vol. 1
    Foreign Title (Non-latin): サターン・スーパーVol.1
    Disc Number / Letter: 
    Disc Title: 
    System: Sega Saturn
    Media Type: CD-ROM
    Category: Coverdiscs
    Region: Japan
    Languages: Japanese
    Disc Serial: 610-6020-01

    Ringcode Information:
        Mastering Code (laser branded/etched): 610-6020P-00388   8M2   C   56   7
        Mastering SID Code: IFPI L223
        Data-Side Mould SID Code: IFPI 3901
        Label-Side Mould SID Code: (REQUIRED, IF EXISTS)
        Additional Mould: 
        Toolstamp or Mastering Code (engraved/stamped): 
    Barcode: 
    EXE/Build Date: 19950615
    Error Count: 0
    Comments: Internal Serial: 610602001
    Contents:

Playable Demos:
Wing Arms (Very Early Build)
Race Drivin’ (30 Second Playtime)
World Advanced Daisenryaku: Koutetsu no Senpuu (Opening CG)

Video Demos:
Riglord Saga
Clockwork Knight: Pepperouchau no Daibouken Gekan
X-Men: Children of the Atom
Gakkou no Kaidan
Fire Pro Gaiden: Blazing Tornado
Suiko Enbu
Virtual Volleyball
Moero!! Pro Yakyuu '95: Double Header
Metal Fighter MIKU
Lupin the 3rd: The Master File
D no Shokutaku
Princess Maker 2
Puyo Puyo 2
SteamGear Mash
Layer Section
Golden Axe: The Duel
Virtua Fighter Remix

Original Demos:
Shining Wisdom
Detana Twinbee Yahoo! Deluxe Pack
Gakkou no Kowai Uwasa: Hanako-san ga Kita!!
Jikkyou Powerful Pro Yakyuu '95 Kaimaku-ban
Tokimeki Memorial: Forever With You
King of Boxing
Street Fighter: Real Battle On Film
Street Fighter II Movie
QuoVadis
SimCity 2000
Shin Megami Tensei: Devil Summoner
Tengai Makyō: Daiyon no Mokushiroku

Arcade Videos:
Virtua Fighter 2
Sega Rally
Virtua Cop
Virtua Striker

Version and Editions:
    Version: 1.000
    Edition/Release: Bundled with Magazine

Extras:
    Primary Volume Descriptor (PVD):

0320 : 20 20 20 20 20 20 20 20  20 20 20 20 20 31 39 39                199
0330 : 35 30 36 31 34 32 32 33  39 35 34 30 30 14 31 39   5061422395400.19
0340 : 39 35 30 36 31 34 32 32  33 39 35 34 30 30 14 30   95061422395400.0
0350 : 30 30 30 30 30 30 30 30  30 30 30 30 30 30 30 00   000000000000000.
0360 : 30 30 30 30 30 30 30 30  30 30 30 30 30 30 30 30   0000000000000000
0370 : 00 01 00 00 00 00 00 00  00 00 00 00 00 00 00 00   ................

    Header:

0000 : 53 45 47 41 20 53 45 47  41 53 41 54 55 52 4E 20   SEGA SEGASATURN 
0010 : 53 45 47 41 20 54 50 20  54 2D 32 35 35 20 20 20   SEGA TP T-255   
0020 : 36 31 30 36 30 32 30 30  31 20 56 31 2E 30 30 30   610602001 V1.000
0030 : 31 39 39 35 30 36 31 35  43 44 2D 31 2F 31 20 20   19950615CD-1/1  
0040 : 4A 20 20 20 20 20 20 20  20 20 20 20 20 20 20 20   J               
0050 : 4A 20 20 20 20 20 20 20  20 20 20 20 20 20 20 20   J               
0060 : 53 41 54 55 52 4E 20 53  55 50 45 52 20 20 20 20   SATURN SUPER    
0070 : 20 20 20 20 20 20 20 20  20 20 20 20 20 20 20 20                   
0080 : 20 20 20 20 20 20 20 20  20 20 20 20 20 20 20 20                   
0090 : 20 20 20 20 20 20 20 20  20 20 20 20 20 20 20 20                   
00A0 : 20 20 20 20 20 20 20 20  20 20 20 20 20 20 20 20                   
00B0 : 20 20 20 20 20 20 20 20  20 20 20 20 20 20 20 20                   
00C0 : 20 20 20 20 20 20 20 20  20 20 20 20 20 20 20 20                   
00D0 : 00 00 00 00 00 00 00 00  00 00 00 00 00 00 00 00   ................
00E0 : 00 00 18 00 00 00 00 00  00 00 00 00 00 00 00 00   ................
00F0 : 06 01 00 00 00 00 00 00  00 00 00 00 00 00 00 00   ................

Tracks and Write Offsets:
    DAT:

<rom name="Saturn Super Vol. 1 (Track 1).bin" size="74436096" crc="6b9644a5" md5="a532cf7bc74277098507a710b2e48f88" sha1="1afcb952bc8b710707b711dc42590a0c1f87d642" />
<rom name="Saturn Super Vol. 1 (Track 2).bin" size="370378848" crc="66d412f6" md5="663656ebb6ac05f3cd8f7b6d4f5da1c8" sha1="f283708ec03f21d941d1e3a210a00d0758682498" />
<rom name="Saturn Super Vol. 1 (Track 3).bin" size="17115504" crc="b82bba44" md5="3e2baceb5ad03931139098c6bd35c92b" sha1="5565f7b9fbda588629c9d50924d98e91c4a1248a" />
<rom name="Saturn Super Vol. 1 (Track 4).bin" size="59670240" crc="98bf9fe5" md5="d6c9282b0e96ab6b52a305c59f2335d5" sha1="06953700f628afbbf6881ba39cedf0123414f56e" />

    Cuesheet:

FILE "Saturn Super Vol. 1 (Track 1).bin" BINARY
  TRACK 01 MODE1/2352
    INDEX 01 00:00:00
FILE "Saturn Super Vol. 1 (Track 2).bin" BINARY
  TRACK 02 MODE2/2352
    INDEX 00 00:00:00
    INDEX 01 00:04:00
FILE "Saturn Super Vol. 1 (Track 3).bin" BINARY
  TRACK 03 AUDIO
    INDEX 00 00:00:00
    INDEX 01 00:02:00
FILE "Saturn Super Vol. 1 (Track 4).bin" BINARY
  TRACK 04 AUDIO
    INDEX 00 00:00:00
    INDEX 01 00:02:00

    Write Offset: -606

Verifying this database entry: http://redump.org/disc/41098/

I have made 2 seperate dumps of this disc, as I happen to own 2 copies of it. I'll separate them into their own posts in this thread, but yeah.

I've also added the contents of this disc in the relevant section, so hopefully that can be added to the database entry.