Common Disc Info:
    Title: Halo 4: Original Soundtrack
    System: Audio CD
    Media Type: CD-ROM
    Category: Audio
    Region: World
    Disc Serial: 7HZCD12001

    Ringcode Information:
        Data Side Mastering Code (laser branded/etched): 09/08/2012 01:18:00.PM   #82851   2230558 01
        Data Side Mastering SID Code: IFPI LN08
        Data Side Mould SID Code: IFPI JI23

    Barcode: 6 54436 02942 7

    Error Count: 0

Version and Editions:

    Edition/Release: Original

Extras:
    Primary Volume Descriptor (PVD): Disc has no PVD

Tracks and Write Offsets:
    DAT:

<rom name="Halo 4 - Original Soundtrack (Track 01).bin" size="60267648" crc="1652ad14" md5="7331064d8364236b361449e1145182f9" sha1="29076cbe77c4ca42ba972efc88ebba4e96780f57" />
<rom name="Halo 4 - Original Soundtrack (Track 02).bin" size="28487424" crc="0ed91b84" md5="f0cb60da236833c930cf0fe5f8dc2b44" sha1="45ad398b156819c224a7bd61781da594639454ec" />
<rom name="Halo 4 - Original Soundtrack (Track 03).bin" size="24326736" crc="9a5a7942" md5="908b9d02d172b9d6a9c48f9b2c964929" sha1="9c17e24fdd69be333e3c78943c452800decca254" />
<rom name="Halo 4 - Original Soundtrack (Track 04).bin" size="26568192" crc="6453eb1b" md5="22ec605cdeaa1bb1370610c5c23fbc78" sha1="20905aad191a97326fd9e549b61c8f196055e43e" />
<rom name="Halo 4 - Original Soundtrack (Track 05).bin" size="53820816" crc="96c3edc3" md5="d5bd4cd2a781eba69bf8d40c24fff181" sha1="2e8a9b7ae9585fe5652bb6c7d0d1b99c28da29fa" />
<rom name="Halo 4 - Original Soundtrack (Track 06).bin" size="61784688" crc="ba93d971" md5="fb28867ea9ac4b886598845ee0f795aa" sha1="cbdf802da361559e76f853319054978c1de75234" />
<rom name="Halo 4 - Original Soundtrack (Track 07).bin" size="37321536" crc="25417936" md5="677813924da932c861c53dae26b842e6" sha1="833e26acea9b54224e4bb5cbd33551db75c9730a" />
<rom name="Halo 4 - Original Soundtrack (Track 08).bin" size="46056864" crc="7b0a35ab" md5="c77c521b11974900981c46f0cec2ee86" sha1="5557463636937c050551f99101b47256f5b765c3" />
<rom name="Halo 4 - Original Soundtrack (Track 09).bin" size="50810256" crc="02e94fdf" md5="4384cc33c2ec16f8bd7adcd29385600c" sha1="d967021e9d75b42ec1d63b6c48246d080479ddc6" />
<rom name="Halo 4 - Original Soundtrack (Track 10).bin" size="52948224" crc="9f83502f" md5="8951a441f8f81b09defaa87882105ad0" sha1="f442432171e012eedd4c104651f1689ab1e0d752" />
<rom name="Halo 4 - Original Soundtrack (Track 11).bin" size="80788848" crc="659cf495" md5="8a9e9076b4de3e11326cccbd3a2e8212" sha1="4bb127043394ec04ba40a7676bc1cac670ef9910" />
<rom name="Halo 4 - Original Soundtrack (Track 12).bin" size="79932720" crc="6eee5326" md5="2fec2d938873957d1fde4f64d170f50f" sha1="b179d43fb203adec010257e2873dcd4d37f34a6c" />
<rom name="Halo 4 - Original Soundtrack (Track 13).bin" size="59442096" crc="bf3b3060" md5="a787b0d4023423f544b8e44f99b53e48" sha1="a5602077c40d1e73e4e88d420ea7643ab94fc510" />
<rom name="Halo 4 - Original Soundtrack (Track 14).bin" size="77811216" crc="1d00cb19" md5="86a986947814f406a35cc63af56e6f09" sha1="e476994ef4f8c5e52a87b55d01537a1a2cf2673e" />
<rom name="Halo 4 - Original Soundtrack (Track 15).bin" size="85887984" crc="db053b3a" md5="3aac6596ab3c588059ab984fdd935e0b" sha1="ff8aff5a0673826a8ebf00cf3c61f8697cc626c0" />

    Cuesheet:

TITLE "Halo 4 Original Soundtrack"
PERFORMER "Neil Davidge"
FILE "Halo 4 - Original Soundtrack (Track 01).bin" BINARY
  TRACK 01 AUDIO
    TITLE "Awakening"
    PERFORMER "Neil Davidge"
    ISRC GBMZL1200001
    INDEX 01 00:00:00
FILE "Halo 4 - Original Soundtrack (Track 02).bin" BINARY
  TRACK 02 AUDIO
    TITLE "Belly Of The Beast"
    PERFORMER "Neil Davidge"
    ISRC GBMZL1200002
    INDEX 00 00:00:00
    INDEX 01 00:02:60
FILE "Halo 4 - Original Soundtrack (Track 03).bin" BINARY
  TRACK 03 AUDIO
    TITLE "Requiem"
    PERFORMER "Neil Davidge"
    ISRC GBMZL1200003
    INDEX 00 00:00:00
    INDEX 01 00:01:55
FILE "Halo 4 - Original Soundtrack (Track 04).bin" BINARY
  TRACK 04 AUDIO
    TITLE "Legacy"
    PERFORMER "Neil Davidge"
    ISRC GBMZL1200004
    INDEX 00 00:00:00
    INDEX 01 00:01:27
FILE "Halo 4 - Original Soundtrack (Track 05).bin" BINARY
  TRACK 05 AUDIO
    TITLE "Faithless"
    PERFORMER "Neil Davidge"
    ISRC GBMZL1200005
    INDEX 00 00:00:00
    INDEX 01 00:02:42
FILE "Halo 4 - Original Soundtrack (Track 06).bin" BINARY
  TRACK 06 AUDIO
    TITLE "Haven"
    PERFORMER "Neil Davidge"
    ISRC GBMZL1200006
    INDEX 00 00:00:00
    INDEX 01 00:05:12
FILE "Halo 4 - Original Soundtrack (Track 07).bin" BINARY
  TRACK 07 AUDIO
    TITLE "Nemesis"
    PERFORMER "Neil Davidge"
    ISRC GBMZL1200007
    INDEX 00 00:00:00
    INDEX 01 00:00:03
FILE "Halo 4 - Original Soundtrack (Track 08).bin" BINARY
  TRACK 08 AUDIO
    TITLE "Ascendancy"
    PERFORMER "Neil Davidge"
    ISRC GBMZL1200008
    INDEX 00 00:00:00
    INDEX 01 00:01:27
FILE "Halo 4 - Original Soundtrack (Track 09).bin" BINARY
  TRACK 09 AUDIO
    TITLE "Solace"
    PERFORMER "Neil Davidge"
    ISRC GBMZL1200009
    INDEX 00 00:00:00
    INDEX 01 00:02:42
FILE "Halo 4 - Original Soundtrack (Track 10).bin" BINARY
  TRACK 10 AUDIO
    TITLE "To Galaxy"
    PERFORMER "Neil Davidge"
    ISRC GBMZL1200010
    INDEX 00 00:00:00
    INDEX 01 00:02:42
FILE "Halo 4 - Original Soundtrack (Track 11).bin" BINARY
  TRACK 11 AUDIO
    TITLE "Immaterial"
    PERFORMER "Neil Davidge"
    ISRC GBMZL1200011
    INDEX 00 00:00:00
    INDEX 01 00:04:66
FILE "Halo 4 - Original Soundtrack (Track 12).bin" BINARY
  TRACK 12 AUDIO
    TITLE "117"
    PERFORMER "Neil Davidge"
    ISRC GBMZL1200012
    INDEX 00 00:00:00
    INDEX 01 00:04:42
FILE "Halo 4 - Original Soundtrack (Track 13).bin" BINARY
  TRACK 13 AUDIO
    TITLE "Arrival"
    PERFORMER "Neil Davidge"
    ISRC GBMZL1200013
    INDEX 00 00:00:00
    INDEX 01 00:00:09
FILE "Halo 4 - Original Soundtrack (Track 14).bin" BINARY
  TRACK 14 AUDIO
    TITLE "Revival"
    PERFORMER "Neil Davidge"
    ISRC GBMZL1200014
    INDEX 00 00:00:00
    INDEX 01 00:01:73
FILE "Halo 4 - Original Soundtrack (Track 15).bin" BINARY
  TRACK 15 AUDIO
    TITLE "Green And Blue"
    PERFORMER "Neil Davidge"
    ISRC GBMZL1200015
    INDEX 00 00:00:00
    INDEX 01 00:05:43

    Write Offset: 0


one pic! smile http://forest.no-ip.org/redump/ha/IMG_20210906_0006.jpg

logs: http://forest.no-ip.org/redump/ha/Halo% … k_logs.zip

Greets,
Gorski

Common Disc Info:
    Title: World of WarCraft: Mists of Pandaria (Soundtrack)
    System: Audio CD
    Media Type: CD-ROM
    Category: Bonus Discs
    Region: UK

    Ringcode Information:
        Data Side Mastering Code (laser branded/etched): arvato 55167323/72854102UK 22
        Data Side Mastering SID Code: IFPI LB 46
        Data Side Mould SID Code: IFPI 0785

    Error Count: 0

    Comments: 72854300UK

Version and Editions:

    Edition/Release: Original (VERIFY THIS)

Extras:
    Primary Volume Descriptor (PVD): Disc has no PVD

Tracks and Write Offsets:
    DAT:

<rom name=" Mists of Pandaria (Soundtrack) (Track 01).bin" size="84142800" crc="2fd40d34" md5="c88e8b00e7823f19216f8f7fe4a0ccea" sha1="50eb7c11577aff99798e44882bc807a3436f58d6" />
<rom name=" Mists of Pandaria (Soundtrack) (Track 02).bin" size="39424224" crc="7ed1a45c" md5="80c262399d5bb3134a28647bb2f70493" sha1="b665138fec6aa05a4564ac4fe537007ea7c56b1c" />
<rom name=" Mists of Pandaria (Soundtrack) (Track 03).bin" size="26819856" crc="3ffc41d1" md5="7e5303c337e6deae7cbba346736a0e1b" sha1="07a055854c73ea166ab5a1be4b498aa447bda245" />
<rom name=" Mists of Pandaria (Soundtrack) (Track 04).bin" size="20735232" crc="d104fcba" md5="7cd7f0bd8dd46a15bb6cc8ad24a5cdb7" sha1="946542e7875abddd929c1c5b19ce4d212bb2059b" />
<rom name=" Mists of Pandaria (Soundtrack) (Track 05).bin" size="61455408" crc="717b8ee6" md5="9ba8454563c3508d663264ab84b21a30" sha1="912f9effe02cd2d54cbdb34e54f92451b94a7f8d" />
<rom name=" Mists of Pandaria (Soundtrack) (Track 06).bin" size="39864048" crc="ba277053" md5="74b79977e1ae685474fb57dcee75f118" sha1="4b5523637ca27033264777f7db12205ea145fde8" />
<rom name=" Mists of Pandaria (Soundtrack) (Track 07).bin" size="40673136" crc="576f0e15" md5="0558a61eb0d94bb455016c7c09ea352b" sha1="2c66ff2db648c5624928074eeaeed1e50ebb60c0" />
<rom name=" Mists of Pandaria (Soundtrack) (Track 08).bin" size="44744448" crc="dd80fc0f" md5="4c34a6233682d756bab7c53d1b0dbe80" sha1="40f144ed66fe5842eda25ef14c7e3e72fa2303f0" />
<rom name=" Mists of Pandaria (Soundtrack) (Track 09).bin" size="51522912" crc="566493b6" md5="1ab11d79189348c203d98fd0f17ade2d" sha1="ed201be4697501fbe28d054f6f48ea96a2dbb345" />
<rom name=" Mists of Pandaria (Soundtrack) (Track 10).bin" size="22750896" crc="3d572868" md5="ef5e3392203eb02c317009ac5f686f63" sha1="d92d7da8927c94824b80d834b457e4814250b0de" />
<rom name=" Mists of Pandaria (Soundtrack) (Track 11).bin" size="45861648" crc="ad2b2713" md5="d31b11e0c845570e22d7372059d4f750" sha1="b81ec78e3970ab90a2a70d326085c7a6118fbb17" />
<rom name=" Mists of Pandaria (Soundtrack) (Track 12).bin" size="25911984" crc="f9289db5" md5="7e2ab4b2cea958202979ce3365269c8f" sha1="3f607a7785b2d1bcfa557d242e6aea5401f796a3" />
<rom name=" Mists of Pandaria (Soundtrack) (Track 13).bin" size="58588320" crc="603da252" md5="d55afadd2bd728b799c610f1757cd557" sha1="baa6c761b402492fcf6f7291439c95e6bc84ae3f" />
<rom name=" Mists of Pandaria (Soundtrack) (Track 14).bin" size="55650672" crc="e495c427" md5="31706ffe85dc791a99385cdd72abe26d" sha1="80a532edf81d9eb7e4a1cf79377e73f60622788f" />
<rom name=" Mists of Pandaria (Soundtrack) (Track 15).bin" size="34750800" crc="1d5c562a" md5="2c3ded87f36ac324ebf086c99300b34f" sha1="faa15ba63073ae3a04de79b58da55aa2dd51dd7c" />
<rom name=" Mists of Pandaria (Soundtrack) (Track 16).bin" size="50276352" crc="de3cca23" md5="38bdde2db462091442009788910ff721" sha1="28a30c85988c1a8b58cf85b4504af5b22b97c69e" />
<rom name=" Mists of Pandaria (Soundtrack) (Track 17).bin" size="19888512" crc="e6527a74" md5="c0a23733c95d05c8f44f5205627eb5cd" sha1="3af8d1d407b826adff4239f6a988d3c947bbd3a9" />
<rom name=" Mists of Pandaria (Soundtrack) (Track 18).bin" size="59677296" crc="2285ce37" md5="88c577f028e956326baa586c76a1d027" sha1="71de8c2526dafef80d2b958796844614bfb139e1" />
<rom name=" Mists of Pandaria (Soundtrack) (Track 19).bin" size="15393840" crc="4c3ac2c6" md5="68e2eff5099151eba819d1045abce422" sha1="929a8c28737d5c488f98d1cc3dd06768a6abecf5" />
<rom name=" Mists of Pandaria (Soundtrack) (Track 20).bin" size="26960976" crc="310ae407" md5="fc6270f9405a10314ce6cdfc5d56ce37" sha1="9f0fdff5e1bdd9acf5729d74f8e35d94e6e09666" />

    Cuesheet:

FILE " Mists of Pandaria (Soundtrack) (Track 01).bin" BINARY
  TRACK 01 AUDIO
    INDEX 01 00:00:00
FILE " Mists of Pandaria (Soundtrack) (Track 02).bin" BINARY
  TRACK 02 AUDIO
    INDEX 01 00:00:00
FILE " Mists of Pandaria (Soundtrack) (Track 03).bin" BINARY
  TRACK 03 AUDIO
    INDEX 01 00:00:00
FILE " Mists of Pandaria (Soundtrack) (Track 04).bin" BINARY
  TRACK 04 AUDIO
    INDEX 01 00:00:00
FILE " Mists of Pandaria (Soundtrack) (Track 05).bin" BINARY
  TRACK 05 AUDIO
    INDEX 01 00:00:00
FILE " Mists of Pandaria (Soundtrack) (Track 06).bin" BINARY
  TRACK 06 AUDIO
    INDEX 01 00:00:00
FILE " Mists of Pandaria (Soundtrack) (Track 07).bin" BINARY
  TRACK 07 AUDIO
    INDEX 01 00:00:00
FILE " Mists of Pandaria (Soundtrack) (Track 08).bin" BINARY
  TRACK 08 AUDIO
    INDEX 01 00:00:00
FILE " Mists of Pandaria (Soundtrack) (Track 09).bin" BINARY
  TRACK 09 AUDIO
    INDEX 01 00:00:00
FILE " Mists of Pandaria (Soundtrack) (Track 10).bin" BINARY
  TRACK 10 AUDIO
    INDEX 01 00:00:00
FILE " Mists of Pandaria (Soundtrack) (Track 11).bin" BINARY
  TRACK 11 AUDIO
    INDEX 01 00:00:00
FILE " Mists of Pandaria (Soundtrack) (Track 12).bin" BINARY
  TRACK 12 AUDIO
    INDEX 01 00:00:00
FILE " Mists of Pandaria (Soundtrack) (Track 13).bin" BINARY
  TRACK 13 AUDIO
    INDEX 01 00:00:00
FILE " Mists of Pandaria (Soundtrack) (Track 14).bin" BINARY
  TRACK 14 AUDIO
    INDEX 01 00:00:00
FILE " Mists of Pandaria (Soundtrack) (Track 15).bin" BINARY
  TRACK 15 AUDIO
    INDEX 01 00:00:00
FILE " Mists of Pandaria (Soundtrack) (Track 16).bin" BINARY
  TRACK 16 AUDIO
    INDEX 01 00:00:00
FILE " Mists of Pandaria (Soundtrack) (Track 17).bin" BINARY
  TRACK 17 AUDIO
    INDEX 01 00:00:00
FILE " Mists of Pandaria (Soundtrack) (Track 18).bin" BINARY
  TRACK 18 AUDIO
    INDEX 01 00:00:00
FILE " Mists of Pandaria (Soundtrack) (Track 19).bin" BINARY
  TRACK 19 AUDIO
    INDEX 01 00:00:00
FILE " Mists of Pandaria (Soundtrack) (Track 20).bin" BINARY
  TRACK 20 AUDIO
    INDEX 01 00:00:00

    Write Offset: 0

some pics:

http://forest.no-ip.org/redump/mp/IMG_20210906_0003.jpg

http://forest.no-ip.org/redump/mp/IMG_20210906_0004.jpg

http://forest.no-ip.org/redump/mp/IMG_20210906_0005.jpg


logs: http://forest.no-ip.org/redump/mp/Mists … )_logs.zip

Greets,
Gorski

Common Disc Info:
    Title: Momodora: Reverie Under the Moonlight (Official Soundtrack)
    System: Audio CD
    Media Type: CD-ROM
    Category: Audio
    Region: USA

    Ringcode Information:
        Data Side Mastering Code (laser branded/etched): MCD2455    DISC MAKERS
        Data Side Mastering SID Code: IFPI L274
        Label Side Mould SID Code: IFPI ALK04

    Error Count: 0

Version and Editions:

    Edition/Release: Original

Extras:
    Primary Volume Descriptor (PVD): Disc has no PVD

Tracks and Write Offsets:
    DAT:

<rom name="Momodora - Reverie Under the Moonlight (Official Soundtrack) (Track 01).bin" size="15135120" crc="311a5791" md5="d804b43144c3a58fa50963383d04f0d8" sha1="d8b7f4e69a4716ae181ec67d464c69e88e040525" />
<rom name="Momodora - Reverie Under the Moonlight (Official Soundtrack) (Track 02).bin" size="9363312" crc="0da9edcc" md5="cb574e13a000c9a81425d4164d7a1c2d" sha1="9a77e9944d07909630136d3918cec2b43cf88dc0" />
<rom name="Momodora - Reverie Under the Moonlight (Official Soundtrack) (Track 03).bin" size="9629088" crc="87df16f7" md5="fc84e25f86ff7386ab66a9c3e53f55db" sha1="d82bd802fa98a697d7d5eae8e00366834d721fe0" />
<rom name="Momodora - Reverie Under the Moonlight (Official Soundtrack) (Track 04).bin" size="14989296" crc="0a8be6b5" md5="6dfbf0824f0e82691804d5e86b92f4e4" sha1="7dededa834677299f1e24f5afa2c5814fb917424" />
<rom name="Momodora - Reverie Under the Moonlight (Official Soundtrack) (Track 05).bin" size="40854240" crc="1684353b" md5="1c4ed7bb2589d60f5d72db3f83338f7c" sha1="f08cc4ec7be112f7e22bc901d9d936e14f7cee67" />
<rom name="Momodora - Reverie Under the Moonlight (Official Soundtrack) (Track 06).bin" size="17146080" crc="2efc6e3b" md5="9baf87d6857671a9831a36ff2074b850" sha1="4cdb50fc84e43cdb61d72cbbfbfb56a508033d60" />
<rom name="Momodora - Reverie Under the Moonlight (Official Soundtrack) (Track 07).bin" size="18526704" crc="31ed5429" md5="82c91f0197e5342d3f0b6d7e5e5beadf" sha1="b147a48aea19b8ad8a6f01ced81c28effefc3ef1" />
<rom name="Momodora - Reverie Under the Moonlight (Official Soundtrack) (Track 08).bin" size="19587456" crc="b04e776b" md5="b51a757482f04c089f669c58214edbc9" sha1="f3446ef63ec82b8dd600bd59a30c7dea2c7cb45b" />
<rom name="Momodora - Reverie Under the Moonlight (Official Soundtrack) (Track 09).bin" size="16071216" crc="7fae4dc4" md5="5e6194b0ebae8e2eaa6b0b09da8151e4" sha1="f083e1f90be512229d48985e876268cb3c850aed" />
<rom name="Momodora - Reverie Under the Moonlight (Official Soundtrack) (Track 10).bin" size="25406304" crc="3e6cb8b2" md5="6b7fb5bdbdd97301b9d5aa4c219fbf9b" sha1="95b3b1e39671e4e62760e06fb0a235dedb8191fb" />
<rom name="Momodora - Reverie Under the Moonlight (Official Soundtrack) (Track 11).bin" size="25853184" crc="7ac283de" md5="5488a5818d7ac8dc0b4a27448f5f86c1" sha1="9c020434644308731813677bf3d4c2ac414256d9" />
<rom name="Momodora - Reverie Under the Moonlight (Official Soundtrack) (Track 12).bin" size="18136272" crc="947e61c0" md5="162403929e40210f3bdfc0a5076d4f63" sha1="b49e411894a633b6fc77597ad75216348e422a29" />
<rom name="Momodora - Reverie Under the Moonlight (Official Soundtrack) (Track 13).bin" size="12315072" crc="daec0d04" md5="641f9c4ad8e74dcfabf5fae03c58e15a" sha1="efcab8bfe0e8921ff6403344cdba24e47e192089" />
<rom name="Momodora - Reverie Under the Moonlight (Official Soundtrack) (Track 14).bin" size="31116960" crc="80387cf6" md5="7799fd47a5b968a6a5b520bddb7ed339" sha1="cc9296af15d08ad87362b3bf58a133096038a4eb" />
<rom name="Momodora - Reverie Under the Moonlight (Official Soundtrack) (Track 15).bin" size="29684592" crc="3cbd97d8" md5="c7f25885a0a811bd1ff78a244d0d563c" sha1="29c13336a74bb2c93c3584561e6ff5eceb9f6ac9" />
<rom name="Momodora - Reverie Under the Moonlight (Official Soundtrack) (Track 16).bin" size="7855680" crc="604b8565" md5="36629b213c0a83bb3f5a3b0433ece8d1" sha1="4312bc865cce79e8fec35023cdd2e6a9adb16f98" />
<rom name="Momodora - Reverie Under the Moonlight (Official Soundtrack) (Track 17).bin" size="12983040" crc="a7f91077" md5="fc6458638f26851f601d243ab5db20b5" sha1="d95fa3e95f55ba351f9856d00fe6332129ec3c1d" />
<rom name="Momodora - Reverie Under the Moonlight (Official Soundtrack) (Track 18).bin" size="19126464" crc="397dcfb8" md5="bcd81e9a7275586eec66df45c158e2f9" sha1="5790465c15bee9fe0387f188e48520ae246d299b" />
<rom name="Momodora - Reverie Under the Moonlight (Official Soundtrack) (Track 19).bin" size="12731376" crc="90057690" md5="7042f448d9dd6ef6d761e759c9450b5a" sha1="5a99734e157332a1cc415bb7d5ac25dec471d7b2" />
<rom name="Momodora - Reverie Under the Moonlight (Official Soundtrack) (Track 20).bin" size="16141776" crc="6f970ae0" md5="464302036c4e99e1dde6d5ad91236408" sha1="8dd78cceef1899809969367d1aff5c92bfa2ef3c" />
<rom name="Momodora - Reverie Under the Moonlight (Official Soundtrack) (Track 21).bin" size="21177408" crc="cc02d8eb" md5="71c0d5c1eaba14cc219e9a2169c3576b" sha1="cf95d4c37b6b3d41e7d8c0facf7cfe174c9b4186" />

    Cuesheet:

TITLE "Momodora"
PERFORMER "Bombservice"
FILE "Momodora - Reverie Under the Moonlight (Official Soundtrack) (Track 01).bin" BINARY
  TRACK 01 AUDIO
    TITLE "Overture"
    PERFORMER "Bombservice"
    INDEX 01 00:00:00
FILE "Momodora - Reverie Under the Moonlight (Official Soundtrack) (Track 02).bin" BINARY
  TRACK 02 AUDIO
    TITLE "Title"
    PERFORMER "Bombservice"
    INDEX 01 00:00:00
FILE "Momodora - Reverie Under the Moonlight (Official Soundtrack) (Track 03).bin" BINARY
  TRACK 03 AUDIO
    TITLE "File Select"
    PERFORMER "Bombservice"
    INDEX 01 00:00:00
FILE "Momodora - Reverie Under the Moonlight (Official Soundtrack) (Track 04).bin" BINARY
  TRACK 04 AUDIO
    TITLE "Malevolence"
    PERFORMER "Bombservice"
    INDEX 01 00:00:00
FILE "Momodora - Reverie Under the Moonlight (Official Soundtrack) (Track 05).bin" BINARY
  TRACK 05 AUDIO
    TITLE "Alabaster"
    PERFORMER "Bombservice"
    INDEX 01 00:00:00
FILE "Momodora - Reverie Under the Moonlight (Official Soundtrack) (Track 06).bin" BINARY
  TRACK 06 AUDIO
    TITLE "Pardoner's Dance"
    PERFORMER "Bombservice"
    INDEX 01 00:00:00
FILE "Momodora - Reverie Under the Moonlight (Official Soundtrack) (Track 07).bin" BINARY
  TRACK 07 AUDIO
    TITLE "House of Cinders"
    PERFORMER "Bombservice"
    INDEX 01 00:00:00
FILE "Momodora - Reverie Under the Moonlight (Official Soundtrack) (Track 08).bin" BINARY
  TRACK 08 AUDIO
    TITLE "Darkness"
    PERFORMER "Bombservice"
    INDEX 01 00:00:00
FILE "Momodora - Reverie Under the Moonlight (Official Soundtrack) (Track 09).bin" BINARY
  TRACK 09 AUDIO
    TITLE "Confrontation"
    PERFORMER "Bombservice"
    INDEX 01 00:00:00
FILE "Momodora - Reverie Under the Moonlight (Official Soundtrack) (Track 10).bin" BINARY
  TRACK 10 AUDIO
    TITLE "Gardens of Stone"
    PERFORMER "Bombservice"
    INDEX 01 00:00:00
FILE "Momodora - Reverie Under the Moonlight (Official Soundtrack) (Track 11).bin" BINARY
  TRACK 11 AUDIO
    TITLE "Fragmented Majesty"
    PERFORMER "Bombservice"
    INDEX 01 00:00:00
FILE "Momodora - Reverie Under the Moonlight (Official Soundtrack) (Track 12).bin" BINARY
  TRACK 12 AUDIO
    TITLE "Assault"
    PERFORMER "Bombservice"
    INDEX 01 00:00:00
FILE "Momodora - Reverie Under the Moonlight (Official Soundtrack) (Track 13).bin" BINARY
  TRACK 13 AUDIO
    TITLE "Reprise"
    PERFORMER "Bombservice"
    INDEX 01 00:00:00
FILE "Momodora - Reverie Under the Moonlight (Official Soundtrack) (Track 14).bin" BINARY
  TRACK 14 AUDIO
    TITLE "The Lovely Queen"
    PERFORMER "Bombservice"
    INDEX 01 00:00:00
FILE "Momodora - Reverie Under the Moonlight (Official Soundtrack) (Track 15).bin" BINARY
  TRACK 15 AUDIO
    TITLE "Reverie"
    PERFORMER "Bombservice"
    INDEX 01 00:00:00
FILE "Momodora - Reverie Under the Moonlight (Official Soundtrack) (Track 16).bin" BINARY
  TRACK 16 AUDIO
    TITLE "Momodora Theme"
    PERFORMER "Bombservice"
    INDEX 01 00:00:00
FILE "Momodora - Reverie Under the Moonlight (Official Soundtrack) (Track 17).bin" BINARY
  TRACK 17 AUDIO
    TITLE "Alone"
    PERFORMER "Bombservice"
    INDEX 01 00:00:00
FILE "Momodora - Reverie Under the Moonlight (Official Soundtrack) (Track 18).bin" BINARY
  TRACK 18 AUDIO
    TITLE "Sunken Ruin"
    PERFORMER "Bombservice"
    INDEX 01 00:00:00
FILE "Momodora - Reverie Under the Moonlight (Official Soundtrack) (Track 19).bin" BINARY
  TRACK 19 AUDIO
    TITLE "The Royal Garden"
    PERFORMER "Bombservice"
    INDEX 01 00:00:00
FILE "Momodora - Reverie Under the Moonlight (Official Soundtrack) (Track 20).bin" BINARY
  TRACK 20 AUDIO
    TITLE "Pardoner's Dance (Chiptune)"
    PERFORMER "Bombservice"
    INDEX 01 00:00:00
FILE "Momodora - Reverie Under the Moonlight (Official Soundtrack) (Track 21).bin" BINARY
  TRACK 21 AUDIO
    TITLE "Hallowed Ground"
    PERFORMER "Bombservice"
    INDEX 01 00:00:00

    Write Offset: 0


some pics:

http://forest.no-ip.org/redump/mo/IMG_20210906_0001.jpg

http://forest.no-ip.org/redump/mo/IMG_20210906_0002.jpg


logs http://forest.no-ip.org/redump/mo/Momod … )_logs.zip


Greets,
Gorski

Common Disc Info:
    Title: Halo 4: Original Soundtrack
    System: Audio CD
    Media Type: CD-ROM
    Category: Audio
    Region: USA
    Languages: Klingon (CHANGE THIS)
    Disc Serial: 7HZCD12001

    Ringcode Information:
        Data Side Mastering Code (laser branded/etched): 09/08/2012 01:18:00.PM   #82851 2230558 01
        Data Side Mastering SID Code: IFPI LN08
        Data Side Mould SID Code: IFPI JI23

    Barcode: 6 54436 02942 7

    Error Count: 0

Version and Editions:

    Edition/Release: Original

Extras:
    Primary Volume Descriptor (PVD): Disc has no PVD

Tracks and Write Offsets:
    DAT:

<rom name="Audio CD (Track 01).bin" size="60267648" crc="1652ad14" md5="7331064d8364236b361449e1145182f9" sha1="29076cbe77c4ca42ba972efc88ebba4e96780f57" />
<rom name="Audio CD (Track 02).bin" size="28487424" crc="0ed91b84" md5="f0cb60da236833c930cf0fe5f8dc2b44" sha1="45ad398b156819c224a7bd61781da594639454ec" />
<rom name="Audio CD (Track 03).bin" size="24326736" crc="9a5a7942" md5="908b9d02d172b9d6a9c48f9b2c964929" sha1="9c17e24fdd69be333e3c78943c452800decca254" />
<rom name="Audio CD (Track 04).bin" size="26568192" crc="6453eb1b" md5="22ec605cdeaa1bb1370610c5c23fbc78" sha1="20905aad191a97326fd9e549b61c8f196055e43e" />
<rom name="Audio CD (Track 05).bin" size="53820816" crc="96c3edc3" md5="d5bd4cd2a781eba69bf8d40c24fff181" sha1="2e8a9b7ae9585fe5652bb6c7d0d1b99c28da29fa" />
<rom name="Audio CD (Track 06).bin" size="61784688" crc="ba93d971" md5="fb28867ea9ac4b886598845ee0f795aa" sha1="cbdf802da361559e76f853319054978c1de75234" />
<rom name="Audio CD (Track 07).bin" size="37321536" crc="25417936" md5="677813924da932c861c53dae26b842e6" sha1="833e26acea9b54224e4bb5cbd33551db75c9730a" />
<rom name="Audio CD (Track 08).bin" size="46056864" crc="7b0a35ab" md5="c77c521b11974900981c46f0cec2ee86" sha1="5557463636937c050551f99101b47256f5b765c3" />
<rom name="Audio CD (Track 09).bin" size="50810256" crc="02e94fdf" md5="4384cc33c2ec16f8bd7adcd29385600c" sha1="d967021e9d75b42ec1d63b6c48246d080479ddc6" />
<rom name="Audio CD (Track 10).bin" size="52948224" crc="9f83502f" md5="8951a441f8f81b09defaa87882105ad0" sha1="f442432171e012eedd4c104651f1689ab1e0d752" />
<rom name="Audio CD (Track 11).bin" size="80788848" crc="659cf495" md5="8a9e9076b4de3e11326cccbd3a2e8212" sha1="4bb127043394ec04ba40a7676bc1cac670ef9910" />
<rom name="Audio CD (Track 12).bin" size="79932720" crc="6eee5326" md5="2fec2d938873957d1fde4f64d170f50f" sha1="b179d43fb203adec010257e2873dcd4d37f34a6c" />
<rom name="Audio CD (Track 13).bin" size="59442096" crc="bf3b3060" md5="a787b0d4023423f544b8e44f99b53e48" sha1="a5602077c40d1e73e4e88d420ea7643ab94fc510" />
<rom name="Audio CD (Track 14).bin" size="77811216" crc="1d00cb19" md5="86a986947814f406a35cc63af56e6f09" sha1="e476994ef4f8c5e52a87b55d01537a1a2cf2673e" />
<rom name="Audio CD (Track 15).bin" size="85887984" crc="db053b3a" md5="3aac6596ab3c588059ab984fdd935e0b" sha1="ff8aff5a0673826a8ebf00cf3c61f8697cc626c0" />

    Cuesheet:

TITLE "Halo 4 Original Soundtrack"
PERFORMER "Neil Davidge"
FILE "Audio CD (Track 01).bin" BINARY
  TRACK 01 AUDIO
    TITLE "Awakening"
    PERFORMER "Neil Davidge"
    ISRC GBMZL1200001
    INDEX 01 00:00:00
FILE "Audio CD (Track 02).bin" BINARY
  TRACK 02 AUDIO
    TITLE "Belly Of The Beast"
    PERFORMER "Neil Davidge"
    ISRC GBMZL1200002
    INDEX 00 00:00:00
    INDEX 01 00:02:60
FILE "Audio CD (Track 03).bin" BINARY
  TRACK 03 AUDIO
    TITLE "Requiem"
    PERFORMER "Neil Davidge"
    ISRC GBMZL1200003
    INDEX 00 00:00:00
    INDEX 01 00:01:55
FILE "Audio CD (Track 04).bin" BINARY
  TRACK 04 AUDIO
    TITLE "Legacy"
    PERFORMER "Neil Davidge"
    ISRC GBMZL1200004
    INDEX 00 00:00:00
    INDEX 01 00:01:27
FILE "Audio CD (Track 05).bin" BINARY
  TRACK 05 AUDIO
    TITLE "Faithless"
    PERFORMER "Neil Davidge"
    ISRC GBMZL1200005
    INDEX 00 00:00:00
    INDEX 01 00:02:42
FILE "Audio CD (Track 06).bin" BINARY
  TRACK 06 AUDIO
    TITLE "Haven"
    PERFORMER "Neil Davidge"
    ISRC GBMZL1200006
    INDEX 00 00:00:00
    INDEX 01 00:05:12
FILE "Audio CD (Track 07).bin" BINARY
  TRACK 07 AUDIO
    TITLE "Nemesis"
    PERFORMER "Neil Davidge"
    ISRC GBMZL1200007
    INDEX 00 00:00:00
    INDEX 01 00:00:03
FILE "Audio CD (Track 08).bin" BINARY
  TRACK 08 AUDIO
    TITLE "Ascendancy"
    PERFORMER "Neil Davidge"
    ISRC GBMZL1200008
    INDEX 00 00:00:00
    INDEX 01 00:01:27
FILE "Audio CD (Track 09).bin" BINARY
  TRACK 09 AUDIO
    TITLE "Solace"
    PERFORMER "Neil Davidge"
    ISRC GBMZL1200009
    INDEX 00 00:00:00
    INDEX 01 00:02:42
FILE "Audio CD (Track 10).bin" BINARY
  TRACK 10 AUDIO
    TITLE "To Galaxy"
    PERFORMER "Neil Davidge"
    ISRC GBMZL1200010
    INDEX 00 00:00:00
    INDEX 01 00:02:42
FILE "Audio CD (Track 11).bin" BINARY
  TRACK 11 AUDIO
    TITLE "Immaterial"
    PERFORMER "Neil Davidge"
    ISRC GBMZL1200011
    INDEX 00 00:00:00
    INDEX 01 00:04:66
FILE "Audio CD (Track 12).bin" BINARY
  TRACK 12 AUDIO
    TITLE "117"
    PERFORMER "Neil Davidge"
    ISRC GBMZL1200012
    INDEX 00 00:00:00
    INDEX 01 00:04:42
FILE "Audio CD (Track 13).bin" BINARY
  TRACK 13 AUDIO
    TITLE "Arrival"
    PERFORMER "Neil Davidge"
    ISRC GBMZL1200013
    INDEX 00 00:00:00
    INDEX 01 00:00:09
FILE "Audio CD (Track 14).bin" BINARY
  TRACK 14 AUDIO
    TITLE "Revival"
    PERFORMER "Neil Davidge"
    ISRC GBMZL1200014
    INDEX 00 00:00:00
    INDEX 01 00:01:73
FILE "Audio CD (Track 15).bin" BINARY
  TRACK 15 AUDIO
    TITLE "Green And Blue"
    PERFORMER "Neil Davidge"
    ISRC GBMZL1200015
    INDEX 00 00:00:00
    INDEX 01 00:05:43

    Write Offset: 0

one pic ... smile
http://forest.no-ip.org/redump/h4/IMG_20210828_0002.jpg

submission log files:

http://forest.no-ip.org/redump/h4/Audio%20CD_logs.zip

Greets,
Gorski

LBA[000000, 0000000]: Track[01]: Audio track, but this sector is data
LBA[000001, 0x00001]: Track[01]: Audio track, but this sector is data
LBA[000002, 0x00002]: Track[01]: Audio track, but this sector is data
LBA[000003, 0x00003]: Track[01]: Audio track, but this sector is data
LBA[000004, 0x00004]: Track[01]: Audio track, but this sector is data
LBA[000005, 0x00005]: Track[01]: Audio track, but this sector is data
LBA[000006, 0x00006]: Track[01]: Audio track, but this sector is data


this is log file ....
so someone ?:) up topic .. smile

not working ...
problem is different,
just dic not handle this disk .. smile

Greets,
Gorski

i think this is dic error, some how do mistake

https://forest.no-ip.org/redump/aliengate.zip

here is log files from this title ...



error during dump ...

http://forest.no-ip.org/redump/1.png

here is dumped with isobuster
https://forest.no-ip.org/redump/aliengate%5Bcdi%5D.rar

i hope some one to solve this mistake ..

Greets